osu file format v14

[General]
AudioFilename: audio.mp3
AudioLeadIn: 0
PreviewTime: 42689
Countdown: 0
SampleSet: Soft
StackLeniency: 0.4
Mode: 0
LetterboxInBreaks: 0
WidescreenStoryboard: 1

[Editor]
DistanceSpacing: 0.6
BeatDivisor: 4
GridSize: 32
TimelineZoom: 1.6

[Metadata]
Title:Haiiro no Saga (TV Size)
TitleUnicode:灰色のサーガ (TV Size)
Artist:ChouCho
ArtistUnicode:ChouCho
Creator:SMOKELIND
Version:Cute Witch
Source:魔女の旅々
Tags:Wandering Witch: The Journey of Elaina Japanese Anime Pop JPop J-Pop Majo no Tabitabi Ending Ed Basensorex
BeatmapID:2648929
BeatmapSetID:1274862

[Difficulty]
HPDrainRate:4.7
CircleSize:4
OverallDifficulty:8.4
ApproachRate:9
SliderMultiplier:1.77
SliderTickRate:1

[Events]
//Background and Video events
0,0,"Elaina.jpg",0,0
//Break Periods
//Storyboard Layer 0 (Background)
//Storyboard Layer 1 (Fail)
//Storyboard Layer 2 (Pass)
//Storyboard Layer 3 (Foreground)
//Storyboard Layer 4 (Overlay)
//Storyboard Sound Samples

[TimingPoints]
62,326.086956521739,5,2,7,47,1,0
62,-212.765957446809,4,2,7,47,0,0
3322,326.086956521739,6,2,7,47,1,0
3322,-212.765957446809,4,2,7,47,0,0
5271,326.086956521739,5,2,7,67,1,0
5271,-114.942528735633,4,2,7,67,0,0
8531,326.086956521739,6,2,7,67,1,0
8531,-114.942528735633,4,2,7,67,0,0
10496,326.086956521739,6,2,7,37,1,0
10496,-175.438596491228,4,2,7,37,0,0
17995,326.086956521739,6,2,7,47,1,0
17995,-149.253731343284,4,2,7,47,0,0
25494,326.086956521739,6,2,7,57,1,0
25494,-129.87012987013,4,2,7,57,0,0
29407,326.086956521739,5,2,7,57,1,0
29407,-129.87012987013,4,2,7,57,0,0
35924,324.851109907959,6,2,7,67,1,0
35924,-114.942528735633,4,2,7,67,0,0
39827,326.086956521739,6,2,7,67,1,0
39827,-114.942528735633,4,2,7,67,0,0
41783,329.67032967033,6,2,7,67,1,0
41783,-114.942528735633,4,2,7,67,0,0
43760,326.086956521739,6,2,7,77,1,0
43760,-93.4579439252336,4,2,7,77,0,0
75062,326.086956521739,5,2,7,47,1,0
75062,-175.438596491228,4,2,7,47,0,0
78322,326.086956521739,6,2,7,47,1,0
78322,-175.438596491228,4,2,7,47,0,0
80278,326.086956521739,5,2,7,47,1,0
80278,-175.438596491228,4,2,7,47,0,0
83539,326.086956521739,6,2,7,47,1,0
83539,-175.438596491228,4,2,7,47,0,0
85495,-370.370370370372,4,2,7,47,0,0
87452,-370.370370370372,4,2,7,5,0,0

[Colours]
Combo1 : 255,4,99
Combo2 : 255,247,170
Combo3 : 219,183,255

[HitObjects]
48,80,62,6,0,P|71:60|130:69,1,83.1899987306214,2|0,0:0|0:0,0:0:0:0:
159,173,551,2,0,P|154:196|151:226,2,41.5949993653107,2|2|2,0:0|0:0|0:0,0:0:0:0:
233,90,1040,1,2,0:0:0:0:
297,184,1203,1,2,0:0:0:0:
297,184,1284,1,2,0:0:0:0:
297,184,1366,2,0,P|322:179|352:176,1,41.5949993653107,2|0,0:0|0:0,0:0:0:0:
436,290,1692,6,0,P|438:269|442:249,1,41.5949993653107,2|0,0:0|0:0,0:0:0:0:
357,295,2018,2,0,P|359:274|363:254,1,41.5949993653107,2|0,0:0|0:0,0:0:0:0:
300,175,2344,1,2,0:0:0:0:
300,175,2507,1,0,0:0:0:0:
205,279,2670,2,0,P|184:274|164:272,1,41.5949993653107,2|0,0:0|0:0,0:0:0:0:
43,329,2996,2,0,P|45:339|48:351,3,20.7974996826553,2|0|0|0,0:0|0:0|0:0|0:0,0:0:0:0:
90,265,3322,6,0,P|96:221|107:172,1,83.1899987306214,2|2,0:0|0:0,0:0:0:0:
72,59,3811,1,2,0:0:0:0:
72,59,3974,2,0,P|55:47|21:51,1,41.5949993653107,2|0,0:0|0:0,0:0:0:0:
118,124,4300,2,0,P|138:122|155:110,1,41.5949993653107,2|0,0:0|0:0,0:0:0:0:
234,33,4626,2,0,P|230:56|227:83,1,41.5949993653107,2|0,0:0|0:0,0:0:0:0:
290,149,4952,1,2,0:0:0:0:
290,149,5115,1,2,0:0:0:0:
403,9,5271,6,0,P|471:32|477:120,1,153.990001292336,6|0,1:0|0:0,0:0:0:0:
290,121,5760,2,0,P|320:93|375:95,1,76.9950006461678,2|0,1:0|0:0,0:0:0:0:
250,234,6086,1,10,0:0:0:0:
215,83,6249,1,2,0:0:0:0:
368,189,6412,1,2,1:0:0:0:
368,189,6493,1,2,0:0:0:0:
368,189,6575,2,0,P|361:228|357:277,1,76.9950006461678,2|8,1:0|0:0,0:0:0:0:
189,350,6901,6,0,P|153:337|106:328,1,76.9950006461678,2|0,1:0|0:0,0:0:0:0:
47,167,7227,1,2,0:0:0:0:
223,277,7390,2,0,P|259:264|306:255,1,76.9950006461678,2|0,1:0|0:0,0:0:0:0:
441,103,7716,1,10,0:0:0:0:
258,33,7879,2,0,P|271:69|280:116,1,76.9950006461678,2|0,0:0|1:0,0:0:0:0:
69,195,8205,2,0,P|76:157|89:121,1,76.9950006461678,2|10,3:0|0:0,0:0:0:0:
111,104,8450,5,10,0:0:0:0:
111,104,8531,2,0,P|150:98|207:92,1,76.9950006461678,6|0,1:0|0:0,0:0:0:0:
278,245,8857,1,2,3:0:0:0:
375,54,9020,2,0,P|335:48|279:42,1,76.9950006461678,2|0,1:0|0:0,0:0:0:0:
401,224,9346,1,10,3:0:0:0:
204,125,9509,2,0,P|209:164|216:221,1,76.9950006461678,2|0,3:0|1:0,0:0:0:0:
408,311,9835,2,0,P|412:272|418:234,1,76.9950006461678,10|0,0:0|0:0,0:0:0:0:
258,338,10161,1,10,0:0:0:0:
258,338,10324,1,2,3:0:0:0:
77,106,10822,5,2,0:0:0:0:
77,106,10985,2,0,P|93:152|104:210,1,100.889998768433,2|2,0:0|0:0,0:0:0:0:
93,285,11474,2,0,P|111:253|184:252,1,100.889998768433,2|2,0:0|0:0,0:0:0:0:
295,346,12126,1,2,0:0:0:0:
295,346,12452,2,0,B|417:367|354:255|494:287,1,201.779997536865,2|2,0:0|0:0,0:0:0:0:
266,80,13756,5,2,0:0:0:0:
266,80,14082,1,2,0:0:0:0:
266,80,14409,2,0,B|144:59|207:171|67:139,1,201.779997536865,2|2,0:0|0:0,0:0:0:0:
88,142,15713,2,0,P|100:195|105:249,1,100.889998768433,2|2,0:0|0:0,0:0:0:0:
331,123,16365,2,0,P|319:176|314:230,1,100.889998768433,2|0,0:0|0:0,0:0:0:0:
201,126,16854,1,0,0:0:0:0:
201,126,17017,2,0,P|224:114|258:112,1,50.4449993842163,2|0,0:0|0:0,0:0:0:0:
166,263,17343,2,0,P|143:251|118:247,1,50.4449993842163,10|0,3:0|3:0,0:0:0:0:
249,197,17669,1,0,3:0:0:0:
249,197,17832,1,0,3:0:0:0:
341,347,17995,6,0,P|404:343|435:295,1,118.589994390427,4|2,1:0|0:0,0:0:0:0:
345,189,18484,2,0,P|326:214|323:254,1,59.2949971952135,2|0,1:0|0:0,0:0:0:0:
455,167,18810,1,2,0:0:0:0:
455,167,18973,2,0,P|449:138|431:115,1,59.2949971952135,10|0,0:0|0:0,0:0:0:0:
318,45,19299,2,0,P|288:47|250:54,1,59.2949971952135,2|8,1:0|0:0,0:0:0:0:
158,147,19625,2,0,P|188:150|226:156,1,59.2949971952135,2|0,0:0|0:0,0:0:0:0:
57,77,19951,6,0,P|66:139|74:203,1,118.589994390427,2|0,1:0|0:0,0:0:0:0:
172,292,20440,1,0,1:0:0:0:
172,292,20603,2,0,P|140:284|98:277,2,59.2949971952135,2|8|0,0:0|0:0|0:0,0:0:0:0:
266,370,21092,1,0,1:0:0:0:
335,206,21255,2,0,P|305:211|277:218,1,59.2949971952135,10|0,0:0|0:0,0:0:0:0:
438,243,21581,2,0,L|442:203,3,29.6474985976067,2|0|0|0,1:0|3:0|3:0|3:0,0:0:0:0:
452,135,21908,6,0,P|409:101|349:127,1,118.589994390427,2|0,1:0|0:0,0:0:0:0:
354,258,22397,1,8,0:0:0:0:
354,258,22560,2,0,P|330:239|290:234,1,59.2949971952135,2|0,0:0|1:0,0:0:0:0:
209,339,22886,2,0,P|237:332|260:313,1,59.2949971952135,8|0,0:0|1:0,0:0:0:0:
122,179,23212,1,2,1:0:0:0:
70,376,23375,1,8,0:0:0:0:
198,248,23538,2,0,P|201:209|206:172,1,59.2949971952135,2|0,0:0|3:0,0:0:0:0:
219,165,23783,5,8,0:0:0:0:
219,165,23864,2,0,P|190:121|110:121,1,118.589994390427,2|0,1:0|1:0,0:0:0:0:
220,275,24353,1,10,0:0:0:0:
299,122,24516,1,2,1:0:0:0:
241,305,24679,1,2,3:0:0:0:
241,305,24761,1,0,3:0:0:0:
241,305,24842,1,10,0:0:0:0:
175,92,25005,1,8,0:0:0:0:
415,161,25168,1,8,3:0:0:0:
238,195,25331,1,8,3:0:0:0:
412,28,25494,6,0,P|402:94|394:171,1,136.289997296494,6|0,1:0|0:0,0:0:0:0:
218,56,25983,1,2,1:0:0:0:
218,56,26146,2,0,P|249:46|290:39,1,68.1449986482468,2|0,0:0|0:0,0:0:0:0:
172,197,26472,2,0,P|140:187|99:180,1,68.1449986482468,2|0,1:0|0:0,0:0:0:0:
291,149,26798,2,0,P|285:184|279:234,1,68.1449986482468,2|0,1:0|0:0,0:0:0:0:
100,270,27124,2,0,P|95:236|89:202,1,68.1449986482468,2|0,3:0|0:0,0:0:0:0:
214,349,27450,6,0,P|285:340|312:271,1,136.289997296494,2|0,1:0|0:0,0:0:0:0:
371,141,27939,1,0,1:0:0:0:
371,141,28102,2,0,P|404:124|462:128,1,68.1449986482468,2|8,0:0|0:0,0:0:0:0:
499,310,28428,2,0,P|466:293|408:297,1,68.1449986482468,2|0,1:0|0:0,0:0:0:0:
293,361,28754,1,0,1:0:0:0:
406,215,28917,1,0,3:0:0:0:
220,336,29080,2,0,P|214:294|207:248,1,68.1449986482468,0|0,1:0|0:0,0:0:0:0:
121,119,29407,6,0,P|153:138|192:138,1,68.1449986482468,2|8,1:0|0:0,0:0:0:0:
321,13,29733,2,0,P|265:32|268:112,1,136.289997296494,2|0,0:0|1:0,0:0:0:0:
410,35,30222,1,2,0:0:0:0:
382,225,30385,2,0,P|334:199|247:188,1,136.289997296494,10|0,0:0|1:0,0:0:0:0:
155,292,30874,1,8,0:0:0:0:
70,153,31037,6,0,P|76:189|80:233,2,68.1449986482468,2|0|0,3:0|3:0|1:0,0:0:0:0:
145,44,31526,1,0,3:0:0:0:
254,187,31689,2,0,P|248:223|243:267,1,68.1449986482468,10|0,0:0|0:0,0:0:0:0:
172,135,32015,1,0,1:0:0:0:
338,241,32178,2,0,P|334:207|328:173,1,68.1449986482468,8|0,0:0|0:0,0:0:0:0:
487,79,32504,5,8,0:0:0:0:
487,79,32586,1,8,0:0:0:0:
487,79,32667,2,0,P|478:135|473:223,1,136.289997296494,2|10,1:0|0:0,0:0:0:0:
342,118,33157,1,0,3:0:0:0:
342,118,33320,2,0,P|370:100|409:96,1,68.1449986482468,2|8,1:0|0:0,0:0:0:0:
307,234,33646,2,0,P|273:229|229:130,1,136.289997296494,2|0,0:0|1:0,0:0:0:0:
224,148,34298,6,0,P|156:138|78:129,1,136.289997296494,14|0,0:0|1:0,0:0:0:0:
262,59,34787,1,8,0:0:0:0:
181,243,34950,2,0,L|100:251,1,68.1449986482468,2|0,1:0|3:0,0:0:0:0:
99,269,35195,1,0,3:0:0:0:
99,269,35276,1,8,0:0:0:0:
81,87,35439,1,8,3:0:0:0:
191,221,35602,1,8,3:0:0:0:
243,22,35765,5,8,3:0:0:0:
243,22,35847,1,8,3:0:0:0:
243,22,35924,2,0,B|416:-9|321:166|536:112,1,307.980002584671,6|0,1:0|1:0,0:0:0:0:
512,117,36898,6,0,P|501:157|495:199,1,76.9950006461678,2|0,1:0|0:0,0:0:0:0:
367,306,37223,2,0,P|405:312|442:322,1,76.9950006461678,2|0,1:0|0:0,0:0:0:0:
377,154,37548,2,0,P|339:164|301:170,1,76.9950006461678,2|0,1:0|0:0,0:0:0:0:
169,80,37873,6,0,L|157:159,1,76.9950006461678,10|0,0:0|0:0,0:0:0:0:
37,289,38197,2,0,L|25:212,1,76.9950006461678,8|0,0:0|0:0,0:0:0:0:
249,120,38522,2,0,L|237:199,1,76.9950006461678,10|0,0:0|0:0,0:0:0:0:
117,329,38847,2,0,L|105:252,1,76.9950006461678,8|0,0:0|0:0,0:0:0:0:
329,151,39172,1,10,0:0:0:0:
192,292,39334,1,8,3:0:0:0:
393,295,39497,1,8,0:0:0:0:
169,217,39659,1,8,0:0:0:0:
412,302,39827,6,0,P|462:263|452:189,1,115.492500969252,6|0,1:0|0:0,0:0:0:0:
449,138,40153,2,0,P|416:118|367:120,1,76.9950006461678,2|8,0:0|3:0,0:0:0:0:
216,226,40479,2,0,P|166:187|176:113,1,115.492500969252,2|0,0:0|0:0,0:0:0:0:
219,90,40805,2,0,P|252:70|301:72,1,76.9950006461678,10|0,0:0|0:0,0:0:0:0:
342,272,41131,2,0,P|271:312|239:292,1,115.492500969252,10|0,0:0|0:0,0:0:0:0:
213,233,41457,1,2,0:0:0:0:
331,108,41620,1,8,0:0:0:0:
367,356,41783,6,0,P|423:344|450:276,1,115.492500969252,2|8,1:0|0:0,0:0:0:0:
444,269,42112,2,0,P|433:311|397:330,1,76.9950006461678,8|8,0:0|3:0,0:0:0:0:
258,133,42442,1,8,3:0:0:0:
355,259,42607,1,8,3:0:0:0:
191,86,42772,6,0,B|208:71|224:50|224:50|278:60|344:67,1,153.990001292336,14|0,0:0|0:0,0:0:0:0:
265,233,43266,1,0,3:0:0:0:
108,116,43431,2,0,P|103:77|95:40,1,76.9950006461678,2|0,0:0|0:0,0:0:0:0:
142,264,43760,5,6,1:0:0:0:
246,70,43923,2,0,P|297:62|357:56,1,94.694997110138,2|0,0:0|0:0,0:0:0:0:
179,185,44249,2,0,P|127:177|67:171,1,94.694997110138,10|0,0:0|0:0,0:0:0:0:
260,92,44575,1,2,1:0:0:0:
357,275,44738,2,0,P|362:227|369:181,1,94.694997110138,10|0,0:0|0:0,0:0:0:0:
508,35,45064,1,2,0:0:0:0:
443,230,45227,1,8,0:0:0:0:
356,46,45390,2,0,P|297:6|224:50,1,142.042495665207,2|0,0:0|3:0,0:0:0:0:
226,47,45716,6,0,P|234:98|240:148,1,94.694997110138,2|0,1:0|0:0,0:0:0:0:
121,294,46042,1,0,1:0:0:0:
320,168,46205,2,0,P|312:219|306:269,1,94.694997110138,8|0,0:0|0:0,0:0:0:0:
145,126,46531,1,0,1:0:0:0:
226,362,46694,2,0,P|272:348|328:340,1,94.694997110138,10|0,0:0|0:0,0:0:0:0:
133,207,47020,2,0,P|123:254|117:300,1,94.694997110138,2|0,0:0|0:0,0:0:0:0:
290,146,47346,2,0,P|299:192|306:239,1,94.694997110138,2|0,1:0|0:0,0:0:0:0:
128,73,47673,5,2,1:0:0:0:
382,32,47836,2,0,P|372:78|365:125,1,94.694997110138,2|0,0:0|0:0,0:0:0:0:
246,292,48162,2,0,P|199:282|152:275,1,94.694997110138,10|0,0:0|0:0,0:0:0:0:
321,187,48488,1,2,1:0:0:0:
200,363,48651,2,0,P|153:369|106:379,1,94.694997110138,10|0,0:0|0:0,0:0:0:0:
36,187,48977,2,0,P|53:230|61:281,1,94.694997110138,2|0,0:0|0:0,0:0:0:0:
219,110,49303,1,2,0:0:0:0:
157,284,49466,1,0,3:0:0:0:
287,57,49629,6,0,B|266:40|248:21|248:21|181:34|109:42,1,189.389994220276,2|2,1:0|1:0,0:0:0:0:
222,233,50118,1,8,0:0:0:0:
376,77,50281,2,0,P|368:125|364:187,1,94.694997110138,2|0,0:0|1:0,0:0:0:0:
210,343,50607,2,0,P|205:295|198:249,1,94.694997110138,10|0,0:0|0:0,0:0:0:0:
41,130,50933,2,0,P|80:158|140:162,1,94.694997110138,2|0,1:0|0:0,0:0:0:0:
237,0,51260,1,2,1:0:0:0:
320,191,51423,5,8,0:0:0:0:
320,191,51504,1,8,0:0:0:0:
320,191,51586,2,0,B|429:212|385:125|494:147,1,189.389994220276,4|0,1:0|1:0,0:0:0:0:
328,8,52075,2,0,P|341:50|348:107,1,94.694997110138,8|2,0:0|0:0,0:0:0:0:
222,206,52401,1,2,1:0:0:0:
438,101,52564,2,0,P|425:143|418:200,1,94.694997110138,10|0,0:0|0:0,0:0:0:0:
212,314,52890,2,0,P|205:267|192:221,1,94.694997110138,0|0,1:0|3:0,0:0:0:0:
50,87,53216,1,10,3:0:0:0:
122,264,53379,1,2,3:0:0:0:
219,56,53542,6,0,B|328:34|284:121|393:99,1,189.389994220276,2|0,1:0|1:0,0:0:0:0:
253,249,54031,1,8,0:0:0:0:
253,249,54194,2,0,P|244:201|232:153,1,94.694997110138,2|8,0:0|3:0,0:0:0:0:
367,19,54520,1,0,3:0:0:0:
327,205,54683,1,0,3:0:0:0:
206,28,54846,2,0,P|154:21|99:132,1,189.389994220276,2|0,1:0|1:0,0:0:0:0:
195,280,55336,1,0,0:0:0:0:
274,56,55499,5,6,1:0:0:0:
148,207,55662,2,0,P|96:217|52:188,1,94.694997110138,2|0,0:0|0:0,0:0:0:0:
257,75,55988,2,0,P|247:122|240:177,1,94.694997110138,10|0,0:0|0:0,0:0:0:0:
313,301,56314,1,2,1:0:0:0:
60,198,56477,2,0,P|69:244|76:291,1,94.694997110138,10|0,0:0|0:0,0:0:0:0:
240,168,56803,2,0,P|206:138|148:138,1,94.694997110138,2|8,1:0|0:0,0:0:0:0:
260,318,57129,2,0,P|306:314|355:234,1,142.042495665207,2|0,0:0|0:0,0:0:0:0:
347,218,57455,6,0,P|382:182|445:184,1,94.694997110138,2|0,1:0|0:0,0:0:0:0:
340,330,57781,1,0,1:0:0:0:
235,152,57944,2,0,P|200:116|137:118,1,94.694997110138,8|0,0:0|0:0,0:0:0:0:
116,295,58270,1,0,1:0:0:0:
304,193,58433,2,0,P|310:146|320:99,1,94.694997110138,10|0,0:0|1:0,0:0:0:0:
121,21,58759,1,2,1:0:0:0:
177,225,58923,1,8,0:0:0:0:
396,68,59086,2,0,P|405:114|412:161,1,94.694997110138,10|8,3:0|0:0,0:0:0:0:
400,176,59330,5,8,0:0:0:0:
400,176,59412,1,6,1:0:0:0:
236,37,59575,2,0,P|273:6|328:11,1,94.694997110138,2|0,0:0|1:0,0:0:0:0:
185,199,59901,2,0,P|138:198|103:168,1,94.694997110138,10|0,0:0|0:0,0:0:0:0:
294,93,60227,1,2,1:0:0:0:
272,294,60390,2,0,P|236:324|190:324,1,94.694997110138,10|0,0:0|0:0,0:0:0:0:
312,119,60716,2,0,P|358:119|393:149,1,94.694997110138,2|8,1:0|0:0,0:0:0:0:
212,251,61042,1,2,1:0:0:0:
269,25,61205,5,0,3:0:0:0:
269,25,61287,1,0,3:0:0:0:
269,25,61368,2,0,P|281:118|291:222,1,189.389994220276,2|0,1:0|1:0,0:0:0:0:
480,312,61857,1,8,0:0:0:0:
377,156,62020,2,0,P|371:199|363:280,1,94.694997110138,2|8,0:0|0:0,0:0:0:0:
279,103,62346,1,0,1:0:0:0:
467,208,62509,1,8,0:0:0:0:
246,282,62673,1,2,1:0:0:0:
447,196,62836,1,8,3:0:0:0:
202,70,62999,2,0,P|207:113|216:194,1,94.694997110138,10|8,0:0|3:0,0:0:0:0:
41,282,63325,6,0,B|150:260|106:347|215:325,1,189.389994220276,6|0,1:0|1:0,0:0:0:0:
312,131,63814,1,8,0:0:0:0:
188,247,63977,1,2,0:0:0:0:
328,142,64140,1,2,1:0:0:0:
114,38,64303,2,0,P|119:81|128:162,1,94.694997110138,10|0,0:0|3:0,0:0:0:0:
336,245,64629,2,0,P|341:197|346:150,1,94.694997110138,0|8,0:0|0:0,0:0:0:0:
184,276,64955,1,2,1:0:0:0:
419,226,65118,1,2,1:0:0:0:
202,368,65281,6,0,P|154:360|123:327,1,94.694997110138,2|0,1:0|0:0,0:0:0:0:
111,103,65607,2,0,P|157:109|189:143,1,94.694997110138,10|8,0:0|3:0,0:0:0:0:
25,261,65933,2,0,P|17:207|6:155,1,94.694997110138,10|0,3:0|3:0,0:0:0:0:
240,90,66260,1,10,0:0:0:0:
106,200,66423,1,2,3:0:0:0:
286,25,66586,2,0,B|304:45|327:62|327:62|306:120|287:209,1,189.389994220276,2|0,1:0|1:0,0:0:0:0:
50,88,67075,5,8,0:0:0:0:
50,88,67156,1,8,0:0:0:0:
50,88,67238,2,0,P|95:67|143:85,1,94.694997110138,4|0,1:0|0:0,0:0:0:0:
184,285,67564,1,0,1:0:0:0:
240,90,67727,1,8,0:0:0:0:
279,280,67890,2,0,P|325:280|360:250,1,94.694997110138,2|0,0:0|1:0,0:0:0:0:
412,64,68216,2,0,P|396:106|386:169,1,94.694997110138,10|0,0:0|0:0,0:0:0:0:
184,285,68542,2,0,P|175:238|158:194,1,94.694997110138,10|0,0:0|1:0,0:0:0:0:
50,77,68868,1,10,0:0:0:0:
277,159,69031,1,8,0:0:0:0:
5,230,69194,6,0,P|15:154|29:76,1,142.042495665207,2|0,1:0|0:0,0:0:0:0:
50,77,69520,2,0,P|87:110|140:117,1,94.694997110138,2|0,1:0|3:0,0:0:0:0:
297,44,69846,1,10,0:0:0:0:
238,269,70009,1,8,0:0:0:0:
310,26,70173,2,0,L|320:133,1,94.694997110138,8|0,0:0|0:0,0:0:0:0:
211,288,70499,1,2,1:0:0:0:
378,181,70662,1,8,3:0:0:0:
213,159,70825,1,2,1:0:0:0:
397,200,70988,1,8,3:0:0:0:
293,328,71151,6,0,B|184:350|228:263|119:285,1,189.389994220276,6|0,1:0|1:0,0:0:0:0:
296,148,71640,2,0,P|278:190|268:245,1,94.694997110138,8|0,0:0|0:0,0:0:0:0:
166,96,71966,1,0,1:0:0:0:
380,55,72129,2,0,P|397:97|407:152,1,94.694997110138,8|0,0:0|0:0,0:0:0:0:
221,19,72455,2,0,P|173:4|123:29,1,94.694997110138,0|8,1:0|0:0,0:0:0:0:
172,175,72781,2,0,L|178:115,3,47.347498555069,2|0|0|0,3:0|3:0|3:0|3:0,0:0:0:0:
213,239,73107,6,0,P|261:254|311:229,1,94.694997110138,14|0,0:0|0:0,0:0:0:0:
450,68,73433,2,0,P|406:52|362:67,1,94.694997110138,2|8,1:0|3:0,0:0:0:0:
394,264,73759,2,0,P|400:208|408:153,1,94.694997110138,2|0,0:0|0:0,0:0:0:0:
217,52,74086,2,0,P|223:98|228:145,1,94.694997110138,10|0,0:0|3:0,0:0:0:0:
131,326,74412,2,0,P|84:338|36:294,1,94.694997110138,2|0,0:0|0:0,0:0:0:0:
130,149,74738,2,0,P|177:137|225:181,1,94.694997110138,2|0,0:0|0:0,0:0:0:0:
274,365,75062,5,6,1:0:0:0:
274,365,75388,2,0,L|336:354,2,50.4449993842163,2|2|2,0:0|0:0|3:0,0:0:0:0:
197,287,75877,1,2,0:0:0:0:
228,186,76040,1,2,0:0:0:0:
128,215,76203,1,2,0:0:0:0:
128,215,76284,1,2,0:0:0:0:
128,215,76366,2,0,P|125:184|121:153,1,50.4449993842163,2|0,3:0|0:0,0:0:0:0:
75,70,76692,6,0,P|131:51|163:77,1,100.889998768433,2|2,0:0|3:0,0:0:0:0:
217,164,77181,1,0,0:0:0:0:
217,164,77344,2,0,P|239:148|271:141,1,50.4449993842163,2|0,0:0|0:0,0:0:0:0:
316,247,77670,2,0,P|294:231|262:224,1,50.4449993842163,2|0,3:0|0:0,0:0:0:0:
378,161,77996,2,0,P|382:127|390:96,1,50.4449993842163,2|0,0:0|0:0,0:0:0:0:
269,34,78322,5,2,1:0:0:0:
269,34,78485,1,2,0:0:0:0:
385,111,78648,1,2,0:0:0:0:
385,111,78811,2,0,P|412:102|440:99,1,50.4449993842163,2|0,0:0|3:0,0:0:0:0:
476,259,79137,1,2,0:0:0:0:
476,259,79300,2,0,P|448:250|421:247,1,50.4449993842163,2|0,3:0|0:0,0:0:0:0:
312,319,79626,2,0,P|323:295|325:262,1,50.4449993842163,2|0,3:0|0:0,0:0:0:0:
225,361,79952,2,0,P|214:337|212:304,1,50.4449993842163,2|0,3:0|0:0,0:0:0:0:
251,167,80278,6,0,P|209:142|165:179,1,100.889998768433,2|0,1:0|0:0,0:0:0:0:
74,252,80767,2,0,P|70:221|63:195,1,50.4449993842163,2|0,3:0|0:0,0:0:0:0:
99,88,81093,1,2,0:0:0:0:
169,167,81256,1,2,0:0:0:0:
191,57,81419,1,2,0:0:0:0:
191,57,81500,1,2,0:0:0:0:
191,57,81582,2,0,P|216:48|247:45,1,50.4449993842163,2|0,3:0|0:0,0:0:0:0:
305,157,81908,6,0,P|280:153|256:144,1,50.4449993842163,2|0,1:0|0:0,0:0:0:0:
385,62,82234,2,0,P|377:89|370:126,2,50.4449993842163,2|2|2,3:0|0:0|0:0,0:0:0:0:
491,27,82723,1,2,0:0:0:0:
491,27,82886,2,0,P|499:54|506:91,1,50.4449993842163,2|0,3:0|0:0,0:0:0:0:
484,194,83212,2,0,P|468:189|455:186,3,25.2224996921082,2|0|0|0,0:0|0:0|0:0|0:0,0:0:0:0:
402,244,83539,6,0,P|380:260|342:256,1,50.4449993842163,2|2,1:0|0:0,0:0:0:0:
261,176,83865,1,2,3:0:0:0:
261,176,84028,1,2,3:0:0:0:
156,278,84191,2,0,P|163:304|166:334,1,50.4449993842163,2|2,3:0|0:0,0:0:0:0:
64,235,84517,2,0,P|57:261|54:291,1,50.4449993842163,2|0,3:0|0:0,0:0:0:0:
147,183,84843,1,2,3:0:0:0:
147,183,85006,1,2,3:0:0:0:
25,107,85169,2,0,P|32:133|35:163,1,50.4449993842163,2|2,3:0|0:0,0:0:0:0:
116,17,85495,6,0,B|277:-20|179:142|372:81,1,286.740007000488,2|0,3:0|0:0,0:0:0:0:
