osu file format v14

[General]
AudioFilename: audio.mp3
AudioLeadIn: 0
PreviewTime: 42689
Countdown: 0
SampleSet: Soft
StackLeniency: 0.4
Mode: 0
LetterboxInBreaks: 0
WidescreenStoryboard: 1

[Editor]
DistanceSpacing: 0.6
BeatDivisor: 4
GridSize: 16
TimelineZoom: 1.3

[Metadata]
Title:Haiiro no Saga (TV Size)
TitleUnicode:灰色のサーガ (TV Size)
Artist:ChouCho
ArtistUnicode:ChouCho
Creator:SMOKELIND
Version:Basen's Normal
Source:魔女の旅々
Tags:Wandering Witch: The Journey of Elaina Japanese Anime Pop JPop J-Pop Majo no Tabitabi Ending Ed Basensorex
BeatmapID:2648928
BeatmapSetID:1274862

[Difficulty]
HPDrainRate:3.6
CircleSize:3.5
OverallDifficulty:4
ApproachRate:5.2
SliderMultiplier:1
SliderTickRate:1

[Events]
//Background and Video events
0,0,"Elaina.jpg",0,0
//Break Periods
//Storyboard Layer 0 (Background)
//Storyboard Layer 1 (Fail)
//Storyboard Layer 2 (Pass)
//Storyboard Layer 3 (Foreground)
//Storyboard Layer 4 (Overlay)
//Storyboard Sound Samples

[TimingPoints]
62,326.086956521739,5,2,7,47,1,0
62,-111.111111111111,5,2,7,47,0,0
3322,326.086956521739,6,2,7,47,1,0
3322,-111.111111111111,6,2,7,47,0,0
5271,326.086956521739,5,2,7,67,1,0
8531,326.086956521739,6,2,7,67,1,0
10496,326.086956521739,6,2,7,37,1,0
10496,-100,6,2,7,37,0,0
10822,-111.111111111111,6,2,7,37,0,0
17995,326.086956521739,6,2,7,47,1,0
25494,326.086956521739,6,2,7,57,1,0
29407,326.086956521739,5,2,7,57,1,0
35924,324.851109907959,6,2,7,67,1,0
39827,326.086956521739,6,2,7,67,1,0
41783,329.67032967033,6,2,7,67,1,0
43760,326.086956521739,6,2,7,77,1,0
43760,-90.9090909090909,6,2,7,77,0,1
75062,326.086956521739,5,2,7,47,1,0
78322,326.086956521739,6,2,7,47,1,0
80278,326.086956521739,5,2,7,47,1,0
83539,326.086956521739,6,2,7,47,1,0
85821,-90.9090909090909,6,2,7,37,0,0
86473,-90.9090909090909,6,2,7,27,0,0
87125,-90.9090909090909,6,2,7,17,0,0
87452,-90.9090909090909,6,2,7,5,0,0

[Colours]
Combo1 : 255,4,99
Combo2 : 255,247,170
Combo3 : 219,183,255

[HitObjects]
54,312,62,6,0,B|146:301|105:344|185:338,1,134.999995880127,2|2,0:0|0:0,0:0:0:0:
243,220,1040,2,0,P|269:215|297:220,1,44.999998626709,2|2,0:0|0:0,0:0:0:0:
330,228,1366,1,2,0:0:0:0:
402,281,1692,2,0,P|396:323|397:389,2,89.9999972534181,2|2|2,0:0|0:0|0:0,0:0:0:0:
478,232,2670,2,0,P|477:187|471:142,1,89.9999972534181,2|2,0:0|0:0,0:0:0:0:
390,103,3322,6,0,P|432:56|508:58,2,134.999995880127,2|2|2,0:0|0:0|0:0,0:0:0:0:
334,173,4626,1,2,0:0:0:0:
247,148,4952,1,2,0:0:0:0:
240,58,5271,6,0,P|189:50|138:50,1,100,6|0,1:0|0:0,0:0:0:0:
91,57,5760,1,2,1:0:0:0:
13,118,6086,1,10,0:0:0:0:
13,118,6249,2,0,P|5:168|5:219,1,100,2|2,0:0|1:0,0:0:0:0:
85,277,6901,6,0,P|92:327|92:378,2,100,2|2|0,1:0|0:0|0:0,0:0:0:0:
122,244,7716,1,10,0:0:0:0:
122,244,7879,2,0,P|167:226|216:235,1,100,2|2,0:0|3:0,0:0:0:0:
291,169,8531,6,0,P|283:118|283:67,1,100,6|2,1:0|3:0,0:0:0:0:
314,30,9020,2,0,P|359:12|408:21,1,100,2|10,1:0|3:0,0:0:0:0:
448,51,9509,1,2,3:0:0:0:
504,133,9835,1,10,0:0:0:0:
451,218,10161,2,0,P|456:244|455:273,1,50,10|2,0:0|3:0,0:0:0:0:
361,367,10822,5,2,0:0:0:0:
361,367,10985,2,0,P|305:326|267:328,1,89.9999972534181,2|2,0:0|0:0,0:0:0:0:
244,340,11474,1,2,0:0:0:0:
161,374,11799,1,2,0:0:0:0:
73,353,12125,1,2,0:0:0:0:
45,267,12452,2,0,P|44:174|29:70,1,179.999994506836,2|2,0:0|0:0,0:0:0:0:
32,87,13756,5,2,0:0:0:0:
103,30,14082,1,2,0:0:0:0:
173,86,14408,2,0,B|190:113|218:131|218:131|193:174|192:251,1,179.999994506836,2|2,0:0|0:0,0:0:0:0:
193,242,15712,1,2,0:0:0:0:
211,330,16038,1,2,0:0:0:0:
299,347,16365,2,0,B|415:363|359:299|470:311,1,179.999994506836,2|2,0:0|0:0,0:0:0:0:
504,229,17343,2,0,P|503:184|497:139,1,89.9999972534181,10|0,3:0|3:0,0:0:0:0:
426,69,17995,5,4,1:0:0:0:
350,133,18321,1,2,0:0:0:0:
350,133,18484,2,0,P|304:150|255:141,1,100,2|2,1:0|0:0,0:0:0:0:
212,116,18973,1,10,0:0:0:0:
143,43,19299,1,2,1:0:0:0:
47,71,19625,1,2,0:0:0:0:
28,169,19951,2,0,P|41:271|42:375,1,200,2|2,1:0|0:0,0:0:0:0:
42,368,21255,5,10,0:0:0:0:
122,309,21581,1,2,1:0:0:0:
214,348,21908,2,0,P|318:366|386:303,1,200,2|2,1:0|0:0,0:0:0:0:
395,208,22886,1,8,0:0:0:0:
313,150,23212,1,2,1:0:0:0:
214,168,23538,1,2,0:0:0:0:
167,256,23864,6,0,B|71:244|121:306|15:287,1,150,2|10,1:0|0:0,0:0:0:0:
0,246,24516,1,2,1:0:0:0:
82,188,24842,2,0,L|79:133,1,50,10|8,0:0|0:0,0:0:0:0:
44,102,25168,2,0,L|47:47,1,50,8|8,3:0|3:0,0:0:0:0:
80,16,25494,6,0,P|131:7|169:92,1,150,6|2,1:0|1:0,0:0:0:0:
167,132,26146,1,2,0:0:0:0:
116,218,26472,1,2,1:0:0:0:
155,309,26798,1,2,1:0:0:0:
254,312,27124,1,2,3:0:0:0:
320,237,27450,6,0,P|329:160|330:84,1,150,2|0,1:0|1:0,0:0:0:0:
323,38,28102,1,2,0:0:0:0:
228,69,28428,2,0,P|221:118|221:168,2,100,2|0|0,1:0|1:0|1:0,0:0:0:0:
146,10,29407,5,2,1:0:0:0:
62,64,29733,2,0,B|46:87|22:103|22:103|44:142|44:211,1,150,2|2,0:0|0:0,0:0:0:0:
88,216,30385,2,0,P|81:265|81:315,1,100,10|0,0:0|1:0,0:0:0:0:
162,374,31037,2,0,P|201:344|251:341,1,100,2|0,3:0|1:0,0:0:0:0:
326,276,31689,2,0,P|365:305|415:308,1,100,10|0,0:0|1:0,0:0:0:0:
464,304,32178,1,8,0:0:0:0:
505,215,32504,1,8,0:0:0:0:
505,215,32667,6,0,P|498:165|498:115,1,100,2|10,1:0|0:0,0:0:0:0:
401,91,33320,1,2,1:0:0:0:
344,173,33646,2,0,B|248:161|298:223|192:204,1,150,2|0,0:0|0:0,0:0:0:0:
156,189,34298,2,0,P|112:125|142:45,1,150,14|8,0:0|0:0,0:0:0:0:
161,21,34950,1,2,1:0:0:0:
260,33,35276,2,0,P|265:59|264:88,1,50,8|8,0:0|3:0,0:0:0:0:
264,132,35602,1,8,3:0:0:0:
247,230,35924,6,0,B|375:247|313:177|436:191,1,200,6|0,1:0|1:0,0:0:0:0:
510,257,36898,1,2,1:0:0:0:
491,355,37223,1,2,1:0:0:0:
392,370,37548,1,2,1:0:0:0:
332,289,37873,6,0,P|286:271|237:280,1,100,10|8,0:0|0:0,0:0:0:0:
164,348,38522,2,0,P|118:365|69:356,1,100,10|8,0:0|0:0,0:0:0:0:
6,278,39172,2,0,P|11:252|10:223,1,50,10|8,0:0|3:0,0:0:0:0:
10,179,39497,1,8,0:0:0:0:
82,110,39827,6,0,P|75:60|75:10,2,100,6|2|2,1:0|0:0|0:0,0:0:0:0:
177,140,40805,2,0,P|216:110|266:107,1,100,10|10,0:0|0:0,0:0:0:0:
329,30,41457,1,2,0:0:0:0:
414,79,41783,2,0,P|420:128|420:178,1,100,2|8,1:0|0:0,0:0:0:0:
409,277,42442,2,0,P|383:272|354:273,1,50,8|8,3:0|3:0,0:0:0:0:
317,244,42772,6,0,B|188:261|250:191|127:205,1,200,14|2,0:0|0:0,0:0:0:0:
37,266,43760,5,6,1:0:0:0:
37,266,43923,2,0,P|29:321|29:377,2,110.000003356934,2|10|2,0:0|0:0|1:0,0:0:0:0:
0,225,44738,1,10,0:0:0:0:
18,116,45064,1,2,0:0:0:0:
124,88,45390,1,2,0:0:0:0:
202,164,45716,6,0,P|213:256|214:349,1,165.000005035401,2|8,1:0|0:0,0:0:0:0:
319,378,46531,1,0,1:0:0:0:
319,378,46694,2,0,P|367:348|424:349,1,110.000003356934,10|2,0:0|0:0,0:0:0:0:
502,276,47346,1,2,1:0:0:0:
439,191,47673,5,2,1:0:0:0:
439,191,47836,2,0,P|431:135|431:79,2,110.000003356934,2|10|2,0:0|0:0|1:0,0:0:0:0:
399,229,48651,1,10,0:0:0:0:
314,158,48977,1,2,0:0:0:0:
210,194,49303,1,2,0:0:0:0:
191,302,49629,6,0,P|142:331|85:330,1,110.000003356934,2|2,1:0|1:0,0:0:0:0:
9,256,50281,1,2,0:0:0:0:
73,166,50607,2,0,P|80:110|80:54,2,110.000003356934,10|2|2,0:0|1:0|1:0,0:0:0:0:
121,202,51423,1,8,0:0:0:0:
121,202,51586,6,0,B|231:188|173:259|295:237,1,165.000005035401,4|8,1:0|0:0,0:0:0:0:
340,335,52401,1,2,1:0:0:0:
340,335,52564,2,0,P|388:305|445:306,1,110.000003356934,10|0,0:0|1:0,0:0:0:0:
485,206,53216,2,0,P|480:180|481:151,1,55.0000016784668,10|2,3:0|3:0,0:0:0:0:
487,97,53542,6,0,P|438:67|381:68,1,110.000003356934,2|0,1:0|1:0,0:0:0:0:
340,48,54031,1,8,0:0:0:0:
340,48,54194,2,0,P|291:77|234:76,1,110.000003356934,2|0,0:0|3:0,0:0:0:0:
139,32,54846,1,2,1:0:0:0:
44,88,55173,1,0,1:0:0:0:
54,201,55499,5,6,1:0:0:0:
54,201,55662,2,0,P|109:193|165:193,2,110.000003356934,2|10|2,0:0|0:0|1:0,0:0:0:0:
8,231,56477,1,10,0:0:0:0:
10,340,56803,1,2,1:0:0:0:
113,377,57129,1,2,0:0:0:0:
197,306,57455,6,0,B|307:292|249:363|371:341,1,165.000005035401,2|8,1:0|0:0,0:0:0:0:
437,276,58270,1,0,1:0:0:0:
437,276,58433,2,0,P|429:220|429:164,1,110.000003356934,10|2,0:0|1:0,0:0:0:0:
348,91,59085,1,10,3:0:0:0:
272,171,59412,5,6,1:0:0:0:
272,171,59575,2,0,P|279:226|279:282,2,110.000003356934,2|10|2,0:0|0:0|1:0,0:0:0:0:
222,146,60390,1,10,0:0:0:0:
166,241,60716,1,2,1:0:0:0:
56,233,61042,1,2,1:0:0:0:
15,129,61368,6,0,P|27:49|102:29,1,165.000005035401,2|8,1:0|0:0,0:0:0:0:
151,44,62020,1,2,0:0:0:0:
251,0,62346,1,0,1:0:0:0:
305,96,62673,2,0,P|360:103|416:103,1,110.000003356934,2|10,1:0|0:0,0:0:0:0:
473,103,63162,1,8,3:0:0:0:
473,103,63325,6,0,B|488:128|515:145|515:145|491:185|491:259,1,165.000005035401,6|8,1:0|0:0,0:0:0:0:
491,301,63977,1,2,0:0:0:0:
389,344,64303,2,0,P|340:314|283:315,1,110.000003356934,10|0,0:0|0:0,0:0:0:0:
184,349,64955,2,0,P|158:354|129:353,1,55.0000016784668,2|2,1:0|1:0,0:0:0:0:
75,341,65281,5,2,1:0:0:0:
16,247,65607,1,10,0:0:0:0:
73,153,65933,1,10,3:0:0:0:
182,166,66260,2,0,P|208:171|237:170,1,55.0000016784668,10|2,0:0|3:0,0:0:0:0:
265,216,66586,2,0,P|320:208|376:208,1,110.000003356934,2|0,1:0|1:0,0:0:0:0:
432,221,67075,1,8,0:0:0:0:
432,221,67238,6,0,P|461:172|460:115,1,110.000003356934,4|0,1:0|1:0,0:0:0:0:
394,33,67890,1,2,0:0:0:0:
319,114,68216,1,10,0:0:0:0:
241,36,68542,1,10,0:0:0:0:
164,115,68868,2,0,P|138:120|109:119,1,55.0000016784668,10|8,0:0|0:0,0:0:0:0:
54,119,69194,6,0,P|24:167|25:224,1,110.000003356934,2|2,1:0|1:0,0:0:0:0:
42,276,69683,1,0,3:0:0:0:
42,276,69846,2,0,P|97:268|153:268,1,110.000003356934,10|8,0:0|0:0,0:0:0:0:
225,350,70499,1,2,1:0:0:0:
313,284,70825,1,2,1:0:0:0:
387,364,71151,6,0,P|444:360|470:256,1,165.000005035401,6|8,1:0|0:0,0:0:0:0:
423,178,71966,1,0,1:0:0:0:
423,178,72129,2,0,P|430:122|430:66,1,110.000003356934,8|0,0:0|1:0,0:0:0:0:
342,3,72781,1,2,3:0:0:0:
248,60,73107,5,14,0:0:0:0:
264,168,73433,1,2,1:0:0:0:
167,221,73759,1,2,0:0:0:0:
83,148,74086,2,0,P|75:92|75:36,2,110.000003356934,10|2|2,0:0|0:0|0:0,0:0:0:0:
4,225,75062,6,0,B|18:247|42:263|42:263|20:299|20:365,1,150,6|2,1:0|0:0,0:0:0:0:
168,330,76040,2,0,P|194:325|222:330,1,50,2|2,0:0|0:0,0:0:0:0:
264,344,76366,1,2,3:0:0:0:
341,281,76692,2,0,P|380:310|430:313,2,100,2|2|2,0:0|3:0|0:0,0:0:0:0:
291,193,77670,2,0,P|241:196|201:225,1,100,2|2,3:0|0:0,0:0:0:0:
202,325,78322,6,0,P|138:311|104:224,1,150,2|2,1:0|0:0,0:0:0:0:
146,152,79137,1,2,0:0:0:0:
146,152,79300,2,0,P|153:96|153:40,2,100,2|2|2,3:0|3:0|3:0,0:0:0:0:
232,201,80278,6,0,B|334:189|288:236|377:230,1,150,2|2,1:0|3:0,0:0:0:0:
477,248,81093,1,2,0:0:0:0:
477,248,81256,2,0,P|498:203|493:154,1,100,2|2,0:0|3:0,0:0:0:0:
411,97,81908,6,0,P|389:52|394:3,2,100,2|2|2,1:0|3:0|0:0,0:0:0:0:
385,141,82723,1,2,0:0:0:0:
385,141,82886,2,0,P|329:133|273:133,1,100,2|2,3:0|0:0,0:0:0:0:
214,62,83539,6,0,P|158:69|102:69,1,100,2|2,1:0|3:0,0:0:0:0:
67,86,84028,2,0,P|45:130|50:179,1,100,2|2,0:0|0:0,0:0:0:0:
70,225,84517,1,2,3:0:0:0:
140,296,84843,1,2,3:0:0:0:
224,242,85169,2,0,P|250:237|279:238,1,50,2|2,3:0|0:0,0:0:0:0:
319,257,85495,5,2,3:0:0:0:
256,192,85658,12,0,87452,0:0:0:0:
