osu file format v14

[General]
AudioFilename: audio.mp3
AudioLeadIn: 0
PreviewTime: 44858
Countdown: 0
SampleSet: Soft
StackLeniency: 0.4
Mode: 0
LetterboxInBreaks: 0
WidescreenStoryboard: 0

[Editor]
Bookmarks: 76166
DistanceSpacing: 1.1
BeatDivisor: 4
GridSize: 4
TimelineZoom: 1.3

[Metadata]
Title:Haiiro no Saga (TV Size)
TitleUnicode:灰色のサーガ (TV Size)
Artist:ChouCho
ArtistUnicode:ちょうちょ
Creator:Kyle73
Version:Memories
Source:魔女の旅々
Tags:Wandering Witch: The Journey of Elaina Anime japanese pop jpop j-pop ending ed Majo no TabiTabi Kibbleru ScubDomino anime girl natsume shiki jungkyuyoung Doormat
BeatmapID:2681790
BeatmapSetID:1292150

[Difficulty]
HPDrainRate:7
CircleSize:4.5
OverallDifficulty:8.5
ApproachRate:9
SliderMultiplier:1.73
SliderTickRate:1

[Events]
//Background and Video events
0,0,"elainaaa.jpg",0,0
Video,354,"tabitabi_ed.mp4"
//Break Periods
//Storyboard Layer 0 (Background)
//Storyboard Layer 1 (Fail)
//Storyboard Layer 2 (Pass)
//Storyboard Layer 3 (Foreground)
//Storyboard Layer 4 (Overlay)
//Storyboard Sound Samples

[TimingPoints]
1168,326.086956521739,5,2,1,45,1,0
1168,-111.111111111111,5,2,1,45,0,0
4428,326.086956521739,6,2,1,45,1,0
6384,326.086956521739,5,2,1,45,1,0
6384,-100,6,2,1,60,0,0
9644,326.086956521739,6,2,1,60,1,0
11600,326.086956521739,6,2,1,60,1,0
11926,-136.986301369863,6,2,1,45,0,0
19099,326.086956521739,6,2,1,55,1,0
19099,-136.986301369863,3,2,1,55,0,0
19428,-111.111111111111,3,2,1,55,0,0
22849,-80,3,2,1,55,0,0
23012,-111.111111111111,3,2,1,55,0,0
26598,326.086956521739,6,2,1,55,1,0
26598,-125,6,2,1,55,0,0
30511,326.086956521739,6,2,1,60,1,0
30511,-125,5,2,1,60,0,0
32793,-100,5,2,1,60,0,0
33119,-125,5,2,1,60,0,0
36054,-100,5,2,1,60,0,0
37032,326.086956521739,6,2,1,50,1,0
37032,-166.666666666667,3,2,1,50,0,0
38010,-136.986301369863,3,2,1,50,0,0
38988,-166.666666666667,3,2,1,55,0,0
39314,-142.857142857143,3,2,1,60,0,0
39640,-125,3,2,1,65,0,0
39966,-111.111111111111,3,2,1,70,0,0
40945,326.086956521739,6,2,1,70,1,0
40945,-80,3,2,1,70,0,0
41597,-100,3,2,1,70,0,0
42901,-80,3,2,1,70,0,0
43879,-133.333333333333,3,2,1,60,0,0
44858,-90.9090909090909,3,2,1,70,0,0
56271,-200,3,2,1,70,0,0
56597,-90.9090909090909,3,2,1,70,0,0
76162,326.086956521739,5,2,1,60,1,0
76162,-100,3,2,1,60,0,0
79422,326.086956521739,6,2,1,60,1,0
81378,326.086956521739,5,2,1,60,1,0
84638,326.086956521739,6,2,1,60,1,0
86594,-136.986301369863,6,2,1,60,0,0

[Colours]
Combo1 : 196,157,227
Combo2 : 124,124,190
Combo3 : 199,199,199
Combo4 : 148,191,235

[HitObjects]
62,87,1168,5,2,0:0:0:0:
62,87,1494,1,0,0:0:0:0:
120,35,1657,1,0,0:0:0:0:
186,72,1820,1,0,0:0:0:0:
170,149,1983,1,0,0:0:0:0:
93,156,2146,5,2,0:0:0:0:
127,163,2227,1,2,0:0:0:0:
156,184,2309,1,2,0:0:0:0:
175,213,2390,1,2,0:0:0:0:
182,247,2472,1,2,0:0:0:0:
167,335,2635,1,2,0:0:0:0:
270,224,2798,5,2,0:0:0:0:
358,243,2961,1,0,0:0:0:0:
373,331,3124,1,2,0:0:0:0:
261,319,3287,1,0,0:0:0:0:
278,309,3450,1,0,0:0:0:0:
295,300,3613,1,0,0:0:0:0:
358,243,3776,2,0,P|363:204|366:165,1,77.8499976242066,2|0,0:0|0:0,0:0:0:0:
491,32,4102,5,2,0:0:0:0:
480,58,4184,1,2,0:0:0:0:
460,80,4265,1,2,0:0:0:0:
434,92,4347,1,2,0:0:0:0:
405,94,4428,1,2,0:0:0:0:
320,84,4591,1,2,0:0:0:0:
279,159,4754,1,2,0:0:0:0:
193,159,4917,1,2,0:0:0:0:
233,83,5080,5,2,0:0:0:0:
233,83,5243,1,2,0:0:0:0:
429,267,5406,5,2,0:0:0:0:
312,264,5569,1,2,0:0:0:0:
323,285,5732,5,2,0:0:0:0:
334,306,5895,1,2,0:0:0:0:
418,246,6058,5,2,0:0:0:0:
407,225,6221,1,2,0:0:0:0:
340,170,6384,6,0,B|261:183|301:196|216:206,1,129.75,6|0,0:0|0:0,0:0:0:0:
196,201,6710,1,2,0:0:0:0:
3,94,6873,2,0,B|69:100|69:100|105:155|71:199,1,173,8|8,0:0|0:0,0:0:0:0:
10,333,7362,1,2,0:0:0:0:
92,284,7525,1,2,0:0:0:0:
96,301,7606,1,2,0:0:0:0:
100,318,7688,1,2,0:0:0:0:
71,199,7851,1,8,0:0:0:0:
2,251,8014,5,10,0:0:0:0:
2,251,8177,1,2,0:0:0:0:
71,199,8340,2,0,B|81:157|81:157|69:115,1,86.5,2|2,0:0|1:2,0:0:0:0:
0,44,8666,1,2,0:0:0:0:
97,20,8829,1,8,0:0:0:0:
177,87,8992,5,10,0:0:0:0:
177,87,9155,1,0,1:0:0:0:
257,67,9318,1,2,0:0:0:0:
282,60,9400,1,2,0:0:0:0:
308,53,9481,1,2,0:0:0:0:
333,45,9563,1,2,0:0:0:0:
358,38,9644,5,6,0:0:0:0:
494,94,9807,1,2,0:0:0:0:
379,144,9970,1,10,0:0:0:0:
459,21,10133,6,0,P|466:63|473:106,1,86.5,2|2,1:2|0:0,0:0:0:0:
373,219,10459,1,8,3:2:0:0:
424,274,10622,2,0,P|416:316|409:359,1,86.5,6|0,0:0|1:0,0:0:0:0:
449,191,10948,5,8,0:0:0:0:
360,209,11111,1,2,0:0:0:0:
273,184,11274,1,2,1:2:0:0:
168,236,11437,1,2,0:0:0:0:
168,236,11926,5,2,0:0:0:0:
92,261,12089,2,0,P|61:268|30:275,1,63.1450017343293,2|0,0:0|0:0,0:0:0:0:
33,121,12415,1,2,0:0:0:0:
33,121,12578,2,0,P|82:158|144:157,1,126.290003468659,2|2,0:0|0:0,0:0:0:0:
234,70,13230,1,2,0:0:0:0:
314,68,13556,6,0,B|374:83|427:54|427:54|447:90|481:99,1,189.435005202988,2|0,0:0|0:0,0:0:0:0:
472,178,14208,1,2,0:0:0:0:
472,178,14534,2,0,P|476:209|480:240,1,63.1450017343293,2|0,0:0|0:0,0:0:0:0:
403,356,14860,2,0,P|407:324|411:293,1,63.1450017343293,2|0,0:0|0:0,0:0:0:0:
356,233,15186,1,2,0:0:0:0:
276,252,15513,6,0,B|171:271|219:301|102:322,1,189.435005202988,2|0,0:0|0:0,0:0:0:0:
7,355,16165,2,0,B|28:280|28:280|16:233,1,126.290003468659,2|0,0:0|0:0,0:0:0:0:
16,233,16817,2,0,P|48:236|79:239,1,63.1450017343293,2|0,0:0|0:0,0:0:0:0:
16,64,17143,2,0,P|47:60|78:57,1,63.1450017343293,2|0,0:0|0:0,0:0:0:0:
61,147,17469,6,0,B|139:139|139:139|167:162|167:162|241:153,1,189.435005202988,2|0,0:0|0:0,0:0:0:0:
417,92,18121,1,2,0:0:0:0:
417,92,18447,5,8,0:3:0:0:
362,161,18610,1,8,0:3:0:0:
451,182,18773,1,4,0:3:0:0:
508,110,18936,1,4,0:3:0:0:
417,92,19099,6,0,P|410:61|403:30,1,63.1450017343293,2|0,1:2|0:0,0:0:0:0:
362,161,19425,1,2,0:0:0:0:
287,229,19588,2,0,B|249:236|259:248|214:255,1,77.8499976242066,2|0,1:2|0:0,0:0:0:0:
79,354,19914,1,2,0:0:0:0:
118,260,20077,6,0,B|130:220|130:220|118:185,1,77.8499976242066,10|0,0:0|0:0,0:0:0:0:
62,55,20403,1,2,1:2:0:0:
42,138,20566,1,8,0:0:0:0:
118,185,20729,1,2,0:0:0:0:
138,102,20892,1,0,0:0:0:0:
138,102,21055,6,0,B|275:98|226:44|360:44,1,233.54999287262,2|0,1:2|1:0,0:0:0:0:
456,77,21707,1,2,0:0:0:0:
417,157,21870,2,0,P|425:196|432:234,1,77.8499976242066,8|2,0:0|0:0,0:0:0:0:
360,372,22196,5,0,1:0:0:0:
459,336,22359,1,10,0:0:0:0:
361,286,22522,1,0,1:0:0:0:
266,331,22685,1,10,0:0:0:0:
266,331,22849,6,0,L|241:340,3,27.03125,2|0|0|0,0:0|0:0|0:0|0:0,0:0:0:0:
266,331,23012,6,0,B|249:274|249:274|216:259|216:259|203:200,1,155.699995248413,10|0,0:0|0:0,0:0:0:0:
151,105,23501,1,8,0:0:0:0:
297,194,23664,1,2,0:0:0:0:
124,275,23827,1,2,1:2:0:0:
204,200,23990,1,10,0:0:0:0:
204,200,24316,5,0,1:3:0:0:
84,187,24479,1,8,0:0:0:0:
21,290,24642,1,2,0:0:0:0:
122,350,24805,1,0,3:0:0:0:
122,350,24887,1,0,3:0:0:0:
122,350,24968,6,0,B|132:312|132:312|123:274,1,77.8499976242066,6|0,1:2|1:0,0:0:0:0:
58,202,25294,1,2,1:2:0:0:
6,280,25457,1,10,0:0:0:0:
123,274,25620,2,0,P|161:265|199:257,1,77.8499976242066,2|2,1:2|1:2,0:0:0:0:
362,349,25946,5,8,3:2:0:0:
299,275,26109,1,8,0:0:0:0:
331,183,26272,1,8,3:0:0:0:
427,169,26435,1,8,3:0:0:0:
395,258,26598,6,0,B|312:275|348:291|248:315,1,138.4,6|0,1:2|0:0,0:0:0:0:
122,374,27087,1,2,1:2:0:0:
155,236,27250,2,0,P|169:263|177:300,1,69.2,2|2,0:0|1:2,0:0:0:0:
67,244,27576,6,0,P|52:216|44:179,1,69.2,2|0,1:2|0:0,0:0:0:0:
136,25,27902,1,2,0:0:0:0:
113,112,28065,1,0,1:0:0:0:
26,89,28228,1,2,0:0:0:0:
49,2,28391,1,2,0:0:0:0:
113,112,28554,6,0,B|168:115|198:103|198:103|210:126|226:146,1,138.4,2|2,1:2|0:0,0:0:0:0:
381,217,29043,1,0,1:0:0:0:
293,272,29206,1,2,0:0:0:0:
340,127,29369,1,10,0:0:0:0:
479,189,29532,1,2,1:2:0:0:
479,189,29858,5,2,0:0:0:0:
381,217,30021,1,2,0:0:0:0:
384,320,30184,5,2,1:2:0:0:
286,292,30348,1,2,0:0:0:0:
183,325,30511,6,0,P|149:331|115:336,1,69.2,6|8,1:2|0:0,0:0:0:0:
0,298,30837,2,0,B|48:266|48:266|50:230|24:190,1,138.4,2|0,0:0|1:0,0:0:0:0:
115,64,31326,1,2,0:0:0:0:
4,16,31489,2,0,P|9:50|14:84,1,69.2,8|2,0:0|0:0,0:0:0:0:
141,155,31815,1,0,1:0:0:0:
239,177,31978,1,8,0:0:0:0:
265,268,32141,6,0,P|259:302|254:336,1,69.2,2|2,0:0|0:0,0:0:0:0:
167,248,32467,1,8,0:0:0:0:
329,197,32630,1,2,0:0:0:0:
400,271,32793,2,0,P|403:293|406:314,2,43.25,10|0|0,0:0|0:0|0:0,0:0:0:0:
265,268,33119,1,2,1:2:0:0:
421,178,33282,1,8,0:0:0:0:
255,129,33445,1,2,0:0:0:0:
329,197,33608,1,8,0:0:0:0:
329,197,33690,1,8,0:0:0:0:
329,196,33771,6,0,P|334:162|338:128,1,69.2,2|0,1:2|1:0,0:0:0:0:
425,1,34097,1,8,0:0:0:0:
463,76,34261,1,2,0:0:0:0:
421,149,34424,1,0,1:0:0:0:
421,149,34587,1,8,0:0:0:0:
338,128,34750,2,0,B|262:138|292:159|209:176,1,138.4,2|2,0:0|1:2,0:0:0:0:
128,228,35239,1,0,0:0:0:0:
158,111,35402,6,0,B|162:78|162:78|147:44,1,69.2,6|0,1:2|3:0,0:0:0:0:
73,95,35728,1,0,1:0:0:0:
210,176,35891,1,8,0:0:0:0:
99,243,36054,2,0,P|80:254|61:264,2,43.25,2|0|2,1:2|0:0|0:0,0:0:0:0:
323,229,36380,5,8,1:2:0:0:
158,111,36543,1,0,3:0:0:0:
352,37,36706,1,8,1:3:0:0:
280,124,36869,1,0,3:0:0:0:
280,124,36951,1,2,0:0:0:0:
280,124,37032,6,0,B|362:136|362:136|388:169|388:169|470:184,1,207.599993664551,6|0,1:2|1:0,0:0:0:0:
469,184,38010,2,0,P|474:215|478:246,1,63.1450017343293,2|0,0:0|0:0,0:0:0:0:
440,87,38336,2,0,P|444:55|448:24,1,63.1450017343293,2|0,0:0|0:0,0:0:0:0:
335,51,38662,1,2,1:2:0:0:
335,51,38988,6,0,P|309:53|283:56,1,51.8999984161377,10|0,0:0|0:0,0:0:0:0:
257,190,39314,6,0,P|226:186|196:183,1,60.5499981521607,10|0,0:0|0:0,0:0:0:0:
164,13,39640,6,0,P|129:16|95:19,1,69.2,10|0,0:0|0:0,0:0:0:0:
94,268,39966,6,0,P|55:263|16:259,1,77.8499976242066,10|0,0:0|0:0,0:0:0:0:
43,149,40292,5,8,3:2:0:0:
121,196,40455,1,0,3:0:0:0:
207,164,40618,1,8,1:2:0:0:
285,211,40782,1,8,0:0:0:0:
209,300,40945,6,0,B|160:295|160:295|187:261|249:273|230:313|317:298,1,216.25,6|2,0:0|0:0,0:0:0:0:
492,332,41434,1,0,3:0:0:0:
398,365,41597,1,2,3:2:0:0:
419,268,41760,1,0,3:0:0:0:
512,234,41923,6,0,B|521:191|521:191|509:150,1,86.5,6|0,0:0|0:0,0:0:0:0:
419,2,42249,1,8,0:0:0:0:
367,76,42412,1,0,1:0:0:0:
419,150,42575,1,2,0:0:0:0:
419,150,42738,1,8,0:0:0:0:
267,91,42901,6,0,B|216:96|178:80|178:80|163:116|127:125,1,162.1875,6|4,0:0|3:0,0:0:0:0:
107,132,43227,1,8,3:0:0:0:
28,97,43390,1,0,3:0:0:0:
95,42,43553,1,8,3:0:0:0:
95,42,43716,1,0,1:0:0:0:
268,92,43879,6,0,B|286:121|299:176|299:176|335:142|335:142|377:167|377:167|385:133|418:110,1,259.499992080689,6|2,0:0|0:0,0:0:0:0:
471,190,44858,5,6,1:2:0:0:
345,339,45021,2,0,B|333:293|333:293|345:247,1,95.1500029037476,2|0,0:0|0:0,0:0:0:0:
511,15,45347,2,0,B|523:61|523:61|510:106,1,95.1500029037476,10|0,0:0|0:0,0:0:0:0:
346,60,45673,1,2,1:2:0:0:
401,138,45836,6,0,P|353:144|306:150,1,95.1500029037476,8|0,3:2|0:0,0:0:0:0:
103,282,46162,1,2,0:0:0:0:
99,187,46325,1,8,0:0:0:0:
11,235,46488,1,2,0:0:0:0:
15,330,46651,1,0,0:0:0:0:
197,293,46814,6,0,P|150:287|103:282,1,95.1500029037476,6|0,1:2|0:0,0:0:0:0:
11,132,47140,1,0,1:0:0:0:
122,8,47303,2,0,B|143:54|143:54|132:97,1,95.1500029037476,8|2,0:0|0:0,0:0:0:0:
11,235,47629,1,0,1:0:0:0:
225,156,47792,5,10,0:0:0:0:
55,61,47955,1,0,0:0:0:0:
99,187,48118,1,2,0:0:0:0:
237,54,48281,1,2,0:0:0:0:
390,272,48445,1,10,0:0:0:0:
248,184,48608,1,2,0:0:0:0:
248,184,48689,1,2,0:0:0:0:
248,184,48771,5,2,1:2:0:0:
512,105,48934,2,0,P|465:95|418:86,1,95.1500029037476,2|0,0:0|0:0,0:0:0:0:
347,18,49260,2,0,B|319:54|319:54|325:104,1,95.1500029037476,10|0,0:0|0:0,0:0:0:0:
483,295,49586,1,2,1:2:0:0:
483,295,49749,6,0,B|510:258|510:258|504:208,1,95.1500029037476,8|0,3:2|0:0,0:0:0:0:
410,115,50075,1,2,0:0:0:0:
420,229,50238,1,0,1:0:0:0:
290,84,50401,1,2,0:0:0:0:
214,274,50564,1,0,0:0:0:0:
214,274,50646,1,0,0:0:0:0:
214,274,50727,6,0,B|178:285|143:279|143:279|130:309|93:328,1,142.725004355621,6|0,1:2|0:0,0:0:0:0:
78,339,51053,1,2,1:2:0:0:
10,266,51216,1,8,0:0:0:0:
57,189,51379,2,0,P|49:142|42:94,1,95.1500029037476,2|0,0:0|1:0,0:0:0:0:
455,189,51705,6,0,P|462:142|469:94,1,95.1500029037476,10|0,0:0|0:0,0:0:0:0:
256,16,52031,1,2,1:2:0:0:
328,112,52195,1,2,0:0:0:0:
164,208,52358,1,2,1:2:0:0:
359,333,52521,1,0,3:0:0:0:
359,333,52602,1,8,0:0:0:0:
359,333,52684,6,0,B|327:272|327:272|280:262|280:262|256:192,1,190.300005807495,6|2,1:2|1:2,0:0:0:0:
207,111,53173,1,8,0:0:0:0:
111,164,53336,1,2,0:0:0:0:
167,22,53499,1,2,1:2:0:0:
325,86,53662,6,0,P|373:79|420:73,1,95.1500029037476,10|0,0:0|0:0,0:0:0:0:
512,188,53988,1,0,1:0:0:0:
404,173,54151,1,0,3:0:0:0:
344,264,54314,1,2,0:0:0:0:
451,267,54477,1,2,0:0:0:0:
451,267,54559,1,2,0:0:0:0:
451,267,54640,6,0,B|339:271|398:311|273:325,1,190.300005807495,2|0,1:2|1:0,0:0:0:0:
188,284,55129,1,8,0:0:0:0:
82,356,55292,1,8,0:0:0:0:
260,235,55455,1,0,3:2:0:0:
108,244,55618,5,8,0:3:0:0:
193,370,55781,1,4,0:3:0:0:
188,284,55944,2,0,P|183:236|179:189,1,95.1500029037476,6|0,0:0|0:0,0:0:0:0:
39,43,56271,6,0,P|41:64|42:86,1,43.25,6|0,0:0|0:0,0:0:0:0:
4,243,56597,5,6,1:2:0:0:
82,173,56760,2,0,P|128:165|176:158,1,95.1500029037476,2|0,0:0|0:0,0:0:0:0:
349,59,57086,2,0,P|301:52|255:44,1,95.1500029037476,10|0,0:0|0:0,0:0:0:0:
410,184,57412,1,2,1:2:0:0:
295,304,57575,6,0,B|279:258|279:258|288:212,1,95.1500029037476,8|0,3:2|0:0,0:0:0:0:
506,36,57901,2,0,B|522:82|522:82|512:127,1,95.1500029037476,2|8,1:2|0:0,0:0:0:0:
368,252,58227,1,2,0:0:0:0:
454,192,58390,1,0,0:0:0:0:
468,296,58553,6,0,B|395:304|362:281|362:281|353:318|303:332,1,190.300005807495,6|0,1:2|1:0,0:0:0:0:
141,365,59042,1,8,0:0:0:0:
203,258,59205,1,2,0:0:0:0:
222,341,59368,1,0,1:0:0:0:
122,282,59531,6,0,B|104:238|104:238|117:192,1,95.1500029037476,10|0,0:0|1:0,0:0:0:0:
190,126,59858,1,2,1:2:0:0:
87,93,60021,1,8,0:0:0:0:
248,50,60184,1,2,1:2:0:0:
291,187,60347,1,2,0:0:0:0:
291,187,60428,1,2,0:0:0:0:
291,187,60510,5,6,1:2:0:0:
385,173,60673,2,0,P|432:166|479:160,1,95.1500029037476,2|0,0:0|1:0,0:0:0:0:
342,85,60999,1,10,0:0:0:0:
291,187,61162,1,2,0:0:0:0:
377,269,61325,1,0,1:0:0:0:
377,269,61488,6,0,P|424:262|471:256,1,95.1500029037476,8|0,3:2|0:0,0:0:0:0:
385,173,61814,1,2,1:2:0:0:
278,281,61977,1,0,0:0:0:0:
221,120,62140,1,10,0:0:0:0:
75,242,62303,1,0,0:0:0:0:
75,242,62385,1,8,0:0:0:0:
75,242,62466,6,0,B|142:226|142:226|198:258|179:331,1,190.300005807495,6|0,1:2|1:0,0:0:0:0:
46,367,62955,1,8,0:0:0:0:
75,242,63118,2,0,B|64:196|64:196|75:149,1,95.1500029037476,2|2,0:0|1:2,0:0:0:0:
234,262,63444,5,2,1:2:0:0:
164,198,63608,1,8,0:0:0:0:
256,72,63771,2,0,B|267:118|267:118|256:165,1,95.1500029037476,2|8,1:2|0:0,0:0:0:0:
181,28,64097,1,8,1:3:0:0:
320,10,64260,1,8,1:3:0:0:
404,113,64423,6,0,P|314:106|278:188,1,190.300005807495,4|0,0:0|1:0,0:0:0:0:
481,282,64912,1,8,0:0:0:0:
399,203,65075,1,2,0:0:0:0:
299,348,65238,1,2,1:2:0:0:
392,292,65401,6,0,B|332:296|357:310|300:316,1,95.1500029037476,14|0,0:0|1:0,0:0:0:0:
93,353,65727,1,2,0:0:0:0:
23,288,65890,1,10,0:0:0:0:
120,266,66053,1,2,1:2:0:0:
189,338,66216,1,2,0:0:0:0:
120,266,66379,6,0,B|100:226|100:226|109:176,1,95.1500029037476,6|0,0:0|0:0,0:0:0:0:
392,266,66705,2,0,B|412:226|412:226|402:176,1,95.1500029037476,10|0,0:0|1:0,0:0:0:0:
253,11,67031,2,0,B|238:104|268:71|254:152,1,142.725004355621,2|0,0:0|0:0,0:0:0:0:
246,170,67358,5,12,0:0:0:0:
271,265,67521,1,0,1:0:0:0:
189,338,67684,2,0,P|141:341|94:346,1,95.1500029037476,2|0,0:0|0:0,0:0:0:0:
271,265,68010,1,0,1:0:0:0:
369,362,68173,1,8,0:0:0:0:
388,364,68254,1,8,0:0:0:0:
407,367,68336,5,14,0:0:0:0:
407,367,68662,1,2,1:2:0:0:
468,307,68825,1,8,0:0:0:0:
405,168,68988,2,0,P|359:177|312:184,1,95.1500029037476,2|0,0:0|1:0,0:0:0:0:
407,367,69314,6,0,P|360:358|313:351,1,95.1500029037476,6|0,1:2|0:0,0:0:0:0:
139,379,69640,2,0,B|163:330|163:330|196:319|196:319|220:271,1,142.725004355621,8|0,0:0|0:0,0:0:0:0:
230,288,69966,1,2,0:0:0:0:
312,184,70129,1,2,0:0:0:0:
204,72,70292,6,0,P|186:116|197:162,1,95.1500029037476,12|0,0:0|0:0,0:0:0:0:
377,353,70618,2,0,P|394:309|383:263,1,95.1500029037476,2|2,1:2|0:0,0:0:0:0:
436,81,70944,1,2,1:2:0:0:
498,147,71108,1,8,0:0:0:0:
405,168,71271,6,0,P|359:177|312:184,1,95.1500029037476,4|0,0:0|0:0,0:0:0:0:
100,322,71597,1,2,1:2:0:0:
185,141,71760,1,8,3:0:0:0:
234,255,71923,1,0,1:0:0:0:
51,208,72086,1,8,3:0:0:0:
234,255,72249,6,0,B|326:257|326:257|397:324,1,190.300005807495,14|0,0:0|1:0,0:0:0:0:
506,359,72738,1,8,0:0:0:0:
471,271,72901,1,2,0:0:0:0:
512,185,73064,1,0,1:0:0:0:
457,22,73227,6,0,B|441:67|441:67|449:114,1,95.1500029037476,6|0,0:0|0:0,0:0:0:0:
512,185,73553,1,0,1:0:0:0:
398,325,73716,1,8,0:0:0:0:
494,284,73879,1,2,0:0:0:0:
324,209,74042,1,2,0:0:0:0:
324,209,74124,1,2,0:0:0:0:
324,209,74205,6,0,P|276:214|229:220,1,95.1500029037476,6|0,0:0|0:0,0:0:0:0:
332,102,74531,1,2,1:2:0:0:
418,221,74694,1,8,0:0:0:0:
261,311,74858,5,2,1:2:0:0:
71,250,75021,1,2,0:0:0:0:
52,249,75102,1,2,0:0:0:0:
33,247,75184,1,6,0:0:0:0:
142,211,75347,1,2,0:0:0:0:
151,233,75428,1,2,0:0:0:0:
150,257,75510,1,2,0:0:0:0:
49,344,75673,5,2,0:0:0:0:
83,142,75836,1,2,0:0:0:0:
266,234,75999,1,2,0:0:0:0:
150,257,76162,5,2,0:0:0:0:
150,257,76651,5,2,0:0:0:0:
156,278,76814,1,2,0:0:0:0:
253,351,76977,1,0,0:0:0:0:
245,331,77140,1,2,0:0:0:0:
266,234,77303,5,0,0:0:0:0:
292,236,77384,1,0,0:0:0:0:
319,241,77466,1,2,0:0:0:0:
394,313,77629,1,0,0:0:0:0:
420,311,77710,1,0,0:0:0:0:
447,306,77792,2,0,L|467:300,4,21.625,2|0|0|0|0,0:0|0:0|0:0|0:0|0:0,0:0:0:0:
290,336,78118,5,2,0:0:0:0:
319,241,78281,1,0,0:0:0:0:
258,163,78444,1,2,0:0:0:0:
287,68,78607,1,0,0:0:0:0:
376,48,78770,5,2,0:0:0:0:
350,135,78933,1,0,0:0:0:0:
317,138,79015,1,0,0:0:0:0:
286,147,79096,1,0,0:0:0:0:
258,163,79178,1,0,0:0:0:0:
230,179,79259,1,0,0:0:0:0:
199,189,79341,1,0,0:0:0:0:
167,194,79422,5,2,0:0:0:0:
94,140,79585,1,2,0:0:0:0:
72,228,79748,1,2,0:0:0:0:
138,290,79911,1,2,0:0:0:0:
54,317,80074,5,2,0:0:0:0:
54,317,80237,1,2,0:0:0:0:
138,290,80400,5,2,0:0:0:0:
159,284,80563,1,2,0:0:0:0:
180,278,80726,1,2,0:0:0:0:
270,330,80889,5,2,0:0:0:0:
276,226,81052,1,2,0:0:0:0:
187,172,81215,1,2,0:0:0:0:
276,226,81378,6,0,B|329:234|316:216|363:226,1,86.5,2|0,1:2|0:0,0:0:0:0:
460,289,81704,1,0,0:0:0:0:
460,289,81867,2,0,P|465:247|470:204,1,86.5,2|0,1:2|0:0,0:0:0:0:
441,131,82193,1,0,0:0:0:0:
494,37,82356,5,2,0:0:0:0:
396,70,82519,1,2,0:0:0:0:
370,70,82600,1,0,0:0:0:0:
345,66,82682,1,2,0:0:0:0:
295,2,82845,5,2,0:0:0:0:
286,22,82926,1,0,0:0:0:0:
266,32,83008,2,0,L|244:37,4,21.625,2|0|0|0|0,0:0|0:0|0:0|0:0|0:0,0:0:0:0:
190,137,83334,5,2,0:0:0:0:
269,114,83497,1,0,0:0:0:0:
316,187,83660,1,0,0:0:0:0:
316,187,83823,1,0,0:0:0:0:
401,210,83986,5,2,0:0:0:0:
401,210,84149,1,0,0:0:0:0:
232,208,84312,5,0,0:0:0:0:
206,216,84394,1,0,0:0:0:0:
183,230,84475,1,0,0:0:0:0:
161,247,84557,1,0,0:0:0:0:
136,256,84638,1,2,0:0:0:0:
72,198,84801,1,2,0:0:0:0:
116,338,84964,1,2,0:0:0:0:
52,280,85127,1,2,0:0:0:0:
202,320,85290,5,2,0:0:0:0:
202,320,85453,1,2,0:0:0:0:
269,375,85616,5,2,0:0:0:0:
357,368,85779,1,2,0:0:0:0:
357,368,85860,1,0,0:0:0:0:
357,368,85942,1,2,0:0:0:0:
390,288,86105,1,2,0:0:0:0:
473,263,86268,1,2,0:0:0:0:
512,340,86431,1,2,0:0:0:0:
294,275,86594,6,0,L|297:290,2,15.7862504335823,2|0|0,0:0|0:0|0:0,0:0:0:0:
