osu file format v14

[General]
AudioFilename: audio.mp3
AudioLeadIn: 0
PreviewTime: 44858
Countdown: 0
SampleSet: Soft
StackLeniency: 0.4
Mode: 0
LetterboxInBreaks: 0
WidescreenStoryboard: 1

[Editor]
Bookmarks: 76166
DistanceSpacing: 1
BeatDivisor: 4
GridSize: 4
TimelineZoom: 1.3

[Metadata]
Title:Haiiro no Saga (TV Size)
TitleUnicode:灰色のサーガ (TV Size)
Artist:ChouCho
ArtistUnicode:ちょうちょ
Creator:Kyle73
Version:Easy
Source:魔女の旅々
Tags:Wandering Witch: The Journey of Elaina Anime japanese pop jpop j-pop ending ed Majo no TabiTabi Kibbleru ScubDomino anime girl natsume shiki jungkyuyoung Doormat
BeatmapID:2681788
BeatmapSetID:1292150

[Difficulty]
HPDrainRate:2
CircleSize:3
OverallDifficulty:2
ApproachRate:3.5
SliderMultiplier:0.9
SliderTickRate:1

[Events]
//Background and Video events
0,0,"elainaaa.jpg",0,0
Video,354,"tabitabi_ed.mp4"
//Break Periods
2,11637,17659
//Storyboard Layer 0 (Background)
//Storyboard Layer 1 (Fail)
//Storyboard Layer 2 (Pass)
//Storyboard Layer 3 (Foreground)
//Storyboard Layer 4 (Overlay)
//Storyboard Sound Samples

[TimingPoints]
1168,326.086956521739,5,2,1,45,1,0
1168,-100,5,2,1,45,0,0
4428,326.086956521739,6,2,1,45,1,0
6384,326.086956521739,5,2,1,45,1,0
6384,-100,6,2,1,60,0,0
9644,326.086956521739,6,2,1,60,1,0
11600,326.086956521739,6,2,1,60,1,0
11926,-100,6,2,1,45,0,0
19099,326.086956521739,6,2,1,55,1,0
19099,-100,6,2,1,55,0,0
19428,-100,6,2,1,55,0,0
22849,-100,6,2,1,55,0,0
23012,-100,6,2,1,55,0,0
26598,326.086956521739,6,2,1,55,1,0
26598,-100,6,2,1,55,0,0
30511,326.086956521739,6,2,1,60,1,0
30511,-100,6,2,1,60,0,0
32795,-100,6,2,1,60,0,0
33123,-100,6,2,1,60,0,0
36054,-100,6,2,1,60,0,0
37032,326.086956521739,6,2,1,50,1,0
37032,-100,6,2,1,50,0,0
38010,-100,6,2,1,50,0,0
38988,-100,6,2,1,55,0,0
39314,-100,6,2,1,60,0,0
39640,-100,6,2,1,65,0,0
39966,-100,6,2,1,70,0,0
40945,326.086956521739,6,2,1,70,1,0
40945,-100,6,2,1,70,0,0
41597,-100,6,2,1,70,0,0
42901,-100,6,2,1,70,0,0
43879,-100,6,2,1,60,0,0
44858,-100,6,2,1,70,0,1
76162,326.086956521739,5,2,1,60,1,0
76162,-100,3,2,1,60,0,0
79422,326.086956521739,6,2,1,60,1,0
81378,326.086956521739,5,2,1,60,1,0
84638,326.086956521739,6,2,1,60,1,0
86594,-100,6,2,1,60,0,0

[Colours]
Combo1 : 196,157,227
Combo2 : 124,124,190
Combo3 : 199,199,199
Combo4 : 148,191,235

[HitObjects]
28,280,1168,6,0,B|71:254|114:263|114:263|133:301|187:309,1,180,2|0,0:0|0:0,0:0:0:0:
267,349,2146,2,0,P|279:307|265:264,1,90,2|0,0:0|0:0,0:0:0:0:
192,213,2798,1,2,0:0:0:0:
114,168,3124,2,0,P|100:125|112:82,1,90,2|0,0:0|0:0,0:0:0:0:
161,8,3776,1,2,0:0:0:0:
341,21,4428,6,0,L|430:33,2,90,2|0|2,0:0|0:0|0:0,0:0:0:0:
317,108,5406,2,0,L|227:120,2,90,2|0|2,0:0|0:0|0:0,0:0:0:0:
393,156,6384,2,0,B|479:175|436:199|513:213,2,135,6|8|2,0:0|0:0|0:0,0:0:0:0:
312,196,7688,1,2,0:0:0:0:
244,255,8014,1,10,0:0:0:0:
167,302,8340,2,0,L|154:214,1,90,2|0,0:0|0:0,0:0:0:0:
86,154,8992,2,0,L|100:65,1,90,10|2,0:0|0:0,0:0:0:0:
188,85,9644,6,0,P|252:70|284:13,2,135,6|2|6,0:0|1:2|0:0,0:0:0:0:
100,65,10948,1,8,0:0:0:0:
86,154,11274,2,0,L|76:197,1,45,2|2,1:2|0:0,0:0:0:0:
383,210,19099,6,0,B|468:214|428:236|511:245,2,135,2|2|10,1:2|1:2|0:0,0:0:0:0:
305,255,20403,2,0,P|292:212|303:169,1,90,2|2,1:2|0:0,0:0:0:0:
323,82,21055,2,0,L|221:71,1,90,2|0,1:2|0:0,0:0:0:0:
144,74,21707,1,2,0:0:0:0:
80,137,22033,1,2,0:0:0:0:
99,225,22359,2,0,L|111:314,1,90,10|10,0:0|0:0,0:0:0:0:
195,348,23012,6,0,P|255:318|322:326,2,135,10|8|10,0:0|0:0|0:0,0:0:0:0:
112,314,24316,1,0,1:3:0:0:
31,353,24642,1,2,0:0:0:0:
39,263,24968,2,0,L|34:173,1,90,6|2,1:2|1:2,0:0:0:0:
109,124,25620,1,2,1:2:0:0:
186,170,25946,2,0,L|181:260,1,90,8|8,3:2|3:0,0:0:0:0:
136,337,26598,6,0,P|222:337|270:266,1,180,6|2,1:2|0:0,0:0:0:0:
326,194,27576,2,0,L|416:203,2,90,2|2|2,1:2|0:0|0:0,0:0:0:0:
237,176,28554,2,0,B|148:166|148:166|69:210,1,180,2|2,1:2|0:0,0:0:0:0:
87,298,29532,2,0,B|176:308|176:308|255:264,1,180,2|2,1:2|1:2,0:0:0:0:
324,205,30511,5,6,1:2:0:0:
397,257,30837,2,0,L|412:345,2,90,2|0|8,0:0|1:0|0:0,0:0:0:0:
402,167,31815,1,0,1:0:0:0:
485,135,32141,2,0,P|504:94|500:49,1,90,2|8,0:0|0:0,0:0:0:0:
415,80,32793,2,0,L|327:98,1,90,10|2,0:0|1:2,0:0:0:0:
259,39,33445,1,2,0:0:0:0:
175,71,33771,5,2,1:2:0:0:
95,29,34097,2,0,P|84:71|92:115,1,90,8|0,0:0|1:0,0:0:0:0:
136,195,34750,2,0,L|47:213,1,90,2|2,0:0|1:2,0:0:0:0:
85,295,35402,2,0,B|127:286|173:300|173:300|190:342|244:348,1,180,6|2,1:2|1:2,0:0:0:0:
334,358,36380,1,8,1:2:0:0:
402,299,36706,1,8,1:3:0:0:
431,214,37032,6,0,B|389:223|343:209|343:209|326:167|272:161,1,180,6|0,1:2|1:0,0:0:0:0:
191,200,38010,2,0,P|180:157|192:114,2,90,2|2|2,0:0|0:0|1:2,0:0:0:0:
264,252,38988,1,10,0:0:0:0:
350,279,39314,1,10,0:0:0:0:
323,364,39640,1,10,0:0:0:0:
237,338,39966,1,10,0:0:0:0:
150,314,40292,2,0,L|61:324,1,90,8|8,3:2|1:2,0:0:0:0:
8,251,40945,6,0,B|-2:210|-2:210|15:165,2,90,6|2|2,0:0|0:0|3:2,0:0:0:0:
90,215,41923,2,0,L|180:204,2,90,6|8|2,0:0|0:0|0:0,0:0:0:0:
15,166,42901,2,0,B|-27:106|2:34|2:34|32:5,1,180,6|8,0:0|3:0,0:0:0:0:
122,5,43879,2,0,B|152:33|152:33|181:105|139:165,1,180,6|2,0:0|0:0,0:0:0:0:
149,255,44858,6,0,L|16:282,2,135,6|10|8,1:2|0:0|3:2,0:0:0:0:
232,289,46162,1,2,0:0:0:0:
307,240,46488,1,2,0:0:0:0:
225,202,46814,2,0,P|204:138|224:75,2,135,6|8|10,1:2|0:0|0:0,0:0:0:0:
307,240,48118,1,2,0:0:0:0:
371,177,48445,1,10,0:0:0:0:
456,206,48771,6,0,L|485:337,2,135,2|10|8,1:2|0:0|3:2,0:0:0:0:
438,118,50075,1,2,0:0:0:0:
352,91,50401,1,2,0:0:0:0:
278,142,50727,2,0,L|188:150,2,90,6|2|2,1:2|1:2|0:0,0:0:0:0:
352,91,51705,2,0,B|369:133|369:133|360:176,1,90,10|2,0:0|1:2,0:0:0:0:
288,231,52358,1,2,1:2:0:0:
370,267,52684,6,0,P|436:258|495:288,2,135,6|8|10,1:2|0:0|0:0,0:0:0:0:
297,319,53988,1,0,1:0:0:0:
214,285,54314,1,2,0:0:0:0:
146,226,54640,2,0,L|136:136,1,90,2|0,1:2|1:0,0:0:0:0:
47,122,55292,2,0,L|56:211,1,90,8|8,0:0|0:3,0:0:0:0:
20,294,55944,1,6,0:0:0:0:
98,339,56271,1,6,0:0:0:0:
182,308,56597,6,0,B|261:316|227:337|308:352,2,135,6|10|8,1:2|0:0|3:2,0:0:0:0:
146,226,57901,1,2,1:2:0:0:
172,140,58227,1,2,0:0:0:0:
220,64,58553,2,0,P|156:50|101:86,2,135,6|8|10,1:2|0:0|0:0,0:0:0:0:
302,102,59858,1,2,1:2:0:0:
380,57,60184,1,2,1:2:0:0:
460,99,60510,2,0,B|483:156|483:156|470:228,2,135,6|10|8,1:2|0:0|3:2,0:0:0:0:
380,57,61814,1,2,1:2:0:0:
382,147,62140,1,10,0:0:0:0:
302,102,62466,6,0,P|214:84|127:102,1,180,6|2,1:2|0:0,0:0:0:0:
49,147,63444,1,2,1:2:0:0:
120,203,63771,2,0,L|113:292,1,90,2|8,1:2|1:3,0:0:0:0:
197,324,64423,2,0,L|205:234,1,90,4|0,0:0|1:0,0:0:0:0:
274,177,65075,1,2,0:0:0:0:
322,253,65401,2,0,B|432:266|373:293|491:309,1,180,14|2,0:0|1:2,0:0:0:0:
510,221,66379,2,0,P|523:179|511:136,1,90,6|10,0:0|0:0,0:0:0:0:
503,46,67031,1,2,0:0:0:0:
426,93,67358,6,0,P|414:135|426:178,1,90,12|2,0:0|0:0,0:0:0:0:
378,254,68010,1,0,1:0:0:0:
298,212,68336,2,0,L|208:224,2,90,14|2|2,0:0|1:2|0:0,0:0:0:0:
302,122,69314,2,0,L|213:135,2,90,6|8|2,1:2|0:0|0:0,0:0:0:0:
382,164,70292,2,0,P|395:121|382:78,1,90,12|2,0:0|1:2,0:0:0:0:
314,20,70944,1,2,1:2:0:0:
227,45,71271,6,0,L|138:56,1,90,4|2,0:0|1:2,0:0:0:0:
53,26,71923,1,0,1:0:0:0:
11,106,72249,2,0,B|-19:147|-19:147|-1:229,2,135,14|8|6,0:0|0:0|0:0,0:0:0:0:
53,26,73553,1,0,1:0:0:0:
138,56,73879,1,2,0:0:0:0:
182,134,74205,6,0,L|272:122,1,90,6|2,0:0|1:2,0:0:0:0:
342,66,74858,1,2,1:2:0:0:
386,144,75184,2,0,P|395:187|381:229,1,90,6|2,0:0|0:0,0:0:0:0:
373,319,75836,1,2,0:0:0:0:
284,308,76162,6,0,B|205:324|245:337|159:356,2,135,2|0|2,0:0|0:0|0:0,0:0:0:0:
373,319,77466,1,2,0:0:0:0:
453,361,77792,1,2,0:0:0:0:
496,282,78118,2,0,P|508:238|495:196,1,90,2|2,0:0|0:0,0:0:0:0:
417,152,78770,2,0,P|405:110|416:67,1,90,2|0,0:0|0:0,0:0:0:0:
335,27,79422,6,0,L|246:18,2,90,2|0|2,0:0|0:0|0:0,0:0:0:0:
308,113,80400,2,0,L|219:104,2,90,2|0|2,0:0|0:0|0:0,0:0:0:0:
282,199,81378,2,0,B|208:214|241:230|154:241,2,135,2|2|2,1:2|1:2|0:0,0:0:0:0:
365,233,82682,1,2,0:0:0:0:
447,197,83008,1,2,0:0:0:0:
454,107,83334,2,0,B|410:95|410:95|367:109,1,90,2|0,0:0|0:0,0:0:0:0:
285,73,83986,2,0,B|242:87|242:87|198:75,1,90,2|0,0:0|0:0,0:0:0:0:
110,90,84638,6,0,L|101:0,2,90,2|0|2,0:0|0:0|0:0,0:0:0:0:
80,175,85616,1,2,0:0:0:0:
123,255,85942,1,2,0:0:0:0:
212,253,86268,1,2,0:0:0:0:
254,173,86594,1,2,0:0:0:0:
