osu file format v14

[General]
AudioFilename: audio.mp3
AudioLeadIn: 0
PreviewTime: 49278
Countdown: 0
SampleSet: Soft
StackLeniency: 0.7
Mode: 0
LetterboxInBreaks: 0
WidescreenStoryboard: 0

[Editor]
DistanceSpacing: 1.2
BeatDivisor: 4
GridSize: 8
TimelineZoom: 2

[Metadata]
Title:Elemental World (TV Size)
TitleUnicode:Elemental World (TVサイズ)
Artist:ChouCho
ArtistUnicode:ChouCho
Creator:Kocari
Version:xChippy's Hard
Source:政宗くんのリベンジ
Tags:Masamune-kun's Revenge Ending Anime Battle Kibbleru xChippy
BeatmapID:1176282
BeatmapSetID:554978

[Difficulty]
HPDrainRate:6
CircleSize:4
OverallDifficulty:6
ApproachRate:7
SliderMultiplier:1.5
SliderTickRate:1

[Events]
//Background and Video events
0,0,"BG.jpg",0,0
Video,0,"optc.flv"
//Break Periods
//Storyboard Layer 0 (Background)
//Storyboard Layer 1 (Fail)
//Storyboard Layer 2 (Pass)
//Storyboard Layer 3 (Foreground)
//Storyboard Sound Samples

[TimingPoints]
763,468.75,4,2,1,70,1,0
13654,-125,4,2,1,70,0,0
15763,-111.111111111111,4,2,1,50,0,0
30763,-100,4,2,1,60,0,0
49513,-90.9090909090909,4,2,1,70,0,1
63341,-90.9090909090909,4,2,1,70,0,0
64513,-90.9090909090909,4,2,1,70,0,1
87013,-111.111111111111,4,2,1,70,0,0

[Colours]
Combo1 : 140,140,255
Combo2 : 255,113,113
Combo3 : 255,137,81
Combo4 : 255,255,0

[HitObjects]
31,83,763,6,0,B|93:75|93:75|116:83|116:83|186:75,1,150,12|10,0:0|0:0,0:0:0:0:
240,143,1466,2,0,L|233:218,1,75,0|8,0:0|0:0,0:0:0:0:
155,264,1935,2,0,L|145:189,1,75,2|8,0:0|0:0,0:0:0:0:
240,143,2404,1,0,0:0:0:0:
302,269,2638,5,8,0:0:0:0:
302,269,3107,1,10,0:0:0:0:
385,236,3341,2,0,P|423:239|459:268,1,75,2|8,0:0|0:0,0:0:0:0:
430,347,3810,2,0,P|393:344|358:318,1,75,2|8,0:0|0:0,0:0:0:0:
256,254,4279,5,2,0:0:0:0:
256,254,4396,1,0,0:0:0:0:
256,254,4513,2,0,B|232:176|280:192|256:98,1,150,8|10,0:0|0:0,0:0:0:0:
178,150,5216,2,0,P|104:161|43:105,1,150,2|0,0:0|0:0,0:0:0:0:
128,74,5919,2,0,B|161:64|161:64|218:60,1,75,8|0,0:0|0:0,0:0:0:0:
343,101,6388,5,0,0:0:0:0:
255,120,6622,1,2,0:0:0:0:
281,34,6857,1,10,0:0:0:0:
318,191,7091,2,0,B|263:207|263:207|162:191,1,150,2|2,0:0|0:0,0:0:0:0:
82,211,7794,1,4,0:3:0:0:
141,288,8029,5,8,0:3:0:0:
141,288,8146,1,0,0:0:0:0:
141,288,8263,2,0,B|123:189|123:189|137:125,1,150,4|10,0:0|0:0,0:0:0:0:
195,77,8966,2,0,B|222:71|222:71|295:80,1,75,0|8,0:0|0:0,0:0:0:0:
298,162,9435,2,0,B|270:167|270:167|197:158,1,75,2|8,0:0|0:0,0:0:0:0:
360,96,9904,1,0,0:0:0:0:
387,238,10138,5,8,0:0:0:0:
387,238,10607,1,10,0:0:0:0:
324,302,10841,2,0,P|285:302|246:278,1,75,2|8,0:0|0:0,0:0:0:0:
234,197,11310,2,0,P|272:197|311:220,1,75,2|8,0:0|0:0,0:0:0:0:
162,261,11779,5,2,0:0:0:0:
162,261,11896,1,0,0:0:0:0:
162,261,12013,2,0,B|147:215|147:215|162:106,1,150,8|10,0:0|0:0,0:0:0:0:
206,37,12716,2,0,P|296:29|334:75,1,150,2|0,0:0|0:0,0:0:0:0:
348,182,13419,5,4,0:3:0:0:
348,182,13536,1,0,0:0:0:0:
348,182,13654,2,0,B|322:190|302:183|302:183|323:249|257:297|190:252|209:185|209:185|185:193|149:182,1,300,4|0,0:3|0:0,0:0:0:0:
96,144,15059,1,0,0:0:0:0:
88,224,15294,1,0,0:0:0:0:
22,177,15529,1,0,0:0:0:0:
126,103,15763,6,0,B|147:97|147:97|210:106,1,67.4999979400635,4|0,0:0|0:0,0:0:0:0:
206,100,16115,1,0,0:0:0:0:
221,94,16232,1,10,0:0:0:0:
280,45,16466,1,0,0:0:0:0:
355,75,16701,1,8,0:0:0:0:
351,156,16935,2,0,P|387:155|420:138,1,67.4999979400635,0|10,0:0|0:0,0:0:0:0:
274,165,17403,6,0,B|264:191|264:191|273:246,1,67.4999979400635,0|8,0:0|0:0,0:0:0:0:
361,317,17872,2,0,B|362:288|362:288|340:237,1,67.4999979400635,0|10,0:0|0:0,0:0:0:0:
215,283,18341,2,0,B|212:310|212:310|234:361,1,67.4999979400635,0|8,0:0|0:0,0:0:0:0:
270,230,18810,1,0,0:0:0:0:
139,254,19044,1,10,0:0:0:0:
139,254,19513,5,8,0:0:0:0:
215,283,19747,1,0,0:0:0:0:
215,283,19865,1,0,0:0:0:0:
215,283,19982,1,10,0:0:0:0:
197,203,20216,2,0,B|193:174|193:174|197:136,1,67.4999979400635,0|8,0:0|0:0,0:0:0:0:
316,73,20685,2,0,B|320:102|320:102|317:141,1,67.4999979400635,0|10,0:0|0:0,0:0:0:0:
317,141,21154,1,0,0:0:0:0:
236,50,21388,5,8,0:0:0:0:
191,116,21622,1,0,0:0:0:0:
112,135,21857,1,10,0:0:0:0:
31,118,22091,2,0,L|23:79,2,33.7499989700318,0|0|0,0:0|0:0|0:0,0:0:0:0:
112,135,22560,1,0,0:0:0:0:
54,192,22794,1,10,0:0:0:0:
54,192,23263,5,8,0:0:0:0:
98,259,23497,1,0,0:0:0:0:
98,259,23615,1,0,0:0:0:0:
98,259,23732,1,10,0:0:0:0:
155,201,23966,2,0,P|192:197|231:212,1,67.4999979400635,0|8,0:0|0:0,0:0:0:0:
247,282,24435,2,0,P|209:285|170:270,1,67.4999979400635,0|10,0:0|0:0,0:0:0:0:
181,277,24904,1,0,0:0:0:0:
312,232,25138,5,8,0:0:0:0:
352,302,25372,1,0,0:0:0:0:
431,317,25607,1,10,0:0:0:0:
497,270,25841,2,0,L|504:196,1,67.4999979400635,0|8,0:0|0:0,0:0:0:0:
425,182,26310,2,0,L|418:109,1,67.4999979400635,0|10,0:0|0:0,0:0:0:0:
272,136,26779,5,0,0:0:0:0:
272,136,26896,1,0,0:0:0:0:
272,136,27013,1,10,0:0:0:0:
349,169,27247,1,0,0:0:0:0:
343,87,27482,1,10,0:0:0:0:
280,217,27716,2,0,P|210:190|191:127,2,134.999995880127,0|2|0,0:0|0:0|1:2,0:0:0:0:
343,87,28888,5,10,0:3:0:0:
418,207,29122,1,8,0:3:0:0:
271,284,29357,2,0,L|280:217,1,67.4999979400635,10|8,0:0|0:3,0:0:0:0:
418,207,29826,2,0,L|412:275,1,67.4999979400635,4|4,0:3|0:3,0:0:0:0:
339,136,30294,2,0,L|342:103,3,33.7499989700318,10|2|0|2,0:0|0:0|0:0|0:0,0:0:0:0:
343,87,30763,6,0,P|280:125|211:94,1,150,12|10,0:0|0:0,0:0:0:0:
139,48,31466,1,0,3:2:0:0:
139,48,31583,1,0,3:2:0:0:
139,48,31700,2,0,L|40:68,1,75,8|0,0:0|0:0,0:0:0:0:
49,151,32169,2,0,L|147:130,1,75,10|0,0:0|0:0,0:0:0:0:
230,183,32638,6,0,L|195:14,1,150,8|10,0:0|0:0,0:0:0:0:
289,45,33341,1,0,0:0:0:0:
331,124,33576,2,0,B|358:130|358:130|414:126,1,75,8|0,0:0|0:0,0:0:0:0:
464,208,34044,2,0,B|436:201|436:201|380:206,1,75,10|0,0:0|0:0,0:0:0:0:
378,219,34396,1,0,3:2:0:0:
365,232,34513,6,0,P|309:190|331:124,1,150,8|10,0:0|0:0,0:0:0:0:
254,76,35216,2,0,L|160:83,1,75,0|8,3:2|0:0,0:0:0:0:
134,160,35685,2,0,L|209:154,1,75,0|10,0:0|0:0,0:0:0:0:
209,154,36154,1,0,0:0:0:0:
77,98,36388,5,8,0:0:0:0:
62,218,36622,1,0,0:0:0:0:
11,149,36857,1,10,0:0:0:0:
134,160,37091,2,0,L|291:147,1,150,2|0,0:0|0:0,0:0:0:0:
346,210,37794,2,0,B|331:241|331:241|345:318,1,112.5,10|0,0:0|3:2,0:0:0:0:
345,318,38263,6,0,P|298:302|228:362,1,150,8|10,0:0|0:0,0:0:0:0:
164,299,38966,1,0,3:2:0:0:
164,299,39083,1,0,3:2:0:0:
164,299,39201,2,0,L|171:205,1,75,8|0,0:0|0:0,0:0:0:0:
178,134,39669,1,10,0:0:0:0:
98,177,39904,1,0,0:0:0:0:
250,255,40138,6,0,L|263:88,2,150,8|10|8,0:0|0:0|0:0,0:0:0:0:
372,118,41544,2,0,B|402:113|402:113|484:124,1,112.5,10|0,0:0|0:0,0:0:0:0:
484,124,42013,6,0,P|438:180|454:250,1,150,8|10,0:0|0:0,0:0:0:0:
390,314,42716,1,8,3:2:0:0:
390,314,42833,1,0,3:2:0:0:
390,314,42951,2,0,L|304:306,1,75,0|8,0:0|0:0,0:0:0:0:
227,286,43419,2,0,L|176:290,2,37.5,10|0|0,0:0|3:2|3:2,0:0:0:0:
291,220,43888,6,0,B|268:135|307:158|288:72,1,150,8|8,0:0|0:0,0:0:0:0:
204,36,44591,1,2,0:0:0:0:
140,99,44826,2,0,L|90:92,2,37.5,10|0|0,0:0|3:2|0:0,0:0:0:0:
204,36,45294,1,10,0:0:0:0:
192,168,45529,1,0,3:2:0:0:
288,72,45763,5,0,0:0:0:0:
256,192,45880,12,4,47638,0:1:0:0:
96,56,49513,5,12,0:0:0:0:
115,152,49747,1,0,0:0:0:0:
21,119,49982,1,0,1:2:0:0:
192,88,50216,2,0,B|225:83|225:83|296:96,1,82.5000025177003,2|8,0:0|0:0,0:0:0:0:
289,97,50568,1,0,0:0:0:0:
304,105,50685,2,0,L|296:8,1,82.5000025177003,2|0,0:0|1:2,0:0:0:0:
400,64,51154,6,0,L|393:146,1,82.5000025177003,2|8,0:0|0:0,0:0:0:0:
299,192,51622,2,0,B|261:197|261:197|212:184,1,82.5000025177003,0|0,0:0|1:2,0:0:0:0:
144,272,52091,2,0,B|182:267|182:267|224:278,1,82.5000025177003,2|8,0:0|0:0,0:0:0:0:
128,176,52560,1,0,3:2:0:0:
58,245,52794,1,2,1:2:0:0:
40,160,53029,5,2,0:0:0:0:
40,160,53146,1,0,0:0:0:0:
40,160,53263,1,8,0:0:0:0:
128,176,53497,2,0,B|134:142|134:142|120:80,1,82.5000025177003,0|2,0:0|1:2,0:0:0:0:
214,38,53966,2,0,B|207:71|207:71|218:118,1,82.5000025177003,2|8,0:0|0:0,0:0:0:0:
226,134,54318,1,0,3:2:0:0:
235,148,54435,2,0,P|277:132|323:140,1,82.5000025177003,0|2,3:2|1:2,0:0:0:0:
385,215,54904,6,0,P|342:170|384:86,1,165.000005035401,2|0,0:0|0:0,0:0:0:0:
447,13,55607,2,0,L|350:-2,1,82.5000025177003,2|0,1:2|0:0,0:0:0:0:
281,54,56076,1,10,0:0:0:0:
192,98,56310,2,0,B|178:59|178:59|188:11,2,82.5000025177003,0|0|4,3:2|1:2|0:3,0:0:0:0:
281,141,57013,6,0,L|107:160,1,165.000005035401,12|2,0:0|1:2,0:0:0:0:
57,238,57716,1,0,3:2:0:0:
149,278,57951,2,0,B|165:315|165:315|157:362,2,82.5000025177003,10|0|2,0:0|0:0|1:2,0:0:0:0:
57,238,58654,5,2,0:0:0:0:
57,238,58888,2,0,B|41:201|41:201|49:154,1,82.5000025177003,8|0,0:0|0:0,0:0:0:0:
141,185,59357,1,2,1:2:0:0:
149,278,59591,2,0,B|200:264|200:264|320:280,1,165.000005035401,2|0,0:0|3:2,0:0:0:0:
381,208,60294,1,2,1:2:0:0:
374,352,60529,5,0,3:2:0:0:
374,352,60646,1,0,3:2:0:0:
374,352,60763,2,0,P|411:281|381:208,1,165.000005035401,8|2,0:0|1:2,0:0:0:0:
288,171,61466,2,0,P|201:177|109:184,1,165.000005035401,2|2,0:0|0:0,0:0:0:0:
28,211,62169,1,0,1:2:0:0:
28,211,62286,1,0,0:0:0:0:
28,211,62404,1,0,3:2:0:0:
4,114,62638,5,10,0:0:0:0:
85,58,62872,2,0,P|126:54|167:52,1,82.5000025177003,2|2,0:0|1:2,0:0:0:0:
258,13,63341,2,0,B|260:79|260:79|268:97|268:97|272:184,1,165.000005035401,0|10,3:2|0:0,0:0:0:0:
208,240,64044,1,10,0:0:0:0:
175,157,64279,5,10,0:0:0:0:
175,157,64396,1,8,0:0:0:0:
175,157,64513,1,12,0:0:0:0:
271,176,64747,1,0,0:0:0:0:
234,85,64982,1,2,1:2:0:0:
208,240,65216,2,0,B|200:275|200:275|216:344,1,82.5000025177003,2|8,0:0|0:0,0:0:0:0:
218,335,65568,1,0,0:0:0:0:
228,348,65685,2,0,B|297:340|297:340|326:348,1,82.5000025177003,2|2,0:0|1:2,0:0:0:0:
379,273,66154,6,0,P|380:221|360:176,1,82.5000025177003,2|8,0:0|0:0,0:0:0:0:
277,158,66622,2,0,B|276:202|276:202|296:255,1,82.5000025177003,0|2,0:0|1:2,0:0:0:0:
456,216,67091,2,0,B|457:172|457:172|437:119,1,82.5000025177003,2|10,0:0|0:0,0:0:0:0:
351,97,67560,1,0,3:2:0:0:
370,192,67794,1,2,1:2:0:0:
277,158,68029,5,2,0:0:0:0:
277,158,68146,1,0,0:0:0:0:
277,158,68263,1,8,0:0:0:0:
207,227,68497,2,0,P|176:240|112:232,1,82.5000025177003,2|0,0:0|1:2,0:0:0:0:
41,188,68966,2,0,L|49:100,1,82.5000025177003,2|8,3:2|0:0,0:0:0:0:
60,93,69318,1,0,0:0:0:0:
72,80,69435,2,0,B|104:96|104:96|160:88,1,82.5000025177003,2|0,0:0|1:2,0:0:0:0:
248,120,69904,6,0,P|192:112|216:24,1,165.000005035401,2|2,0:0|0:0,0:0:0:0:
320,56,70607,1,0,1:2:0:0:
346,196,70841,2,0,B|248:176|280:224|184:200,1,165.000005035401,2|0,0:0|3:2,0:0:0:0:
88,178,71544,1,0,1:2:0:0:
119,271,71779,1,4,0:3:0:0:
217,271,72013,6,0,P|260:218|210:128,1,165.000005035401,10|2,0:0|1:2,0:0:0:0:
136,86,72716,2,0,L|53:91,1,82.5000025177003,0|8,3:2|0:0,0:0:0:0:
5,183,73185,2,0,L|88:178,1,82.5000025177003,2|0,0:0|1:2,0:0:0:0:
232,200,73654,5,2,0:0:0:0:
232,200,73771,1,0,0:0:0:0:
232,200,73888,2,0,B|244:232|244:232|235:286,1,82.5000025177003,8|0,0:0|0:0,0:0:0:0:
143,244,74357,1,2,1:2:0:0:
173,337,74591,2,0,P|221:361|317:305,1,165.000005035401,2|0,0:0|0:0,0:0:0:0:
338,218,75294,1,2,1:2:0:0:
256,144,75529,5,0,3:2:0:0:
256,144,75646,1,0,3:2:0:0:
256,144,75763,2,0,B|192:136|192:136|88:160,1,165.000005035401,8|2,0:0|1:2,0:0:0:0:
23,228,76466,2,0,P|65:187|33:94,1,165.000005035401,0|2,0:0|0:0,0:0:0:0:
119,42,77169,2,0,L|169:37,2,41.2500012588501,2|0|0,1:2|0:0|3:2,0:0:0:0:
35,95,77638,5,8,0:0:0:0:
256,64,78107,1,2,1:2:0:0:
336,120,78341,2,0,P|352:160|352:208,1,82.5000025177003,0|10,3:2|0:0,0:0:0:0:
224,248,78810,2,0,P|208:208|208:160,1,82.5000025177003,8|8,0:3|1:2,0:0:0:0:
256,64,79279,6,0,L|440:72,1,165.000005035401,4|0,0:0|0:0,0:0:0:0:
491,141,79982,1,2,1:2:0:0:
395,166,80216,2,0,P|347:194|368:304,1,165.000005035401,0|0,3:2|0:0,0:0:0:0:
423,362,80919,2,0,L|510:353,1,82.5000025177003,2|0,1:2|0:0,0:0:0:0:
272,336,81388,6,0,B|152:328|152:328|96:344,1,165.000005035401,8|2,0:0|1:2,0:0:0:0:
16,303,82091,1,2,0:0:0:0:
40,208,82326,1,10,0:0:0:0:
130,240,82560,2,0,B|139:204|139:204|126:138,1,82.5000025177003,0|2,3:2|1:2,0:0:0:0:
0,104,83029,6,0,L|174:122,1,165.000005035401,0|0,3:2|3:2,0:0:0:0:
256,72,83732,1,2,1:2:0:0:
208,208,83966,2,0,B|202:249|202:249|212:290,1,82.5000025177003,0|8,3:2|0:0,0:0:0:0:
376,280,84435,2,0,B|382:239|382:239|371:197,1,82.5000025177003,0|2,3:2|1:2,0:0:0:0:
280,120,84904,5,0,3:2:0:0:
280,120,85021,1,0,3:2:0:0:
280,120,85138,1,12,0:0:0:0:
256,192,85255,12,2,87013,0:0:0:0:
