osu file format v14

[General]
AudioFilename: audio.mp3
AudioLeadIn: 0
PreviewTime: 49278
Countdown: 0
SampleSet: Soft
StackLeniency: 0.7
Mode: 0
LetterboxInBreaks: 0
WidescreenStoryboard: 0

[Editor]
DistanceSpacing: 0.7
BeatDivisor: 4
GridSize: 4
TimelineZoom: 1.4

[Metadata]
Title:Elemental World (TV Size)
TitleUnicode:Elemental World (TVサイズ)
Artist:ChouCho
ArtistUnicode:ChouCho
Creator:Kocari
Version:Kibb's Insane
Source:政宗くんのリベンジ
Tags:Masamune-kun's Revenge Ending Anime Battle Kibbleru xChippy
BeatmapID:1175941
BeatmapSetID:554978

[Difficulty]
HPDrainRate:6
CircleSize:4
OverallDifficulty:7
ApproachRate:8
SliderMultiplier:1.7
SliderTickRate:1

[Events]
//Background and Video events
0,0,"BG.jpg",0,0
Video,0,"optc.flv"
//Break Periods
//Storyboard Layer 0 (Background)
//Storyboard Layer 1 (Fail)
//Storyboard Layer 2 (Pass)
//Storyboard Layer 3 (Foreground)
//Storyboard Sound Samples

[TimingPoints]
763,468.75,4,2,1,70,1,0
15763,-142.857142857143,4,2,1,50,0,0
30294,-90.9090909090909,4,2,1,50,0,0
30763,-111.111111111111,4,2,1,60,0,0
45763,-200,4,2,1,60,0,0
47638,-100,4,2,1,60,0,0
49513,-100,4,2,1,70,0,1
63341,-80,4,2,1,70,0,0
64513,-100,4,2,1,70,0,1
83263,-80,4,2,1,70,0,1
85138,-80,4,2,1,70,0,0
87013,-111.111111111111,4,2,1,70,0,0

[Colours]
Combo1 : 140,140,255
Combo2 : 255,113,113
Combo3 : 255,137,81
Combo4 : 255,255,0

[HitObjects]
0,298,763,6,0,P|83:284|167:268,1,170,12|8,0:0|0:0,0:0:0:0:
268,233,1466,2,0,P|259:274|251:316,1,85,0|8,0:0|0:0,0:0:0:0:
452,180,1935,2,0,P|460:138|468:96,1,85,0|10,0:0|0:0,0:0:0:0:
339,126,2404,6,0,P|351:209|370:292,1,170
236,206,3107,1,10,0:0:0:0:
407,369,3341,2,0,P|342:316|259:323,1,170,0|0,0:0|0:0,0:0:0:0:
124,153,4044,1,10,0:0:0:0:
105,258,4279,1,0,0:0:0:0:
105,258,4396,1,0,0:0:0:0:
105,258,4513,6,0,P|146:250|188:241,1,85,8|0,0:0|0:0,0:0:0:0:
256,145,4982,1,10,0:0:0:0:
369,289,5216,1,0,0:0:0:0:
369,289,5333,1,0,0:0:0:0:
369,289,5451,1,8,0:0:0:0:
371,184,5685,2,0,P|378:142|387:100,1,85,0|10,0:0|0:0,0:0:0:0:
267,54,6154,6,0,P|256:116|246:179,1,127.5,0|0,0:0|0:0,0:0:0:0:
252,211,6622,2,0,P|217:187|175:180,1,85,0|10,0:0|0:0,0:0:0:0:
49,319,7091,2,0,P|108:336|165:310,1,127.5,0|0,0:0|0:0,0:0:0:0:
178,292,7560,1,2,0:0:0:0:
22,166,7794,1,4,0:3:0:0:
224,94,8029,1,8,0:3:0:0:
129,43,8263,6,0,P|122:107|116:170,1,127.5,8|0,0:0|0:0,0:0:0:0:
114,191,8732,1,10,0:0:0:0:
329,113,8966,1,0,0:0:0:0:
329,113,9083,1,0,0:0:0:0:
329,113,9200,1,0,0:0:0:0:
226,280,9434,2,8,P|219:322|213:364,1,85,2|10,0:0|0:0,0:0:0:0:
358,209,9904,6,0,B|283:228|276:164|194:184,1,170
88,239,10607,1,10,0:0:0:0:
3,124,10841,2,0,P|56:61|138:62,1,170
194,184,11544,2,0,P|186:225|178:267,1,85,10|0,0:0|0:0,0:0:0:0:
178,267,11896,1,0,0:0:0:0:
178,267,12013,6,0,P|262:254|346:241,1,170,8|10,0:0|0:0,0:0:0:0:
403,145,12716,2,0,P|361:136|320:126,1,85,0|10,0:0|0:0,0:0:0:0:
348,344,13184,2,0,P|389:352|430:362,1,85,0|4,0:0|0:3,0:0:0:0:
255,234,13654,1,4,0:3:0:0:
256,192,13770,12,0,15294,0:0:0:0:
255,234,15763,6,0,P|249:263|245:292,1,59.4999981842042,8|0,0:0|0:0,0:0:0:0:
205,144,16231,2,0,P|182:124|159:106,1,59.4999981842042,10|0,0:0|0:0,0:0:0:0:
311,142,16700,2,0,P|339:132|366:121,2,59.4999981842042,8|0|10,0:0|0:0|0:0,0:0:0:0:
239,238,17404,6,0,P|209:232|180:227,1,59.4999981842042,0|8,0:0|0:0,0:0:0:0:
124,307,17872,1,0,0:0:0:0:
46,212,18106,2,0,P|42:241|39:271,1,59.4999981842042,10|0,0:0|0:0,0:0:0:0:
194,148,18576,2,0,P|197:118|200:88,1,59.4999981842042,8|0,0:0|0:0,0:0:0:0:
83,18,19044,2,0,P|92:76|98:135,1,118.999996368408,10|12,0:0|0:3,0:0:0:0:
60,258,19747,6,0,P|88:249|117:241,1,59.4999981842042,0|10,0:0|0:0,0:0:0:0:
208,258,20216,2,0,P|252:218|263:161,1,118.999996368408,0|0,0:0|0:0,0:0:0:0:
203,89,20919,1,10,0:0:0:0:
393,41,21154,1,0,0:0:0:0:
301,5,21388,6,0,L|295:64,1,59.4999981842042,8|0,0:0|0:0,0:0:0:0:
376,142,21857,1,10,0:0:0:0:
376,142,22091,2,0,P|434:131|493:123,1,118.999996368408,0|0,0:0|0:0,0:0:0:0:
508,221,22794,2,0,P|449:231|390:239,1,118.999996368408,10|8,0:0|0:0,0:0:0:0:
273,272,23497,6,0,L|294:196,1,59.4999981842042,0|10,0:0|0:0,0:0:0:0:
185,95,23966,2,0,P|166:150|182:207,1,118.999996368408,0|0,0:0|0:0,0:0:0:0:
111,278,24669,2,0,L|99:357,1,59.4999981842042,10|0,0:0|0:0,0:0:0:0:
203,320,25138,5,8,0:0:0:0:
12,290,25372,1,0,0:0:0:0:
124,151,25607,1,10,0:0:0:0:
187,223,25841,2,0,P|133:248|77:232,1,118.999996368408,0|0,0:0|0:0,0:0:0:0:
117,91,26544,2,0,L|123:150,1,59.4999981842042,10|0,0:0|0:0,0:0:0:0:
256,165,27013,6,0,P|248:106|241:46,1,118.999996368408,8|10,0:0|0:0,0:0:0:0:
354,72,27716,2,0,P|361:130|368:190,1,118.999996368408,0|0,0:0|0:0,0:0:0:0:
308,264,28419,1,10,0:0:0:0:
156,182,28654,1,0,1:2:0:0:
242,127,28888,5,10,0:3:0:0:
65,229,29122,1,8,0:3:0:0:
150,280,29356,1,10,0:0:0:0:
156,182,29591,1,8,0:3:0:0:
152,80,29826,6,0,P|151:50|148:20,1,59.4999981842042,4|4,0:3|0:3,0:0:0:0:
301,66,30294,2,0,P|281:133|277:202,1,140.25000428009,10|0,0:0|0:0,0:0:0:0:
316,230,30763,6,0,B|248:210|236:269|169:253,1,152.999995330811,8|10,0:0|0:0,0:0:0:0:
294,324,31466,1,0,3:2:0:0:
294,324,31583,1,0,3:2:0:0:
294,324,31700,2,0,L|304:376,2,38.2499988327027,8|0|0,0:0|0:0|0:0,0:0:0:0:
187,156,32169,2,0,P|188:117|197:80,1,76.4999976654053,10|0,0:0|0:0,0:0:0:0:
396,154,32638,6,0,P|354:214|278:223,1,152.999995330811,8|10,0:0|0:0,0:0:0:0:
298,129,33341,1,0,0:0:0:0:
441,266,33575,2,0,P|431:303|426:340,1,76.4999976654053,8|0,0:0|0:0,0:0:0:0:
193,264,34044,2,0,P|188:226|178:189,1,76.4999976654053,10|0,0:0|0:0,0:0:0:0:
178,189,34396,1,0,3:2:0:0:
178,189,34513,5,8,0:0:0:0:
82,95,34747,2,0,P|119:88|157:82,1,76.4999976654053,0|10,0:0|0:0,0:0:0:0:
81,245,35216,1,0,3:2:0:0:
81,245,35333,1,0,3:2:0:0:
81,245,35451,2,0,L|22:236,2,38.2499988327027,8|0|0,0:0|0:0|0:0,0:0:0:0:
211,352,35919,2,0,P|200:315|193:277,1,76.4999976654053,10|0,0:0|0:0,0:0:0:0:
301,142,36388,5,8,0:0:0:0:
286,241,36622,1,0,0:0:0:0:
204,175,36857,1,10,0:0:0:0:
386,210,37091,2,0,P|460:212|513:159,1,152.999995330811,2|0,0:0|0:0,0:0:0:0:
436,28,37794,2,0,P|426:65|421:102,1,76.4999976654053,10|0,0:0|0:0,0:0:0:0:
421,102,38146,1,0,3:2:0:0:
421,102,38263,6,0,B|353:78|343:136|272:111,1,152.999995330811,8|10,0:0|0:0,0:0:0:0:
167,155,38966,1,0,3:2:0:0:
167,155,39083,1,0,3:2:0:0:
167,155,39200,2,0,P|162:136|156:118,2,38.2499988327027,8|0|0,0:0|0:0|0:0,0:0:0:0:
243,238,39669,1,10,0:0:0:0:
75,196,39904,1,0,0:0:0:0:
44,352,40138,6,0,P|91:320|147:318,1,114.749996498108,8|0,0:0|0:0,0:0:0:0:
165,336,40607,2,0,P|155:298|147:261,1,76.4999976654053,10|0,0:0|0:0,0:0:0:0:
321,161,41076,2,0,P|293:187|265:213,1,76.4999976654053,8|0,0:0|0:0,0:0:0:0:
84,120,41544,2,0,P|120:130|157:141,1,76.4999976654053,10|0,0:0|0:0,0:0:0:0:
308,307,42013,6,0,P|234:318|173:274,1,152.999995330811,8|10,0:0|0:0,0:0:0:0:
360,168,42716,1,8,3:2:0:0:
360,168,42833,1,0,3:2:0:0:
360,168,42951,2,0,P|364:186|367:205,2,38.2499988327027,0|0|8,0:0|0:0|0:0,0:0:0:0:
228,97,43419,2,0,P|223:78|220:59,2,38.2499988327027,10|0|0,0:0|3:2|3:2,0:0:0:0:
257,210,43888,5,8,0:0:0:0:
66,175,44122,1,0,3:2:0:0:
66,175,44240,1,2,3:2:0:0:
66,175,44357,1,8,0:0:0:0:
210,22,44591,1,2,0:0:0:0:
252,116,44826,5,10,0:0:0:0:
215,126,44943,1,0,3:2:0:0:
177,121,45059,1,0,3:2:0:0:
144,102,45177,1,0,3:2:0:0:
122,71,45294,2,0,P|120:90|117:109,2,38.2499988327027,10|0|0,0:0|3:2|3:2,0:0:0:0:
147,310,45763,6,0,P|150:267|156:225,1,85,0|2,0:0|0:0,0:0:0:0:
263,279,46466,1,0,0:0:0:0:
273,194,46701,2,0,P|269:236|263:278,1,85,8|0,0:0|0:0,0:0:0:0:
135,127,47638,6,0,B|217:146|215:80|298:98,1,170,4|0,0:1|0:0,0:0:0:0:
318,119,48810,1,0,0:0:0:0:
318,119,49044,2,0,L|303:248,1,127.5,0|0,0:0|0:0,0:0:0:0:
287,328,49513,5,12,0:0:0:0:
413,187,49747,1,0,0:0:0:0:
210,161,49982,1,0,1:2:0:0:
413,298,50216,2,0,P|455:290|497:283,1,85,2|8,0:0|0:0,0:0:0:0:
293,146,50684,2,0,P|251:153|209:160,1,85,2|0,0:0|1:2,0:0:0:0:
386,81,51154,6,0,P|331:142|341:224,1,170,2|0,0:0|0:0,0:0:0:0:
436,175,51857,1,0,1:2:0:0:
234,345,52091,2,0,P|229:303|222:261,1,85,2|8,0:0|0:0,0:0:0:0:
222,261,52443,1,0,3:2:0:0:
222,261,52560,1,0,3:2:0:0:
359,306,52794,1,2,1:2:0:0:
81,193,53029,6,0,B|159:211|167:147|243:165,1,170,2|0,0:0|0:0,0:0:0:0:
222,261,53732,1,2,1:2:0:0:
100,89,53966,2,0,P|103:46|119:7,1,85,2|10,0:0|0:0,0:0:0:0:
118,7,54318,1,0,3:2:0:0:
118,7,54435,1,2,3:2:0:0:
313,22,54669,1,2,1:2:0:0:
229,238,54904,6,0,L|211:68,1,170,2|0,0:0|0:0,0:0:0:0:
324,304,55607,1,2,1:2:0:0:
125,230,55841,1,0,0:0:0:0:
301,130,56076,1,10,0:0:0:0:
301,130,56193,1,0,3:2:0:0:
301,130,56310,1,0,3:2:0:0:
234,228,56544,1,0,1:2:0:0:
240,26,56779,1,4,0:3:0:0:
446,163,57013,6,0,P|381:112|301:130,1,170,12|2,0:0|1:2,0:0:0:0:
234,229,57716,1,0,3:2:0:0:
236,250,57833,1,0,3:2:0:0:
238,271,57951,1,10,0:0:0:0:
356,243,58185,1,0,0:0:0:0:
123,180,58419,1,2,1:2:0:0:
143,349,58654,6,0,P|134:264|123:180,1,170,2|0,0:0|0:0,0:0:0:0:
254,124,59357,1,2,1:2:0:0:
72,39,59591,2,0,P|113:46|155:52,1,85,2|10,0:0|0:0,0:0:0:0:
155,52,59943,1,0,3:2:0:0:
155,52,60060,1,0,3:2:0:0:
349,151,60294,1,2,1:2:0:0:
261,21,60529,1,0,3:2:0:0:
261,21,60646,1,0,3:2:0:0:
261,21,60763,6,0,B|280:94|230:110|248:188,1,170,10|2,0:0|1:2,0:0:0:0:
309,283,61466,2,0,P|244:230|160:237,1,170,2|2,0:0|0:0,0:0:0:0:
208,340,62169,1,0,1:2:0:0:
368,169,62404,1,0,3:2:0:0:
368,169,62520,1,0,3:2:0:0:
368,169,62638,6,0,L|458:146,1,85,10|2,0:0|0:0,0:0:0:0:
450,147,62990,1,0,3:2:0:0:
450,147,63106,1,2,1:2:0:0:
240,40,63341,1,0,3:2:0:0:
240,40,63458,1,0,3:2:0:0:
240,40,63575,6,0,P|233:65|229:92,1,53.125,10|0,0:0|0:0,0:0:0:0:
368,169,63810,2,0,P|374:194|378:221,1,53.125,10|0,0:0|0:0,0:0:0:0:
316,339,64044,1,10,0:0:0:0:
292,310,64161,1,8,0:0:0:0:
259,292,64278,1,10,0:0:0:0:
223,287,64396,1,8,0:0:0:0:
186,295,64513,5,12,0:0:0:0:
243,163,64747,1,0,0:0:0:0:
69,219,64982,1,2,1:2:0:0:
148,27,65216,2,0,P|143:69|139:111,1,85,2|8,0:0|0:0,0:0:0:0:
316,339,65684,2,0,P|320:296|324:254,1,85,2|2,0:0|1:2,0:0:0:0:
241,139,66153,6,0,P|194:207|112:216,1,170,2|0,0:0|0:0,0:0:0:0:
139,111,66857,1,2,1:2:0:0:
227,26,67091,2,0,L|330:35,1,85,2|10,0:0|0:0,0:0:0:0:
311,33,67443,1,0,3:2:0:0:
311,33,67560,1,0,3:2:0:0:
261,151,67794,1,2,1:2:0:0:
430,168,68028,6,0,L|227:147,1,170,2|2,0:0|0:0,0:0:0:0:
344,261,68732,1,0,1:2:0:0:
153,115,68966,1,2,3:2:0:0:
151,136,69083,1,0,3:2:0:0:
149,157,69200,1,8,0:0:0:0:
351,117,69434,2,0,P|368:78|371:36,1,85,2|0,0:0|1:2,0:0:0:0:
275,181,69904,6,0,P|350:144|437:177,1,170,2|2,0:0|0:0,0:0:0:0:
249,283,70607,1,0,1:2:0:0:
429,335,70841,2,0,P|389:358|339:359,1,85,2|8,0:0|0:0,0:0:0:0:
351,362,71193,1,0,3:2:0:0:
351,362,71310,1,0,3:2:0:0:
353,258,71544,1,0,1:2:0:0:
238,379,71779,1,4,0:3:0:0:
161,217,72013,6,0,L|244:200,1,85,10|0,0:0|0:0,0:0:0:0:
331,27,72482,2,0,L|247:43,1,85,2|0,1:2|3:2,0:0:0:0:
247,42,72833,1,0,3:2:0:0:
247,42,72951,1,8,0:0:0:0:
340,280,73184,2,0,P|359:219|354:181,1,85,2|0,0:0|1:2,0:0:0:0:
142,24,73654,6,0,P|100:96|112:179,1,170,2|0,0:0|0:0,0:0:0:0:
229,123,74357,1,2,1:2:0:0:
79,282,74591,2,0,B|154:307|167:241|243:269,1,170,2|0,0:0|0:0,0:0:0:0:
346,359,75294,1,2,1:2:0:0:
369,155,75528,1,0,3:2:0:0:
369,155,75646,1,0,3:2:0:0:
369,155,75763,6,0,L|353:249,1,85,10|0,0:0|0:0,0:0:0:0:
462,90,76232,1,2,1:2:0:0:
510,189,76466,1,0,0:0:0:0:
505,209,76583,1,0,0:0:0:0:
501,230,76701,5,10,0:0:0:0:
364,58,76935,1,2,0:0:0:0:
254,168,77169,2,0,L|243:235,1,42.5,2|0,1:2|0:0,0:0:0:0:
345,310,77404,2,0,L|351:268,1,42.5,0|0,3:2|3:2,0:0:0:0:
352,158,77638,5,10,0:0:0:0:
142,248,77872,1,8,0:0:0:0:
235,302,78107,1,2,1:2:0:0:
47,191,78341,1,0,3:2:0:0:
47,191,78458,1,0,3:2:0:0:
47,191,78576,1,10,0:0:0:0:
244,144,78809,1,8,0:3:0:0:
108,45,79044,1,12,1:2:0:0:
119,306,79279,6,0,L|149:138,1,170,4|0,0:0|0:0,0:0:0:0:
243,269,79982,1,2,1:2:0:0:
108,45,80216,1,0,3:2:0:0:
108,45,80333,1,0,3:2:0:0:
108,45,80451,2,0,L|178:30,2,42.5,10|0|0,0:0|0:0|0:0,0:0:0:0:
310,181,80919,2,0,P|269:168|227:160,1,85,2|0,1:2|0:0,0:0:0:0:
96,301,81388,6,0,P|176:317|242:268,1,170,10|2,0:0|1:2,0:0:0:0:
206,72,82091,2,0,P|197:114|192:156,1,85,2|10,0:0|0:0,0:0:0:0:
192,156,82443,1,0,3:2:0:0:
192,156,82560,1,0,3:2:0:0:
321,122,82794,1,2,1:2:0:0:
70,83,83028,1,0,3:2:0:0:
70,83,83146,1,0,3:2:0:0:
70,82,83263,6,0,P|73:109|78:135,3,53.125,10|0|0|0,0:0|3:2|3:2|3:2,0:0:0:0:
30,229,83732,2,0,P|34:255|38:281,3,53.125,2|0|0|0,1:2|3:2|3:2|3:2,0:0:0:0:
130,340,84201,5,8,0:0:0:0:
160,311,84318,1,0,3:2:0:0:
199,296,84435,1,0,3:2:0:0:
242,297,84552,1,0,3:2:0:0:
280,314,84669,1,2,1:2:0:0:
318,330,84786,1,0,3:2:0:0:
360,331,84904,1,0,3:2:0:0:
400,316,85021,1,0,3:2:0:0:
430,287,85137,5,12,0:0:0:0:
256,192,85255,12,2,87013,0:0:0:0:
