osu file format v14

[General]
AudioFilename: audio.mp3
AudioLeadIn: 0
PreviewTime: 49278
Countdown: 0
SampleSet: Soft
StackLeniency: 0.7
Mode: 0
LetterboxInBreaks: 0
WidescreenStoryboard: 0

[Editor]
DistanceSpacing: 0.8
BeatDivisor: 4
GridSize: 4
TimelineZoom: 1

[Metadata]
Title:Elemental World (TV Size)
TitleUnicode:Elemental World (TVサイズ)
Artist:ChouCho
ArtistUnicode:ChouCho
Creator:Kocari
Version:Battle's Normal
Source:政宗くんのリベンジ
Tags:Masamune-kun's Revenge Ending Anime Battle Kibbleru xChippy
BeatmapID:1174738
BeatmapSetID:554978

[Difficulty]
HPDrainRate:4
CircleSize:3.4
OverallDifficulty:4
ApproachRate:5
SliderMultiplier:1.3
SliderTickRate:1

[Events]
//Background and Video events
0,0,"BG.jpg",0,0
Video,0,"optc.flv"
//Break Periods
//Storyboard Layer 0 (Background)
//Storyboard Layer 1 (Fail)
//Storyboard Layer 2 (Pass)
//Storyboard Layer 3 (Foreground)
//Storyboard Sound Samples

[TimingPoints]
763,468.75,4,2,1,70,1,0
15763,-100,4,2,1,50,0,0
30763,-100,4,2,1,60,0,0
49513,-100,4,2,1,70,0,1
64044,-100,4,2,1,70,0,0
64513,-100,4,2,1,70,0,1
85138,-100,4,2,1,70,0,0

[Colours]
Combo1 : 140,140,255
Combo2 : 255,113,113
Combo3 : 255,137,81
Combo4 : 255,255,0

[HitObjects]
56,198,763,6,0,P|63:106|99:77,1,130,12|10,0:0|0:0,0:0:0:0:
129,53,1466,2,0,B|171:86|171:86|257:68,1,130,0|0,0:0|0:0,0:0:0:0:
346,43,2404,1,0,0:0:0:0:
346,43,2638,2,0,P|411:38|467:87,1,130,8|10,0:0|0:0,0:0:0:0:
450,126,3341,2,0,P|438:211|433:264,1,130,0|0,0:0|0:0,0:0:0:0:
377,342,4279,1,0,0:0:0:0:
377,342,4513,6,0,P|301:306|254:328,1,130,8|10,0:0|0:0,0:0:0:0:
213,338,5216,2,0,P|137:374|90:352,1,130,0|0,0:0|0:0,0:0:0:0:
61,322,5919,2,0,P|65:269|81:247,1,65,10|0,0:0|0:0,0:0:0:0:
105,221,6388,1,8,0:0:0:0:
105,221,6622,2,0,B|166:244|166:244|248:204,1,130,0|0,0:0|0:0,0:0:0:0:
297,141,7560,2,0,P|344:136|385:148,2,65,0|4|8,0:0|0:3|0:3,0:0:0:0:
259,105,8263,6,0,P|196:131|125:98,1,130,8|10,0:0|0:0,0:0:0:0:
92,89,8966,2,0,P|29:110|6:168,1,130,0|8,0:0|0:0,0:0:0:0:
53,257,9904,1,0,0:0:0:0:
53,257,10138,2,0,B|111:232|111:232|182:255,1,130,0|10,0:0|0:0,0:0:0:0:
214,285,10841,2,0,P|272:321|338:308,1,130,0|0,0:0|0:0,0:0:0:0:
407,242,11779,1,0,0:0:0:0:
407,242,12013,6,0,P|390:181|426:121,1,130,8|10,0:0|0:0,0:0:0:0:
457,88,12716,2,0,P|396:105|336:69,1,130,0|0,0:0|0:0,0:0:0:0:
303,37,13419,1,4,0:3:0:0:
303,37,13654,2,0,P|201:50|283:191,1,325,4|0,0:3|0:0,0:0:0:0:
327,198,15060,2,0,P|358:271|336:321,1,130,0|0,0:0|0:0,0:0:0:0:
298,345,15763,6,0,B|231:327|231:327|163:347,1,130,8|10,0:0|0:0,0:0:0:0:
102,266,16701,2,0,L|13:265,2,65,8|0|10,0:0|0:0|0:0,0:0:0:0:
154,263,17404,2,0,P|151:159|151:109,1,130,0|0,0:0|0:0,0:0:0:0:
236,73,18341,2,0,P|239:177|239:227,1,130,0|0,0:0|0:0,0:0:0:0:
245,254,19044,2,0,P|293:271|326:265,1,65,10|0,0:0|0:0,0:0:0:0:
355,287,19513,6,0,L|354:369,2,65,12|0|10,0:3|0:0|0:0,0:0:0:0:
401,263,20216,2,0,P|446:175|417:132,1,130,0|0,0:0|0:0,0:0:0:0:
372,80,21154,1,0,0:0:0:0:
372,80,21388,2,0,B|309:102|309:102|239:78,1,130,8|10,0:0|0:0,0:0:0:0:
204,55,22091,2,0,P|136:106|140:164,1,130,0|0,0:0|0:0,0:0:0:0:
158,191,22794,1,10,0:0:0:0:
236,259,23263,6,0,P|267:255|310:263,2,65,8|0|10,0:0|0:0|0:0,0:0:0:0:
201,298,23966,2,0,P|130:322|58:289,1,130,0|0,0:0|0:0,0:0:0:0:
15,230,24904,1,0,0:0:0:0:
15,230,25138,2,0,B|4:157|4:157|26:90,1,130,8|10,0:0|0:0,0:0:0:0:
48,59,25841,2,0,P|100:26|170:70,1,130,0|0,0:0|0:0,0:0:0:0:
186,157,26779,1,0,0:0:0:0:
186,157,27013,6,0,B|187:237,2,65,8|0|10,0:0|0:0|0:0,0:0:0:0:
218,116,27716,2,0,L|366:115,1,130,0|0,0:0|0:0,0:0:0:0:
441,69,28654,1,0,0:0:0:0:
441,69,28888,2,0,P|453:127|439:154,1,65,8|8,0:0|0:3,0:0:0:0:
414,166,29357,2,0,P|402:224|416:251,1,65,10|8,0:0|0:3,0:0:0:0:
432,271,29826,2,0,P|340:242|288:271,1,130,4|10,0:3|0:0,0:0:0:0:
230,316,30763,6,0,P|219:241|236:182,1,130,8|10,0:0|0:0,0:0:0:0:
242,138,31466,2,0,P|167:149|108:132,1,130,0|0,3:2|0:0,0:0:0:0:
73,105,32169,1,10,0:0:0:0:
7,186,32638,2,0,P|-16:262|7:317,1,130,8|10,0:0|0:0,0:0:0:0:
43,335,33341,1,0,0:0:0:0:
43,335,33576,2,0,P|83:341|121:333,1,65,8|0,0:0|0:0,0:0:0:0:
145,302,34044,1,10,0:0:0:0:
145,302,34279,6,0,P|198:283|273:305,1,130,0|0,0:0|0:0,0:0:0:0:
356,354,35216,2,0,P|361:254|375:231,1,130,0|0,3:2|0:0,0:0:0:0:
418,201,35919,1,10,0:0:0:0:
418,201,36154,2,0,P|436:133|392:67,1,130,0|0,0:0|0:0,0:0:0:0:
365,56,36857,1,10,0:0:0:0:
365,56,37091,2,0,B|302:82|302:82|237:58,1,130,0|0,0:0|0:0,0:0:0:0:
195,41,37794,1,10,0:0:0:0:
91,53,38263,6,0,P|32:112|31:182,1,130,8|10,0:0|0:0,0:0:0:0:
29,259,39201,2,0,P|88:317|158:318,1,130,8|10,0:0|0:0,0:0:0:0:
178,302,39904,1,0,0:0:0:0:
178,302,40138,2,0,P|246:284|314:329,1,130,8|10,0:0|0:0,0:0:0:0:
376,375,41076,2,0,P|376:276|380:228,1,130,8|10,0:0|0:0,0:0:0:0:
475,283,42013,6,0,P|475:184|471:136,1,130,8|10,0:0|0:0,0:0:0:0:
460,102,42716,2,0,P|372:77|330:99,1,130,8|8,3:2|0:0,0:0:0:0:
304,128,43419,2,0,P|254:136|228:124,1,65,10|0,0:0|3:2,0:0:0:0:
213,87,43888,2,0,B|238:157|238:157|214:237,1,130,8|8,0:0|0:0,0:0:0:0:
154,290,44826,2,0,B|129:220|129:220|153:140,1,130,10|10,0:0|0:0,0:0:0:0:
158,63,45763,6,0,P|99:40|38:62,1,130,4|2,0:0|0:0,0:0:0:0:
23,111,46466,1,0,0:0:0:0:
23,111,46701,2,0,L|11:271,1,130,8|0,0:0|0:0,0:0:0:0:
19,344,47638,2,0,P|96:312|145:336,1,130,4|0,0:1|0:0,0:0:0:0:
180,353,48341,2,0,P|245:353|292:305,1,130,0|0,0:0|0:0,0:0:0:0:
267,262,49044,2,0,P|263:197|276:178,1,65,0|0,0:0|0:0,0:0:0:0:
291,156,49513,5,12,0:0:0:0:
291,156,49747,2,0,L|375:155,1,65,0|8,0:0|0:0,0:0:0:0:
408,153,50216,2,0,P|423:55|397:21,1,130,0|0,0:0|0:0,0:0:0:0:
313,74,51154,2,0,L|170:72,1,130,0|0,0:0|0:0,0:0:0:0:
130,69,51857,1,8,0:0:0:0:
130,69,52091,2,0,B|98:128|98:128|129:210,1,130,2|0,0:0|3:2,0:0:0:0:
159,221,52794,1,10,0:0:0:0:
159,221,53029,6,0,P|205:204|281:235,1,130,0|0,0:0|0:0,0:0:0:0:
273,335,53966,2,0,P|227:352|151:321,1,130,0|0,0:0|3:2,0:0:0:0:
59,280,54904,2,0,L|59:129,1,130
64,98,55607,2,0,P|93:61|125:57,1,65,10|0,0:0|0:0,0:0:0:0:
159,67,56076,1,10,0:0:0:0:
159,67,56310,2,0,B|156:141,2,65,0|8|4,3:2|0:3|0:3,0:0:0:0:
200,35,57013,6,0,P|281:9|338:50,1,130,8|10,0:0|0:0,0:0:0:0:
416,76,57951,1,10,0:0:0:0:
416,76,58185,2,0,L|406:222,1,130,0|0,0:0|0:0,0:0:0:0:
388,254,58888,2,0,P|330:270|267:235,1,130,0|10,0:0|0:0,0:0:0:0:
232,204,59591,2,0,P|164:183|105:221,1,130,0|0,0:0|3:2,0:0:0:0:
55,294,60529,1,0,3:2:0:0:
55,294,60763,6,0,P|44:183|42:137,1,130,10|10,0:0|0:0,0:0:0:0:
38,112,61466,2,0,P|93:78|177:107,1,130,0|2,0:0|0:0,0:0:0:0:
204,121,62169,1,8,0:0:0:0:
204,121,62404,2,0,P|271:149|330:126,1,130,0|2,3:2|0:0,0:0:0:0:
358,93,63107,1,10,0:0:0:0:
358,93,63341,2,0,L|354:243,1,130,0|10,3:2|0:0,0:0:0:0:
354,275,64044,1,10,0:0:0:0:
267,333,64513,6,0,P|236:304|189:294,1,65,12|0,0:0|0:0,0:0:0:0:
167,316,64982,1,10,0:0:0:0:
167,316,65216,2,0,L|168:164,1,130,0|0,0:0|0:0,0:0:0:0:
94,111,66154,2,0,P|151:83|229:102,1,130,0|0,0:0|0:0,0:0:0:0:
261,129,66857,1,10,0:0:0:0:
261,129,67091,2,0,B|303:162|303:162|396:163,1,130,0|0,0:0|3:2,0:0:0:0:
436,164,67794,1,10,0:0:0:0:
436,164,68029,6,0,L|436:304,1,130,0|2,0:0|0:0,0:0:0:0:
427,349,68732,1,8,0:0:0:0:
427,349,68966,2,0,P|364:296|304:304,1,130,2|2,3:2|0:0,0:0:0:0:
241,228,69904,1,2,0:0:0:0:
241,228,70138,2,0,L|242:152,2,65,0|2|8,0:0|0:0|0:0,0:0:0:0:
227,278,70841,2,0,B|179:310|179:310|83:308,1,130,2|0,0:0|3:2,0:0:0:0:
54,304,71544,2,0,P|49:257|62:230,1,65,8|4,0:3|0:3,0:0:0:0:
91,203,72013,6,0,P|101:102|85:70,1,130,8|10,0:0|0:0,0:0:0:0:
68,31,72716,2,0,P|139:66|201:50,1,130,0|2,3:2|0:0,0:0:0:0:
231,30,73419,1,10,0:0:0:0:
329,64,73888,2,0,L|319:217,1,130,8|10,0:0|0:0,0:0:0:0:
318,246,74591,2,0,P|384:320|412:324,1,130,8|2,0:0|0:0,0:0:0:0:
450,292,75294,1,10,3:2:0:0:
493,197,75763,6,0,L|501:54,1,130,10|10,0:0|0:0,0:0:0:0:
469,25,76466,1,0,0:0:0:0:
469,25,76701,2,0,P|407:4|339:31,1,130,10|10,0:0|0:0,0:0:0:0:
303,117,77638,2,0,L|304:186,2,65,10|8|10,0:0|0:0|0:0,0:0:0:0:
281,69,78341,2,0,P|210:51|163:83,1,130,0|8,3:2|0:3,0:0:0:0:
135,178,79279,1,4,0:0:0:0:
135,178,79513,6,0,B|61:179,2,65,0|0|10,0:0|0:0|0:0,0:0:0:0:
178,206,80216,2,0,B|235:184|235:184|300:206,1,130,0|0,3:2|0:0,0:0:0:0:
343,234,80919,1,10,0:0:0:0:
422,301,81388,2,0,P|443:227|427:177,1,130,10|10,0:0|0:0,0:0:0:0:
354,104,82326,2,0,P|348:65|357:31,2,65,10|0|10,0:0|3:2|0:0,0:0:0:0:
324,147,83029,6,0,P|245:124|191:145,1,130,0|0,3:2|3:2,0:0:0:0:
160,170,83732,1,10,0:0:0:0:
160,170,83966,2,0,B|181:234|181:234|163:317,1,130,0|0,3:2|3:2,0:0:0:0:
138,338,84669,2,0,P|102:344|65:334,1,65,10|0,0:0|3:2,0:0:0:0:
34,304,85138,5,12,0:0:0:0:
256,192,85255,12,2,87013,0:0:0:0:
