osu file format v14

[General]
AudioFilename: audio.mp3
AudioLeadIn: 0
PreviewTime: 49278
Countdown: 0
SampleSet: Soft
StackLeniency: 0.7
Mode: 0
LetterboxInBreaks: 0
WidescreenStoryboard: 0

[Editor]
DistanceSpacing: 1.4
BeatDivisor: 4
GridSize: 4
TimelineZoom: 1

[Metadata]
Title:Elemental World (TV Size)
TitleUnicode:Elemental World (TVサイズ)
Artist:ChouCho
ArtistUnicode:ChouCho
Creator:Kocari
Version:Insane
Source:政宗くんのリベンジ
Tags:Masamune-kun's Revenge Ending Anime Battle Kibbleru xChippy
BeatmapID:1174739
BeatmapSetID:554978

[Difficulty]
HPDrainRate:6
CircleSize:4
OverallDifficulty:7
ApproachRate:8
SliderMultiplier:1.8
SliderTickRate:1

[Events]
//Background and Video events
0,0,"BG.jpg",0,0
Video,0,"optc.flv"
//Break Periods
//Storyboard Layer 0 (Background)
//Storyboard Layer 1 (Fail)
//Storyboard Layer 2 (Pass)
//Storyboard Layer 3 (Foreground)
//Storyboard Sound Samples

[TimingPoints]
763,468.75,4,2,1,70,1,0
13770,-100,4,2,1,40,0,0
15763,-111.111111111111,4,2,1,55,0,0
30294,-90.9090909090909,4,2,1,55,0,0
30763,-111.111111111111,4,2,1,65,0,0
44825,-111.111111111111,4,2,1,35,0,0
45059,-111.111111111111,4,2,1,45,0,0
45294,-111.111111111111,4,2,1,55,0,0
45528,-111.111111111111,4,2,1,65,0,0
45763,-111.111111111111,4,2,1,75,0,0
49513,-90.9090909090909,4,2,1,85,0,1
63341,-90.9090909090909,4,2,1,85,0,0
64513,-90.9090909090909,4,2,1,85,0,1
85841,-111.111111111111,4,2,1,50,0,0
87013,-111.111111111111,4,2,1,40,0,0

[Colours]
Combo1 : 140,140,255
Combo2 : 255,113,113
Combo3 : 255,137,81
Combo4 : 255,255,0

[HitObjects]
197,343,763,6,0,L|192:241,1,90,4|0,0:0|0:0,0:0:0:0:
132,139,1232,1,10,0:0:0:0:
27,252,1466,1,0,0:0:0:0:
68,85,1701,2,0,P|121:56|198:92,1,135,8|0,0:0|0:0,0:0:0:0:
223,105,2169,2,0,P|268:105|315:99,1,90,2|0,0:0|0:0,0:0:0:0:
446,35,2638,2,0,P|439:104|436:173,1,135,8|0,0:0|0:0,0:0:0:0:
464,204,3107,6,0,P|461:248|455:294,1,90,2|0,0:0|0:0,0:0:0:0:
285,328,3576,2,0,P|279:283|276:238,1,90,8|0,0:0|0:0,0:0:0:0:
323,133,4044,1,2,0:0:0:0:
183,220,4279,1,0,0:0:0:0:
386,193,4513,6,0,P|409:139|376:65,1,135,8|0,0:0|0:0,0:0:0:0:
344,45,4982,2,0,P|300:48|241:52,1,90,2|0,0:0|0:0,0:0:0:0:
158,105,5333,1,0,0:0:0:0:
158,105,5451,2,0,P|151:149|142:193,1,90,8|0,0:0|0:0,0:0:0:0:
24,23,5919,2,0,P|31:67|40:111,1,90,2|0,0:0|0:0,0:0:0:0:
85,243,6388,6,0,P|152:234|226:227,1,135,8|0,0:0|0:0,0:0:0:0:
261,242,6857,1,2,0:0:0:0:
317,138,7091,1,0,0:0:0:0:
296,318,7326,1,8,0:0:0:0:
252,325,7443,1,0,0:0:0:0:
210,309,7560,1,0,0:0:0:0:
389,224,7794,1,4,0:3:0:0:
317,138,8029,1,8,0:3:0:0:
210,309,8263,6,0,P|139:309|56:306,1,135,8|0,0:0|0:0,0:0:0:0:
37,281,8732,1,2,0:0:0:0:
129,56,8966,1,0,0:0:0:0:
131,102,9084,1,0,0:0:0:0:
135,147,9201,1,8,0:0:0:0:
235,99,9435,1,0,0:0:0:0:
67,196,9669,2,0,P|100:225|144:229,1,90,2|0,0:0|0:0,0:0:0:0:
389,191,10138,6,0,B|329:212|329:212|258:203,1,135,8|0,0:0|0:0,0:0:0:0:
218,180,10607,1,2,0:0:0:0:
317,103,10841,1,0,0:0:0:0:
468,166,11076,1,8,0:0:0:0:
472,210,11193,1,0,0:0:0:0:
451,249,11310,1,0,0:0:0:0:
221,269,11544,2,0,P|218:226|217:167,1,90,2|0,0:0|0:0,0:0:0:0:
271,336,12013,6,0,P|212:352|144:300,1,135,8|0,0:0|0:0,0:0:0:0:
133,274,12482,2,0,P|130:231|129:172,1,90,2|0,0:0|0:0,0:0:0:0:
151,83,12834,1,0,0:0:0:0:
151,83,12951,2,0,L|205:87,1,45,10|0,0:0|0:0,0:0:0:0:
265,158,13184,2,0,L|319:162,1,45,10|0,0:0|0:0,0:0:0:0:
373,241,13419,2,0,L|427:245,1,45,10|0,0:0|0:0,0:0:0:0:
496,181,13653,1,8,0:0:0:0:
256,192,13771,12,0,15294,0:0:0:0:
224,112,15763,6,0,P|169:101|109:92,1,80.9999975280763,8|0,0:0|0:0,0:0:0:0:
28,223,16232,2,0,P|67:216|120:206,1,80.9999975280763,2|0,0:0|0:0,0:0:0:0:
294,74,16701,2,0,P|301:133|269:182,1,121.499996292114,8|0,0:0|0:0,0:0:0:0:
231,199,17169,1,2,0:0:0:0:
313,289,17404,1,0,0:0:0:0:
407,212,17638,6,0,L|487:201,1,80.9999975280763,8|0,0:0|0:0,0:0:0:0:
312,289,18107,2,0,L|232:300,1,80.9999975280763,2|0,0:0|0:0,0:0:0:0:
407,212,18576,1,8,0:0:0:0:
320,128,18810,1,0,0:0:0:0:
320,128,18927,1,0,0:0:0:0:
320,128,19044,1,2,0:0:0:0:
408,212,19279,1,8,0:3:0:0:
246,68,19513,6,0,P|227:124|249:179,1,121.499996292114,4|0,0:3|0:0,0:0:0:0:
284,202,19982,2,0,P|280:243|277:289,1,80.9999975280763,2|0,0:0|0:0,0:0:0:0:
104,360,20451,2,0,P|99:301|94:242,1,80.9999975280763,8|0,0:0|0:0,0:0:0:0:
87,178,20919,1,2,0:0:0:0:
87,178,21036,1,0,0:0:0:0:
87,178,21154,1,0,0:0:0:0:
215,30,21388,6,0,P|218:70|221:110,1,80.9999975280763,8|0,0:0|0:0,0:0:0:0:
31,113,21857,2,0,P|66:93|106:97,1,80.9999975280763,2|0,0:0|0:0,0:0:0:0:
87,178,22326,1,8,0:0:0:0:
87,178,22443,1,0,0:0:0:0:
87,178,22560,1,0,0:0:0:0:
221,110,22794,1,2,0:0:0:0:
51,43,23029,1,0,0:0:0:0:
188,191,23263,6,0,P|183:252|181:313,1,121.499996292114,8|0,0:0|0:0,0:0:0:0:
210,341,23732,2,0,P|250:337|300:334,1,80.9999975280763,2|0,0:0|0:0,0:0:0:0:
487,250,24201,2,0,B|417:234|417:234|367:246,1,121.499996292114,8|0,0:0|0:0,0:0:0:0:
331,261,24669,2,0,P|327:221|321:179,1,80.9999975280763,2|0,0:0|0:0,0:0:0:0:
209,141,25138,6,0,P|154:164|96:151,1,121.499996292114,8|0,0:0|0:0,0:0:0:0:
73,116,25607,2,0,L|67:31,1,80.9999975280763,2|0,0:0|0:0,0:0:0:0:
209,141,26076,2,0,L|202:223,1,80.9999975280763,8|0,0:0|0:0,0:0:0:0:
198,262,26427,1,0,0:0:0:0:
198,262,26544,1,2,0:0:0:0:
244,357,26779,1,0,0:0:0:0:
363,309,27013,6,0,P|423:302|487:291,1,121.499996292114,8|0,0:0|0:0,0:0:0:0:
506,258,27482,2,0,P|505:216|506:175,1,80.9999975280763,2|0,0:0|0:0,0:0:0:0:
362,40,27951,2,0,P|360:91|358:148,1,80.9999975280763,8|0,0:0|0:0,0:0:0:0:
317,242,28419,1,2,0:0:0:0:
223,118,28654,1,0,0:0:0:0:
223,118,28771,1,0,0:0:0:0:
223,118,28888,5,8,0:0:0:0:
125,290,29122,1,0,0:0:0:0:
124,172,29357,1,10,0:0:0:0:
23,123,29591,1,2,0:0:0:0:
223,118,29826,1,8,0:0:0:0:
120,39,30060,1,0,0:0:0:0:
23,123,30294,2,0,L|28:271,1,148.50000453186,2|0,0:0|0:0,0:0:0:0:
85,338,30763,6,0,P|143:319|200:351,1,121.499996292114,8|0,0:0|0:0,0:0:0:0:
235,344,31232,2,0,P|288:318|344:337,1,121.499996292114,2|0,0:0|0:0,0:0:0:0:
382,352,31701,2,0,L|425:344,1,40.4999987640381,8|0,0:0|0:0,0:0:0:0:
438,260,31935,2,0,L|481:252,1,40.4999987640381
363,196,32169,2,0,B|351:151|351:151|373:66,1,121.499996292114,2|0,0:0|0:0,0:0:0:0:
379,38,32638,6,0,P|321:55|258:27,1,121.499996292114,8|0,0:0|0:0,0:0:0:0:
225,34,33107,2,0,P|169:54|111:37,1,121.499996292114,2|0,0:0|0:0,0:0:0:0:
77,15,33576,2,0,L|29:22,1,40.4999987640381,8|0,0:0|0:0,0:0:0:0:
13,132,33810,2,0,L|53:126,1,40.4999987640381
158,188,34044,1,2,0:0:0:0:
114,332,34279,1,0,0:0:0:0:
114,332,34396,1,0,0:0:0:0:
114,332,34513,6,0,B|112:253|112:253|129:203,1,121.499996292114,8|0,0:0|0:0,0:0:0:0:
158,188,34982,2,0,L|256:184,1,80.9999975280763,2|0,0:0|0:0,0:0:0:0:
385,40,35450,2,0,L|390:81,1,40.4999987640381,8|0,0:0|0:0,0:0:0:0:
319,177,35684,2,0,L|314:136,1,40.4999987640381
467,136,35919,2,0,B|482:179|482:179|462:255,1,121.499996292114,2|0,0:0|0:0,0:0:0:0:
462,252,36388,6,0,L|363:249,1,80.9999975280763,8|0,0:0|0:0,0:0:0:0:
428,336,36857,2,0,L|287:333,1,121.499996292114,2|0,0:0|0:0,0:0:0:0:
266,331,37326,2,0,L|260:281,1,40.4999987640381,8|0,0:0|0:0,0:0:0:0:
166,230,37560,2,0,L|171:271,1,40.4999987640381
222,152,37794,2,0,P|277:126|331:144,1,121.499996292114,2|0,0:0|0:0,0:0:0:0:
282,212,38263,6,0,L|289:66,1,121.499996292114,8|0,0:0|0:0,0:0:0:0:
208,24,38732,2,0,L|202:145,1,121.499996292114,2|0,0:0|0:0,0:0:0:0:
132,188,39201,2,0,P|76:170|15:205,1,121.499996292114,8|0,0:0|0:0,0:0:0:0:
3,232,39669,2,0,L|9:282,1,40.4999987640381,2|0,0:0|0:0,0:0:0:0:
88,292,39904,2,0,L|84:252,1,40.4999987640381
168,347,40138,6,0,B|230:361|230:361|305:336,1,121.499996292114,8|0,0:0|0:0,0:0:0:0:
316,317,40607,2,0,B|370:298|370:298|432:312,1,121.499996292114,2|0,0:0|0:0,0:0:0:0:
472,320,41076,2,0,L|481:195,1,121.499996292114,8|0,0:0|0:0,0:0:0:0:
484,158,41544,1,2,0:0:0:0:
360,33,41779,1,0,0:0:0:0:
360,33,41896,1,0,0:0:0:0:
360,33,42013,5,8,0:0:0:0:
257,183,42247,1,0,0:0:0:0:
362,132,42482,1,10,0:0:0:0:
409,222,42716,2,0,L|416:267,1,40.4999987640381,8|0,0:0|0:0,0:0:0:0:
318,334,42951,2,0,L|311:293,1,40.4999987640381
257,183,43185,1,8,0:0:0:0:
116,307,43419,1,10,0:0:0:0:
147,302,43536,1,0,0:0:0:0:
178,294,43654,1,0,0:0:0:0:
46,361,43888,6,0,P|29:327|44:263,1,80.9999975280763,8|0,0:0|0:0,0:0:0:0:
52,249,44239,1,0,0:0:0:0:
52,249,44356,1,8,0:0:0:0:
41,50,44591,1,2,0:0:0:0:
167,208,44826,6,0,L|163:152,1,40.4999987640381,2|0,0:0|0:0,0:0:0:0:
235,66,45060,2,0,L|238:107,1,40.4999987640381,2|0,0:0|0:0,0:0:0:0:
318,205,45294,2,0,L|314:149,1,40.4999987640381,2|2,0:0|0:0,0:0:0:0:
386,63,45528,2,0,L|389:104,1,40.4999987640381,2|2,0:0|0:0,0:0:0:0:
385,252,45763,6,0,P|318:287|246:243,1,161.999995056153
204,155,46466,1,0,0:0:0:0:
26,253,46701,2,0,P|95:288|163:249,1,161.999995056153,8|0,0:0|0:0,0:0:0:0:
204,155,47638,1,4,3:0:0:0:
204,155,48107,5,0,0:0:0:0:
333,354,48341,1,0,0:0:0:0:
390,263,48810,2,0,B|327:248|327:248|284:261|284:261|227:244,1,161.999995056153
457,318,49513,6,0,P|475:273|462:216,1,99.0000030212403,4|0,0:0|0:0,0:0:0:0:
404,127,49982,1,10,0:0:0:0:
317,205,50216,2,0,B|218:193,1,99.0000030212403,0|10,0:0|0:0,0:0:0:0:
111,95,50685,1,0,0:0:0:0:
218,193,50919,1,10,0:0:0:0:
68,230,51154,1,0,0:0:0:0:
74,268,51271,1,0,0:0:0:0:
81,306,51388,5,10,0:0:0:0:
317,205,51622,2,0,L|218:193,1,99.0000030212403,0|10,0:0|0:0,0:0:0:0:
388,268,52091,2,0,B|404:215|404:215|392:124,1,99.0000030212403,0|10,0:0|0:0,0:0:0:0:
474,77,52560,6,0,L|484:140,1,49.5000015106202,10|0,0:0|0:0,0:0:0:0:
493,222,52794,2,0,L|481:272,1,49.5000015106202,10|0,0:0|0:0,0:0:0:0:
433,357,53029,1,2,0:0:0:0:
433,357,53146,1,0,0:0:0:0:
433,357,53263,6,0,L|328:352,1,99.0000030212403,10|0,0:0|0:0,0:0:0:0:
179,296,53732,2,0,P|225:278|277:292,1,99.0000030212403,10|0,0:0|0:0,0:0:0:0:
99,356,54201,2,0,P|90:306|81:256,1,99.0000030212403,10|0,0:0|0:0,0:0:0:0:
63,223,54552,1,0,0:0:0:0:
63,223,54669,1,10,0:0:0:0:
174,82,54904,1,0,0:0:0:0:
279,200,55138,6,0,P|216:164|134:209,1,148.50000453186,10|0,0:0|0:0,0:0:0:0:
209,250,55607,2,0,P|212:299|215:348,1,99.0000030212403,10|0,0:0|0:0,0:0:0:0:
364,247,56076,1,10,0:0:0:0:
268,120,56310,5,2,0:0:0:0:
274,160,56427,1,0,0:0:0:0:
279,200,56544,1,8,0:3:0:0:
252,38,56779,1,4,0:3:0:0:
229,269,57013,6,0,P|300:284|361:222,1,148.50000453186,8|0,0:0|0:0,0:0:0:0:
346,140,57482,2,0,P|349:189|354:238,1,99.0000030212403,10|0,0:0|0:0,0:0:0:0:
237,367,57951,2,0,P|234:318|229:269,1,99.0000030212403,10|0,0:0|0:0,0:0:0:0:
135,155,58419,1,10,0:0:0:0:
87,304,58654,1,0,0:0:0:0:
45,301,58771,1,0,0:0:0:0:
7,295,58888,6,0,B|-4:237|-4:237|13:135,1,148.50000453186,10|0,0:0|0:0,0:0:0:0:
33,115,59357,2,0,P|84:111|151:106,1,99.0000030212403,10|0,0:0|0:0,0:0:0:0:
301,183,59826,2,0,P|249:186|183:192,1,99.0000030212403,10|0,0:0|0:0,0:0:0:0:
362,83,60294,1,10,0:0:0:0:
453,229,60529,1,0,0:0:0:0:
449,268,60646,1,0,0:0:0:0:
445,307,60763,6,0,P|374:292|297:322,1,148.50000453186,10|0,0:0|0:0,0:0:0:0:
273,342,61232,1,10,0:0:0:0:
169,262,61466,1,0,0:0:0:0:
169,262,61583,1,0,0:0:0:0:
169,262,61701,1,10,0:0:0:0:
71,330,61935,5,2,0:0:0:0:
255,188,62169,1,8,0:0:0:0:
54,59,62404,2,0,P|57:141|61:211,1,148.50000453186,2|0,0:0|0:0,0:0:0:0:
80,241,62872,1,10,0:0:0:0:
151,127,63107,1,2,0:0:0:0:
300,258,63341,2,0,P|331:211|303:123,1,148.50000453186,8|0,0:0|0:0,0:0:0:0:
274,104,63810,2,0,L|273:41,1,49.5000015106202,2|0,0:0|0:0,0:0:0:0:
186,81,64044,2,0,L|185:18,1,49.5000015106202,2|0,0:0|0:0,0:0:0:0:
99,56,64278,2,0,L|98:-7,1,49.5000015106202,2|0,0:0|0:0,0:0:0:0:
35,129,64513,6,0,P|36:180|39:227,1,99.0000030212403,4|0,0:0|0:0,0:0:0:0:
116,338,64982,1,10,0:0:0:0:
224,258,65216,1,0,0:0:0:0:
263,260,65333,1,0,0:0:0:0:
304,260,65450,2,0,B|294:210|294:210|309:151,1,99.0000030212403,10|0,0:0|0:0,0:0:0:0:
418,52,65919,2,0,P|466:55|499:91,1,99.0000030212403,10|0,0:0|0:0,0:0:0:0:
427,131,66388,6,0,B|411:171|421:208|421:208|451:228|457:265,1,148.50000453186,10|0,0:0|0:0,0:0:0:0:
454,305,66857,1,10,0:0:0:0:
320,243,67091,1,0,0:0:0:0:
237,336,67326,2,0,L|130:313,1,99.0000030212403,10|0,0:0|0:0,0:0:0:0:
41,350,67794,1,10,0:0:0:0:
1,255,68029,6,0,B|-6:188|-6:188|39:103,1,148.50000453186,2|0,0:0|0:0,0:0:0:0:
55,84,68497,2,0,P|104:96|155:75,1,99.0000030212403,10|0,0:0|0:0,0:0:0:0:
242,24,68966,2,0,P|318:50|397:30,1,148.50000453186,10|0,0:0|0:0,0:0:0:0:
411,9,69435,1,10,0:0:0:0:
493,76,69669,2,0,L|484:174,1,99.0000030212403,0|2,0:0|0:0,0:0:0:0:
379,254,70138,5,10,0:0:0:0:
342,140,70372,1,2,0:0:0:0:
501,256,70607,1,0,0:0:0:0:
314,335,70841,2,0,B|252:331|252:331|228:346|228:346|140:340,1,148.50000453186,10|0,0:0|0:0,0:0:0:0:
130,338,71310,1,10,0:0:0:0:
44,268,71544,2,0,P|36:244|33:219,1,49.5000015106202,8|0,0:3|0:0,0:0:0:0:
128,86,71779,2,0,P|125:110|117:134,1,49.5000015106202,4|0,0:3|0:0,0:0:0:0:
196,261,72013,6,0,P|227:212|171:229,1,148.50000453186,8|0,0:0|0:0,0:0:0:0:
196,261,72482,2,0,L|297:256,1,99.0000030212403,10|0,0:0|0:0,0:0:0:0:
334,250,72833,1,0,0:0:0:0:
334,250,72951,1,10,0:0:0:0:
475,161,73185,1,0,0:0:0:0:
426,351,73419,2,0,L|431:246,1,99.0000030212403,10|0,0:0|0:0,0:0:0:0:
393,83,73888,6,0,P|331:47|254:70,1,148.50000453186,10|0,0:0|0:0,0:0:0:0:
229,90,74357,1,10,0:0:0:0:
137,164,74591,1,0,0:0:0:0:
34,33,74826,2,0,P|38:85|42:142,1,99.0000030212403,10|0,0:0|0:0,0:0:0:0:
179,232,75294,2,0,P|129:246|83:223,1,99.0000030212403,10|0,0:0|0:0,0:0:0:0:
51,210,75646,1,0,0:0:0:0:
51,210,75763,6,0,P|56:283|62:363,1,148.50000453186,10|0,0:0|0:0,0:0:0:0:
101,364,76232,2,0,P|148:341|200:349,1,99.0000030212403,10|0,0:0|0:0,0:0:0:0:
295,292,76701,2,0,P|342:315|394:307,1,99.0000030212403,10|0,0:0|0:0,0:0:0:0:
416,283,77052,1,0,0:0:0:0:
416,283,77169,2,0,P|419:234|421:162,1,99.0000030212403,10|0,0:0|0:0,0:0:0:0:
498,137,77638,6,0,P|445:97|363:114,1,148.50000453186,10|0,0:0|0:0,0:0:0:0:
289,170,78106,2,0,L|237:173,1,49.5000015106202,2|0,0:0|0:0,0:0:0:0:
165,107,78341,1,2,0:0:0:0:
165,107,78458,1,2,0:0:0:0:
165,107,78575,1,8,0:0:0:0:
158,345,78810,1,10,0:0:0:0:
240,173,79044,1,0,0:0:0:0:
55,259,79279,1,2,0:0:0:0:
252,317,79513,6,0,B|297:334|337:284|337:284|372:335|421:324,1,198.000006042481,8|10,0:0|0:0,0:0:0:0:
252,317,80216,1,0,0:0:0:0:
193,89,80450,1,10,0:0:0:0:
120,264,80685,1,0,0:0:0:0:
134,227,80802,1,0,0:0:0:0:
146,190,80919,1,10,0:0:0:0:
84,342,81154,1,0,0:0:0:0:
84,342,81388,6,0,P|148:346|201:269,1,148.50000453186,10|0,0:0|0:0,0:0:0:0:
215,249,81857,2,0,P|262:247|327:244,1,99.0000030212403,10|0,0:0|0:0,0:0:0:0:
456,133,82326,2,0,P|408:134|344:138,1,99.0000030212403,10|0,0:0|0:0,0:0:0:0:
287,34,82794,1,10,0:0:0:0:
215,249,83029,1,0,0:0:0:0:
175,251,83146,1,0,0:0:0:0:
135,254,83263,6,0,B|111:197|111:197|131:90,1,148.50000453186,10|0,0:0|0:0,0:0:0:0:
50,95,83732,2,0,L|38:149,1,49.5000015106202,10|0,0:0|0:0,0:0:0:0:
34,226,83966,2,0,L|56:273,1,49.5000015106202,10|0,0:0|0:0,0:0:0:0:
119,340,84201,1,8,0:0:0:0:
119,340,84318,1,0,0:0:0:0:
119,340,84435,2,0,L|188:336,1,49.5000015106202,2|0,0:0|0:0,0:0:0:0:
244,217,84669,2,0,L|240:266,1,49.5000015106202,10|0,0:0|0:0,0:0:0:0:
308,375,84904,2,0,L|356:366,1,49.5000015106202,2|2,0:0|0:0,0:0:0:0:
495,343,85138,5,4,0:0:0:0:
399,203,85841,2,0,B|384:141|384:141|413:34,1,161.999995056153,2|2,0:0|0:0,0:0:0:0:
464,256,86544,2,0,P|397:286|319:217,1,161.999995056153,2|2,0:0|0:0,0:0:0:0:
