osu file format v14

[General]
AudioFilename: audio.mp3
AudioLeadIn: 0
PreviewTime: 49278
Countdown: 0
SampleSet: Soft
StackLeniency: 0.7
Mode: 0
LetterboxInBreaks: 0
WidescreenStoryboard: 0

[Editor]
DistanceSpacing: 1
BeatDivisor: 4
GridSize: 4
TimelineZoom: 1

[Metadata]
Title:Elemental World (TV Size)
TitleUnicode:Elemental World (TVサイズ)
Artist:ChouCho
ArtistUnicode:ChouCho
Creator:Kocari
Version:Easy
Source:政宗くんのリベンジ
Tags:Masamune-kun's Revenge Ending Anime Battle Kibbleru xChippy
BeatmapID:1175984
BeatmapSetID:554978

[Difficulty]
HPDrainRate:3
CircleSize:3
OverallDifficulty:3
ApproachRate:3
SliderMultiplier:1
SliderTickRate:1

[Events]
//Background and Video events
0,0,"BG.jpg",0,0
Video,0,"optc.flv"
//Break Periods
//Storyboard Layer 0 (Background)
//Storyboard Layer 1 (Fail)
//Storyboard Layer 2 (Pass)
//Storyboard Layer 3 (Foreground)
//Storyboard Sound Samples

[TimingPoints]
763,468.75,4,2,1,70,1,0
763.5,-100,4,2,1,70,0,0
15763,-100,4,2,1,55,0,0
30763,-100,4,2,1,65,0,0
49513,-100,4,2,1,85,0,1
64044,-100,4,2,1,85,0,0
64513,-100,4,2,1,85,0,1
87013,-100,4,2,1,30,0,0

[Colours]
Combo1 : 140,140,255
Combo2 : 255,113,113
Combo3 : 255,137,81
Combo4 : 255,255,0

[HitObjects]
108,319,763,6,0,P|156:334|210:316,1,100,4|10,0:0|0:0,0:0:0:0:
260,238,1701,2,0,P|307:225|354:240,1,100,8|2,0:0|0:0,0:0:0:0:
427,308,2638,2,0,P|450:267|441:198,1,100,8|2,0:0|0:0,0:0:0:0:
383,138,3576,1,8,0:0:0:0:
441,57,4044,1,2,0:0:0:0:
348,17,4513,6,0,P|295:18|227:20,1,100,8|2,0:0|0:0,0:0:0:0:
240,119,5451,2,0,P|190:119|140:121,1,100,8|2,0:0|0:0,0:0:0:0:
62,61,6388,2,0,P|40:108|56:174,1,100,8|2,0:0|0:0,0:0:0:0:
125,218,7326,1,8,0:0:0:0:
75,304,7794,1,4,0:3:0:0:
157,360,8263,6,0,P|205:357|263:355,1,100,8|2,0:0|0:0,0:0:0:0:
273,256,9201,2,0,P|321:253|379:251,1,100,8|2,0:0|0:0,0:0:0:0:
451,312,10138,2,0,P|469:271|457:204,1,100,8|2,0:0|0:0,0:0:0:0:
388,151,11076,1,8,0:0:0:0:
442,67,11544,1,2,0:0:0:0:
357,14,12013,6,0,B|308:5|308:5|241:21,1,100,8|2,0:0|0:0,0:0:0:0:
180,79,12951,2,0,B|153:154|220:152|187:237,1,150,10|4,0:0|0:3,0:0:0:0:
191,223,15294,1,0,0:0:0:0:
123,298,15763,6,0,P|162:323|215:321,2,100,8|2|8,0:0|0:0|0:0,0:0:0:0:
77,208,17169,1,2,0:0:0:0:
134,126,17638,2,0,B|179:108|179:108|249:123,1,100,8|2,0:0|0:0,0:0:0:0:
309,178,18576,2,0,B|359:188|359:188|404:170,1,100,8|2,0:0|0:0,0:0:0:0:
493,124,19513,6,0,P|505:170|486:229,1,100,4|2,0:3|0:0,0:0:0:0:
421,290,20451,2,0,P|371:292|307:297,1,100,8|2,0:0|0:0,0:0:0:0:
245,230,21388,1,8,0:0:0:0:
178,305,21857,1,2,0:0:0:0:
93,250,22326,2,0,P|74:204|82:144,1,100,8|2,0:0|0:0,0:0:0:0:
137,74,23263,6,0,L|240:70,1,100,8|2,0:0|0:0,0:0:0:0:
275,162,24201,2,0,L|172:166,1,100,8|2,0:0|0:0,0:0:0:0:
139,259,25138,2,0,L|242:255,1,100,8|2,0:0|0:0,0:0:0:0:
275,162,26076,1,8,0:0:0:0:
360,213,26544,1,2,0:0:0:0:
448,259,27013,6,0,P|445:306|444:365,2,100,8|2|8,0:0|0:0|0:0,0:0:0:0:
487,166,28419,1,10,0:0:0:0:
408,104,28888,2,0,L|402:49,2,50,0|0|2,0:0|0:0|0:0,0:0:0:0:
322,155,29826,2,0,B|272:166|272:166|217:147,1,100,0|2,0:0|0:0,0:0:0:0:
153,81,30763,6,0,B|106:65|106:65|56:76,1,100,8|2,0:0|0:0,0:0:0:0:
2,160,31701,2,0,P|5:207|11:261,1,100,8|2,0:0|0:0,0:0:0:0:
110,271,32638,2,0,P|106:223|101:170,1,100,8|2,0:0|0:0,0:0:0:0:
175,104,33576,1,8,0:0:0:0:
259,157,34044,1,2,0:0:0:0:
346,108,34513,6,0,P|393:93|445:111,1,100,8|2,0:0|0:0,0:0:0:0:
440,207,35451,2,0,P|393:222|341:204,1,100,8|2,0:0|0:0,0:0:0:0:
255,162,36388,2,0,P|205:162|139:162,1,100,8|2,0:0|0:0,0:0:0:0:
73,103,37326,2,0,L|66:41,2,50,8|0|2,0:0|0:0|0:0,0:0:0:0:
16,185,38263,6,0,P|1:229|20:285,1,100,8|2,0:0|0:0,0:0:0:0:
115,278,39201,2,0,P|129:230|114:184,1,100,8|2,0:0|0:0,0:0:0:0:
65,96,40138,2,0,P|117:96|170:97,1,100,8|2,0:0|0:0,0:0:0:0:
245,37,41076,1,8,0:0:0:0:
322,99,41544,1,2,0:0:0:0:
400,161,42013,6,0,P|395:212|392:267,1,100,8|2,0:0|0:0,0:0:0:0:
490,259,42951,2,0,P|493:209|498:160,2,100,0|2|8,0:0|0:0|0:0,0:0:0:0:
442,345,44357,1,2,0:0:0:0:
392,260,44826,2,0,P|342:247|280:267,1,100,8|2,0:0|0:0,0:0:0:0:
206,303,45763,6,0,B|157:307|113:270|113:270|74:313|7:306,2,200,2|2|4,0:0|0:0|0:1,0:0:0:0:
278,234,48107,2,0,B|296:195|296:195|296:127,1,100,2|0,0:0|0:0,0:0:0:0:
366,67,49044,1,2,0:0:0:0:
433,140,49513,6,0,B|433:197|433:197|451:236,1,100,4|8,0:0|0:0,0:0:0:0:
397,321,50451,1,10,0:0:0:0:
320,257,50919,1,8,0:0:0:0:
251,329,51388,2,0,P|200:326|150:325,1,100,10|8,0:0|0:0,0:0:0:0:
201,238,52326,2,0,P|150:235|100:234,1,100,10|8,0:0|0:0,0:0:0:0:
37,156,53263,6,0,P|21:111|42:49,1,100,10|10,0:0|0:0,0:0:0:0:
124,103,54201,1,10,0:0:0:0:
206,46,54669,1,10,0:0:0:0:
255,132,55138,2,0,P|305:133|364:132,1,100,10|10,0:0|0:0,0:0:0:0:
438,76,56076,2,0,L|429:24,2,50,10|2|8,0:0|0:0|0:3,0:0:0:0:
484,164,57013,6,0,P|483:217|480:281,1,100,10|10,0:0|0:0,0:0:0:0:
400,323,57951,1,10,0:0:0:0:
326,255,58419,1,10,0:0:0:0:
258,328,58888,2,0,B|231:287|231:287|231:224,1,100,10|10,0:0|0:0,0:0:0:0:
130,236,59826,2,0,B|130:286|130:286|103:327,1,100,10|10,0:0|0:0,0:0:0:0:
38,251,60763,6,0,L|37:142,1,100,10|10,0:0|0:0,0:0:0:0:
108,80,61701,2,0,L|102:30,2,50,10|2|8,0:0|0:0|0:0,0:0:0:0:
180,149,62638,2,0,P|230:136|282:155,1,100,10|2,0:0|0:0,0:0:0:0:
346,219,63575,2,0,L|336:272,2,50,10|2|2,0:0|0:0|0:0,0:0:0:0:
423,155,64513,6,0,P|443:117|442:55,2,100,4|10|10,0:0|0:0|0:0,0:0:0:0:
347,220,65919,1,10,0:0:0:0:
266,160,66388,2,0,P|220:151|165:170,1,100,10|10,0:0|0:0,0:0:0:0:
118,252,67326,2,0,P|117:303|120:357,1,100,10|10,0:0|0:0,0:0:0:0:
219,351,68263,6,0,P|220:301|220:251,1,100,10|10,0:0|0:0,0:0:0:0:
170,166,69201,1,10,0:0:0:0:
74,196,69669,1,10,0:0:0:0:
8,120,70138,2,0,P|0:74|-1:13,2,100,10|10|10,0:0|0:0|0:0,0:0:0:0:
74,196,71544,1,8,0:3:0:0:
169,166,72013,6,0,P|216:163|285:160,1,100,10|10,0:0|0:0,0:0:0:0:
305,67,72951,2,0,P|352:64|421:61,1,100,10|10,0:0|0:0,0:0:0:0:
481,125,73888,2,0,P|479:177|475:229,1,100,10|10,0:0|0:0,0:0:0:0:
382,261,74826,1,10,0:0:0:0:
443,339,75294,1,10,0:0:0:0:
351,378,75763,6,0,L|242:366,1,100,10|10,0:0|0:0,0:0:0:0:
173,304,76701,2,0,B|187:254|187:254|174:188,1,100,10|10,0:0|0:0,0:0:0:0:
77,206,77638,2,0,B|67:253|67:253|81:303,2,100,10|10|10,0:0|0:0|0:0,0:0:0:0:
130,121,79044,1,0,0:0:0:0:
194,44,79513,6,0,P|242:45|297:48,1,100,10|10,0:0|0:0,0:0:0:0:
368,115,80451,1,10,0:0:0:0:
452,62,80919,1,10,0:0:0:0:
506,145,81388,2,0,L|491:254,1,100,10|10,0:0|0:0,0:0:0:0:
410,301,82326,2,0,P|364:284|303:302,1,100,10|10,0:0|0:0,0:0:0:0:
234,352,83263,6,0,P|187:369|139:358,1,100,10|10,0:0|0:0,0:0:0:0:
67,288,84201,1,10,0:0:0:0:
122,204,84669,1,10,0:0:0:0:
256,192,85138,12,0,87013,0:0:0:0:
