osu file format v14

[General]
AudioFilename: audio.mp3
AudioLeadIn: 0
PreviewTime: 56957
Countdown: 0
SampleSet: Soft
StackLeniency: 0.9
Mode: 0
LetterboxInBreaks: 0
WidescreenStoryboard: 1

[Editor]
Bookmarks: 13320,19139,42411,56957,83139,94775,118048,132593,158775,170411,182048,187139,187866,193684,214048,216957,226775,231048,231139,231320,231411,231502,231684,231775,231957,232048,232139,232320,232411,232957,237502,237684,237775,237957,238048,238230,238775
DistanceSpacing: 1.1
BeatDivisor: 4
GridSize: 4
TimelineZoom: 1

[Metadata]
Title:DreamRiser
TitleUnicode:DreamRiser
Artist:ChouCho
ArtistUnicode:ちょうちょ
Creator:Zevonik
Version:Hard
Source:ガールズ&パンツァー
Tags:choucho dreamriser girlsundpanzer ガールズ&パンツァー GuP
BeatmapID:1946594
BeatmapSetID:921813

[Difficulty]
HPDrainRate:4
CircleSize:3
OverallDifficulty:6
ApproachRate:8
SliderMultiplier:1.6
SliderTickRate:1

[Events]
//Background and Video events
0,0,"Spring.jpg",0,0
//Break Periods
2,161884,163843
2,182248,186389
//Storyboard Layer 0 (Background)
//Storyboard Layer 1 (Fail)
//Storyboard Layer 2 (Pass)
//Storyboard Layer 3 (Foreground)
//Storyboard Sound Samples

[TimingPoints]
230,363.636363636364,4,2,0,100,1,0
230,-100,4,2,0,50,0,0
19139,-111.111111111111,4,2,0,50,0,0
42411,-133.333333333333,4,2,0,50,0,0
47866,-111.111111111111,4,2,0,50,0,0
56957,-100,4,2,0,50,0,0
94775,-125,4,2,0,50,0,0
106411,-111.111111111111,4,2,0,50,0,0
118048,-133.333333333333,4,2,0,50,0,0
123866,-107.52688172043,4,2,0,50,0,0
132593,-100,4,2,0,50,0,0
158775,-133.333333333333,4,2,0,50,0,0
170411,-107.52688172043,4,2,0,50,0,0
182048,-107.52688172043,4,2,0,50,0,0
193684,-100,4,2,0,50,0,0
214048,-107.52688172043,4,2,0,50,0,0
216957,-107.52688172043,4,2,0,50,0,0

[Colours]
Combo1 : 128,0,128
Combo2 : 255,128,0
Combo3 : 0,255,255
Combo4 : 0,128,0

[HitObjects]
83,257,1139,6,0,L|33:238,2,40
127,340,1684,2,0,L|287:337,1,160
396,314,2411,2,0,L|321:248,1,80
475,274,2957,6,0,P|501:178|421:55,1,240
343,43,3684,2,0,B|268:20|285:71|173:32,1,160
88,20,4230,1,0,0:0:0:0:
48,140,4593,5,0,0:0:0:0:
48,140,4775,1,0,0:0:0:0:
112,299,5320,2,0,L|66:289,4,40
173,318,5866,2,0,B|223:318|223:318|246:330|246:330|332:317,1,160
441,353,6411,1,0,0:0:0:0:
494,258,6593,2,0,L|487:93,1,160
397,16,7139,5,0,0:0:0:0:
358,134,7320,1,0,0:0:0:0:
272,53,7502,2,0,P|210:48|128:99,2,160
385,75,8411,1,0,0:0:0:0:
311,153,8593,1,0,0:0:0:0:
417,165,8775,2,0,P|432:211|370:293,2,160
286,28,9866,2,0,L|288:125,1,80
112,68,10411,5,0,0:0:0:0:
112,68,10593,2,0,L|112:169,1,80
38,203,10957,1,0,0:0:0:0:
38,203,11139,2,0,L|32:291,1,80
105,381,11502,1,0,0:0:0:0:
105,381,11684,2,0,L|113:282,1,80
198,263,12048,1,0,0:0:0:0:
198,263,12230,2,0,L|199:164,1,80
139,130,12593,2,0,P|174:104|278:139,1,160
425,154,13320,6,0,P|450:191|455:249,2,80
335,60,13866,2,0,P|292:42|248:44,2,80
348,180,14411,2,0,P|359:217|350:268,2,80
245,114,14957,2,0,P|220:73|188:49,2,80
132,187,15502,2,0,P|177:234|270:224,1,160
398,254,16230,6,0,L|496:249,2,80
274,295,16775,2,0,L|192:317,2,80
387,291,17320,1,0,0:0:0:0:
324,198,17502,2,0,P|297:156|358:77,1,160
459,48,18048,1,0,0:0:0:0:
434,160,18230,2,0,B|407:218|480:228|432:314,1,160
372,384,18775,1,0,0:0:0:0:
260,334,19139,6,0,L|183:335,1,71.9999978027344
88,309,19502,2,0,P|59:290|43:251,1,71.9999978027344
51,169,19866,2,0,P|56:124|127:58,1,143.999995605469
229,48,20411,2,0,P|283:48|312:55,2,71.9999978027344
142,118,20957,2,0,L|137:195,1,71.9999978027344
142,293,21320,1,0,0:0:0:0:
219,217,21502,1,0,0:0:0:0:
230,122,21684,1,0,0:0:0:0:
406,84,22048,6,0,P|426:117|423:160,1,71.9999978027344
337,182,22411,2,0,P|343:227|358:253,1,71.9999978027344
386,355,22775,2,0,B|339:354|339:354|308:328|308:328|251:326,1,143.999995605469
162,340,23320,2,0,P|123:339|74:322,2,71.9999978027344
276,337,23866,2,0,L|267:247,1,71.9999978027344
206,176,24230,1,0,0:0:0:0:
336,176,24411,1,0,0:0:0:0:
270,86,24593,1,0,0:0:0:0:
377,50,24775,6,0,P|421:52|450:82,1,71.9999978027344
415,158,25139,2,0,P|415:200|428:234,1,71.9999978027344
451,317,25502,2,0,P|402:335|315:305,1,143.999995605469
264,223,26048,1,0,0:0:0:0:
206,331,26230,2,0,B|164:346|164:346|150:244,1,143.999995605469
64,183,26775,1,0,0:0:0:0:
45,89,26957,2,0,B|117:64|105:121|189:103,1,143.999995605469
348,47,27684,5,0,0:0:0:0:
430,84,27866,2,0,L|432:157,1,71.9999978027344
353,222,28230,1,0,0:0:0:0:
353,222,28411,2,0,L|350:295,1,71.9999978027344
276,359,28775,2,0,P|242:346|215:311,1,71.9999978027344
224,225,29139,1,0,0:0:0:0:
114,133,29320,6,0,L|118:214,1,71.9999978027344
206,295,29684,2,0,L|206:217,1,71.9999978027344
300,136,30048,1,0,0:0:0:0:
300,231,30230,1,0,0:0:0:0:
419,289,30775,5,0,0:0:0:0:
419,289,30957,2,0,L|419:206,1,71.9999978027344
419,123,31320,2,0,P|407:81|387:55,1,71.9999978027344
297,25,31684,1,0,0:0:0:0:
251,123,31866,2,0,L|242:200,2,71.9999978027344
200,20,32411,2,0,P|159:31|132:62,1,71.9999978027344
102,129,32775,2,0,P|90:170|97:205,1,71.9999978027344
132,289,33139,2,0,L|195:348,1,71.9999978027344
301,332,33502,1,0,0:0:0:0:
301,332,33684,6,0,L|385:338,1,71.9999978027344
454,288,34048,2,0,P|463:247|452:210,1,71.9999978027344
453,114,34411,2,0,B|448:18|448:18|389:48,1,143.999995605469
333,124,34957,2,0,P|300:135|268:118,1,71.9999978027344
183,55,35320,1,0,0:0:0:0:
176,155,35502,2,0,L|172:238,1,71.9999978027344
194,321,35866,2,0,P|218:349|266:351,1,71.9999978027344
358,342,36230,2,0,P|379:306|386:259,1,71.9999978027344
355,167,36593,5,0,0:0:0:0:
355,167,36775,2,0,L|361:84,1,71.9999978027344
279,3,37139,2,0,L|275:80,1,71.9999978027344
230,200,37502,2,0,P|202:170|190:126,1,71.9999978027344
164,24,37866,2,0,B|98:24|98:24|66:59|94:97,1,143.999995605469
154,172,38411,1,0,0:0:0:0:
233,70,38593,2,0,B|280:72|280:72|291:101|291:101|361:106,1,143.999995605469
457,111,39139,1,0,0:0:0:0:
452,260,39502,6,0,L|375:251,1,71.9999978027344
327,338,39866,2,0,L|252:328,1,71.9999978027344
230,230,40230,2,0,L|152:222,1,71.9999978027344
116,310,40593,2,0,L|41:300,1,71.9999978027344
256,192,40957,12,0,42411,0:0:0:0:
80,334,42775,6,0,B|141:231|52:213|108:100,1,240.000009155274
218,24,43866,2,0,P|262:16|339:28,1,120.000004577637
387,142,44411,2,0,P|366:148|323:146,1,60.0000022888184
176,142,44957,2,0,P|134:130|118:115,2,60.0000022888184
342,203,45684,6,0,B|379:211|379:211|346:288,2,120.000004577637
226,300,46775,2,0,P|164:312|111:288,1,120.000004577637
64,184,47320,1,0,0:0:0:0:
125,51,47684,5,0,0:0:0:0:
203,106,47866,1,0,0:0:0:0:
286,45,48048,2,0,P|321:38|364:49,1,71.9999978027344
459,102,48411,1,0,0:0:0:0:
378,173,48593,2,0,P|341:188|235:178,2,143.999995605469
279,31,49684,5,0,0:0:0:0:
199,98,49866,1,0,0:0:0:0:
307,118,50048,1,0,0:0:0:0:
217,189,50230,1,0,0:0:0:0:
81,286,50593,6,0,P|62:244|66:199,1,71.9999978027344
73,113,50957,1,0,0:0:0:0:
150,55,51139,2,0,P|187:42|232:31,2,71.9999978027344
56,147,51684,2,0,B|38:182|38:182|39:291,1,143.999995605469
106,359,52230,1,0,0:0:0:0:
163,265,52411,2,0,P|199:228|289:249,1,143.999995605469
312,346,52957,1,0,0:0:0:0:
403,293,53139,2,0,L|473:242,1,71.9999978027344
482,159,53502,2,0,L|419:112,1,71.9999978027344
256,192,54048,12,0,55502,0:0:0:0:
110,86,56230,6,0,L|148:77,3,35.9999989013672
172,83,56593,2,0,L|218:109,3,35.9999989013672
242,100,56957,2,0,P|281:84|391:120,1,160
460,193,57502,2,0,L|493:280,1,80
407,335,57866,2,0,P|372:354|329:351,1,80
282,260,58230,2,0,B|190:232|215:298|127:266,1,160
48,189,58775,2,0,L|59:106,1,80
123,11,59139,1,0,0:0:0:0:
187,103,59320,1,0,0:0:0:0:
250,11,59502,1,0,0:0:0:0:
419,69,59866,6,0,L|503:78,2,80
294,58,60411,2,0,L|209:57,1,80
117,77,60775,2,0,P|84:95|68:138,1,80
43,226,61139,2,0,B|33:303|33:303|60:343|120:310,1,160
192,243,61684,2,0,P|226:217|267:208,1,80
405,242,62048,2,0,L|330:280,1,80
253,324,62411,2,0,L|206:341,4,40
363,291,62957,5,0,0:0:0:0:
309,208,63139,1,0,0:0:0:0:
406,171,63320,2,0,P|416:120|281:24,1,240
216,91,64048,1,0,0:0:0:0:
60,173,64411,1,0,0:0:0:0:
19,267,64593,1,0,0:0:0:0:
75,353,64775,2,0,B|148:353|148:353|178:320|178:320|304:320,1,240
438,218,65684,6,0,P|449:174|443:113,2,80
387,334,66230,2,0,L|299:338,1,80
240,243,66593,2,0,P|200:255|164:291,1,80
82,364,66957,2,0,P|68:311|148:151,1,240
259,211,67684,2,0,L|274:125,1,80
345,47,68048,2,0,L|390:38,5,40
426,36,68593,6,0,B|474:43|474:43|438:161,1,160
368,211,69139,2,0,P|355:244|371:291,1,80
360,384,69502,2,0,P|319:386|272:364,1,80
208,297,69866,2,0,B|183:255|183:255|236:202|167:152,1,160
105,81,70411,2,0,P|82:112|68:160,1,80
85,266,70775,1,0,0:0:0:0:
185,209,70957,1,0,0:0:0:0:
220,109,71139,2,0,L|230:66,3,40
246,33,71502,6,0,P|295:18|375:87,1,160
437,173,72048,2,0,L|346:172,1,80
222,224,72411,2,0,L|306:242,1,80
392,311,72775,2,0,P|342:332|226:309,1,160
196,206,73320,1,0,0:0:0:0:
313,148,73502,2,0,B|374:104|374:104|388:55|318:50,1,160
226,47,74048,2,0,L|172:51,4,40
230,148,74593,5,0,0:0:0:0:
328,197,74775,1,0,0:0:0:0:
282,294,74957,2,0,P|200:326|149:209,1,240
130,110,75684,1,0,0:0:0:0:
338,38,76048,1,0,0:0:0:0:
430,91,76230,1,0,0:0:0:0:
335,147,76411,2,0,B|278:238|367:268|300:380,1,240
174,340,77320,6,0,P|135:343|94:333,2,80
302,345,77866,2,0,P|341:338|373:306,1,80
402,204,78230,2,0,L|394:116,1,80
323,46,78593,2,0,B|288:13|245:29|245:29|184:175,1,240
191,281,79320,1,0,0:0:0:0:
306,239,79502,2,0,P|336:216|336:168,1,80
316,74,79866,1,0,0:0:0:0:
113,24,80230,6,0,L|109:113,1,80
215,139,80593,2,0,L|216:228,1,80
117,289,80957,2,0,L|174:355,1,80
287,350,81320,2,0,L|331:273,1,80
370,189,81684,2,0,P|368:146|353:95,2,80
169,64,83139,6,0,L|85:52,2,80
280,109,83684,2,0,L|356:162,2,80
143,149,84230,2,0,L|64:184,2,80
264,204,84775,2,0,L|323:278,2,80
208,75,85320,2,0,P|144:24|75:59,1,160
63,237,86048,6,0,P|48:270|70:315,2,80
151,158,86593,2,0,P|188:147|231:157,2,80
147,284,87139,2,0,P|153:321|188:349,2,80
200,180,87684,2,0,P|234:158|277:152,2,80
226,282,88230,2,0,P|266:305|313:306,1,80
327,201,88593,1,0,0:0:0:0:
425,127,88957,6,0,P|413:90|383:51,2,80
355,232,89502,2,0,P|365:271|395:302,2,80
303,121,90048,2,0,P|295:85|265:47,2,80
246,225,90593,2,0,P|247:269|276:309,2,80
183,116,91139,2,0,P|168:71|137:39,1,80
58,2,91502,1,0,0:0:0:0:
256,192,91866,12,0,94048,0:0:0:0:
184,319,94775,6,0,P|229:331|272:333,1,64
329,326,95139,2,0,P|367:320|408:295,1,64
445,248,95502,2,0,P|460:202|420:135,1,128
333,108,96048,1,0,0:0:0:0:
333,108,96230,2,0,L|284:175,1,64
243,239,96593,2,0,P|205:264|126:240,2,128
189,97,97684,5,0,0:0:0:0:
189,97,97866,2,0,L|275:87,1,64
349,82,98230,1,0,0:0:0:0:
441,75,98411,2,0,B|464:99|464:99|450:149,1,64
416,212,98775,2,0,P|395:238|356:247,2,64
432,112,99320,1,0,0:0:0:0:
337,119,99502,2,0,B|256:122|256:122|262:74,2,128
483,209,100593,6,0,L|405:214,1,64
327,216,100957,1,0,0:0:0:0:
327,216,101139,2,0,L|264:195,1,64
198,137,101502,2,0,P|173:96|145:81,1,64
75,110,101866,2,0,P|58:144|78:235,1,128
146,280,102411,1,0,0:0:0:0:
178,188,102593,2,0,P|188:141|218:122,1,64
361,98,103139,1,0,0:0:0:0:
396,257,103502,6,0,P|374:287|341:302,2,64
416,170,104048,2,0,P|414:137|387:100,1,64
321,48,104411,2,0,P|299:70|295:118,1,64
310,211,104775,1,0,0:0:0:0:
310,211,104866,1,0,0:0:0:0:
310,211,104957,2,0,L|235:239,1,64
210,319,105320,2,0,L|143:348,1,64
14,315,105684,2,0,L|84:285,1,64
262,313,106411,6,0,P|270:266|263:222,1,71.9999978027344
205,152,106775,2,0,P|229:114|261:103,1,71.9999978027344
373,102,107139,2,0,P|415:111|467:206,1,143.999995605469
427,295,107684,2,0,P|390:316|358:321,2,71.9999978027344
425,175,108230,2,0,L|419:102,1,71.9999978027344
339,26,108593,1,0,0:0:0:0:
290,111,108775,1,0,0:0:0:0:
243,197,108957,1,0,0:0:0:0:
107,142,109320,6,0,P|64:141|35:155,2,71.9999978027344
228,160,109866,1,0,0:0:0:0:
165,242,110048,2,0,P|164:289|193:323,1,71.9999978027344
302,311,110411,2,0,P|351:307|389:312,2,71.9999978027344
176,309,110957,1,0,0:0:0:0:
228,204,111139,2,0,P|254:166|203:80,1,143.999995605469
99,107,111684,1,0,0:0:0:0:
214,84,111866,1,0,0:0:0:0:
99,107,112048,1,0,0:0:0:0:
214,84,112230,6,0,P|270:82|351:123,1,143.999995605469
354,233,112775,2,0,L|283:205,1,71.9999978027344
153,229,113139,2,0,P|184:252|221:264,1,71.9999978027344
332,285,113502,2,0,B|375:292|375:292|384:181,1,143.999995605469
369,70,114048,1,0,0:0:0:0:
259,84,114230,2,0,P|219:99|131:53,1,143.999995605469
37,18,114775,1,0,0:0:0:0:
21,178,115139,6,0,L|98:206,1,71.9999978027344
186,149,115502,2,0,L|262:177,1,71.9999978027344
329,299,115866,2,0,L|251:271,1,71.9999978027344
252,172,116230,2,0,L|172:141,1,71.9999978027344
256,192,116593,12,0,118048,0:0:0:0:
317,89,118411,6,0,P|345:53|421:51,2,120.000004577637
308,222,119502,2,0,P|266:206|212:135,1,120.000004577637
153,62,120048,2,0,P|124:103|120:199,1,120.000004577637
337,187,120957,1,0,0:0:0:0:
337,187,121139,1,0,0:0:0:0:
285,81,121320,2,0,P|265:51|185:22,2,120.000004577637
341,258,122411,1,0,0:0:0:0:
379,160,122593,1,0,0:0:0:0:
332,68,122775,2,0,P|306:44|275:35,1,60.0000022888184
86,103,123320,5,0,0:0:0:0:
190,145,123502,1,0,0:0:0:0:
93,208,123684,1,0,0:0:0:0:
191,262,123866,2,0,P|230:273|268:271,1,74.4000023272706
375,251,124230,2,0,B|403:225|403:225|370:114,2,148.800004654541
238,355,125320,1,0,0:0:0:0:
197,260,125502,1,0,0:0:0:0:
239,164,125684,1,0,0:0:0:0:
345,119,125866,2,0,P|399:99|452:231,1,223.200006981812
383,353,126775,5,0,0:0:0:0:
315,261,126957,2,0,P|286:231|250:218,1,74.4000023272706
177,293,127320,2,0,P|128:295|46:241,1,148.800004654541
62,130,127866,1,0,0:0:0:0:
144,71,128048,2,0,B|204:29|233:98|299:67,1,148.800004654541
441,157,128775,5,0,0:0:0:0:
337,184,128957,1,0,0:0:0:0:
385,282,129139,1,0,0:0:0:0:
276,318,129320,2,0,L|191:347,1,74.4000023272706
256,192,129684,12,0,131139,0:0:0:0:
110,260,131866,6,0,L|94:213,3,37.2000011636353
107,190,132230,2,0,L|119:144,3,37.2000011636353
108,115,132593,6,0,P|97:77|113:35,2,80
164,210,133139,2,0,P|204:237|245:232,1,80
347,215,133502,2,0,P|381:181|382:139,1,80
352,45,133866,2,0,B|318:23|318:23|199:91,1,160
141,162,134411,2,0,P|119:206|135:231,1,80
268,238,134775,1,0,0:0:0:0:
191,334,134957,1,0,0:0:0:0:
133,228,135139,1,0,0:0:0:0:
267,78,135502,6,0,P|308:71|401:136,1,160
416,255,136048,2,0,L|341:214,1,80
234,207,136411,2,0,P|203:182|185:128,1,80
255,50,136775,2,0,B|268:8|229:-2|229:-2|136:21,1,160
58,84,137320,2,0,P|35:129|30:165,1,80
74,257,137684,1,0,0:0:0:0:
183,259,137866,1,0,0:0:0:0:
238,160,138048,2,0,L|268:118,4,40
321,35,138593,5,0,0:0:0:0:
407,107,138775,1,0,0:0:0:0:
308,180,138957,2,0,L|114:328,1,240
49,217,139684,1,0,0:0:0:0:
141,55,140048,1,0,0:0:0:0:
175,153,140230,1,0,0:0:0:0:
271,63,140411,2,0,B|357:36|394:127|394:127|465:69,1,240
497,197,141320,6,0,P|459:231|351:231,1,160
265,180,141866,2,0,P|220:164|181:164,1,80
86,183,142230,2,0,P|52:217|44:251,1,80
93,331,142593,2,0,B|169:329|169:329|203:349|203:349|331:345,1,240
434,335,143320,2,0,P|444:288|444:252,1,80
375,167,143684,2,0,L|354:121,5,40
334,100,144230,6,0,P|295:64|192:68,1,160
112,149,144775,2,0,L|181:202,1,80
235,282,145139,2,0,P|210:319|161:330,1,80
66,369,145502,2,0,B|13:378|13:378|19:252,1,160
18,167,146048,2,0,P|48:131|81:116,1,80
189,124,146411,1,0,0:0:0:0:
145,231,146593,1,0,0:0:0:0:
270,208,146775,2,0,L|329:198,4,40
243,320,147320,6,0,P|194:320|163:306,1,80
81,233,147684,2,0,L|78:150,1,80
172,22,148048,2,0,L|173:109,1,80
166,244,148411,2,0,B|146:284|170:308|170:308|265:274,1,160
373,220,148957,1,0,0:0:0:0:
314,114,149139,2,0,P|291:71|380:11,1,160
435,106,149684,2,0,L|463:145,4,40
332,18,150230,5,0,0:0:0:0:
217,0,150411,1,0,0:0:0:0:
118,53,150593,2,0,P|74:98|171:201,1,240
226,104,151320,1,0,0:0:0:0:
376,169,151684,1,0,0:0:0:0:
328,274,151866,1,0,0:0:0:0:
215,226,152048,2,0,B|155:213|155:213|275:64,1,240
344,198,152957,6,0,P|354:252|346:286,2,80
299,91,153502,2,0,P|274:51|241:30,1,80
173,101,153866,2,0,P|132:99|94:85,1,80
0,38,154230,2,0,P|8:97|44:190,1,160
134,262,154775,2,0,L|216:240,1,80
313,193,155139,1,0,0:0:0:0:
219,110,155320,1,0,0:0:0:0:
333,86,155502,2,0,P|379:85|415:105,1,80
500,237,155866,6,0,L|406:248,1,80
253,193,156230,2,0,L|352:180,1,80
505,100,156593,2,0,L|415:107,1,80
237,49,156957,2,0,L|323:38,1,80
505,25,157320,2,0,L|414:34,2,80
256,192,158775,12,0,161684,0:0:0:0:
152,334,164593,6,0,P|125:259|137:198,1,120.000004577637
101,86,165139,2,0,P|154:77|241:101,1,120.000004577637
336,80,165684,2,0,P|345:145|334:215,1,120.000004577637
279,286,166230,2,0,P|234:312|217:313,2,60.0000022888184
362,212,166775,1,0,0:0:0:0:
152,170,167139,1,0,0:0:0:0:
328,68,167502,6,0,B|365:52|365:52|361:151,1,120.000004577637
332,243,168048,2,0,B|314:271|314:271|223:271,1,120.000004577637
139,204,168593,2,0,B|135:167|135:167|229:137,1,120.000004577637
340,124,169139,1,0,0:0:0:0:
262,46,169320,1,0,0:0:0:0:
156,76,169502,2,0,P|124:89|99:109,1,60.0000022888184
54,193,169866,2,0,L|39:224,6,30.0000011444092
208,49,170775,6,0,P|271:46|348:102,2,148.800004654541
89,113,171866,2,0,P|126:131|236:152,1,148.800004654541
353,172,172411,2,0,P|392:188|424:220,2,74.4000023272706
239,160,172957,1,0,0:0:0:0:
302,69,173139,1,0,0:0:0:0:
186,53,173320,2,0,P|144:58|75:137,1,148.800004654541
96,224,173866,2,0,P|130:258|170:269,1,74.4000023272706
271,267,174230,2,0,P|310:253|330:218,1,74.4000023272706
345,109,174593,6,0,P|362:72|457:100,1,148.800004654541
447,197,175139,2,0,P|450:239|443:277,2,74.4000023272706
362,97,175684,2,0,P|347:53|319:32,2,74.4000023272706
317,233,176230,6,0,L|299:311,2,74.4000023272706
273,110,176775,2,0,L|243:39,2,74.4000023272706
199,227,177320,2,0,L|159:298,2,74.4000023272706
192,95,177866,2,0,L|165:15,2,74.4000023272706
88,193,178411,2,0,P|68:234|75:264,1,74.4000023272706
195,299,178775,2,0,L|276:299,1,74.4000023272706
383,257,179139,2,0,P|405:216|405:182,1,74.4000023272706
354,81,179502,2,0,P|311:68|278:71,1,74.4000023272706
159,122,179866,2,0,P|127:152|120:183,1,74.4000023272706
191,301,180230,2,0,L|272:310,1,74.4000023272706
394,252,180593,2,0,L|394:159,1,74.4000023272706
256,192,180957,12,0,182048,0:0:0:0:
98,59,187139,5,0,0:0:0:0:
305,66,187502,1,0,0:0:0:0:
98,59,187866,1,0,0:0:0:0:
235,274,188775,5,0,0:0:0:0:
442,281,189138,1,0,0:0:0:0:
345,160,190048,6,0,P|298:171|269:195,1,74.4000023272706
206,253,190411,2,0,P|166:244|133:219,1,74.4000023272706
124,121,190775,2,0,P|130:77|155:54,2,74.4000023272706
208,210,191320,2,0,P|257:217|301:208,1,74.4000023272706
379,139,191684,2,0,P|409:179|415:206,1,74.4000023272706
365,320,192048,1,0,0:0:0:0:
190,49,192957,6,0,L|175:105,3,37.2000011636353
192,115,193320,2,0,L|207:164,3,37.2000011636353
202,188,193684,6,0,P|188:232|250:324,1,160
351,289,194230,2,0,P|388:262|410:230,1,80
412,101,194593,2,0,P|376:127|354:166,1,80
306,242,194957,2,0,P|265:258|159:206,1,160
119,116,195502,2,0,P|111:65|136:38,1,80
251,40,195866,1,0,0:0:0:0:
231,155,196048,1,0,0:0:0:0:
352,167,196230,2,0,L|399:172,4,40
231,155,196775,5,0,0:0:0:0:
107,148,196957,1,0,0:0:0:0:
56,253,197139,2,0,P|81:291|132:308,1,80
233,306,197502,2,0,L|315:307,1,80
432,230,197866,2,0,L|263:225,1,160
141,208,198411,1,0,0:0:0:0:
272,166,198593,2,0,L|440:171,1,160
476,70,199139,1,0,0:0:0:0:
353,62,199320,2,0,L|311:61,2,40
359,176,199684,5,0,0:0:0:0:
293,277,199866,1,0,0:0:0:0:
223,193,200048,2,0,P|196:151|138:142,1,80
59,150,200411,2,0,L|17:161,2,40
176,141,200775,2,0,P|219:128|254:111,1,80
340,46,201139,1,0,0:0:0:0:
457,57,201320,1,0,0:0:0:0:
483,157,201502,2,0,P|486:202|472:237,1,80
393,326,201866,2,0,P|368:288|365:246,1,80
366,137,202230,2,0,P|352:88|319:64,1,80
215,54,202593,6,0,P|171:59|137:73,2,80
368,62,203139,2,0,L|426:66,2,40
155,138,203684,1,0,0:0:0:0:
330,159,204048,2,0,P|382:160|412:173,2,80
194,192,204593,2,0,P|149:184|119:164,1,80
74,63,204957,2,0,L|48:24,2,40
199,65,205320,6,0,L|290:62,1,80
400,62,205684,1,0,0:0:0:0:
319,157,205866,2,0,P|279:174|239:174,1,80
133,169,206230,2,0,L|90:160,2,40
254,197,206593,2,0,P|299:189|343:175,1,80
415,117,206957,2,0,P|441:77|445:38,2,80
364,213,207502,2,0,P|364:259|378:296,1,80
442,369,207866,1,0,0:0:0:0:
487,263,208048,1,0,0:0:0:0:
467,141,208230,6,0,P|431:74|341:32,1,160
273,97,208775,2,0,P|230:99|189:86,1,80
79,56,209139,2,0,L|47:31,2,40
125,168,209502,2,0,B|186:217|186:217|234:220|234:220|325:289,1,240
437,309,210230,2,0,P|479:275|493:229,1,80
450,151,210593,2,0,L|424:115,4,40
370,231,211139,6,0,L|290:222,1,80
243,114,211502,2,0,L|247:29,1,80
113,79,211866,2,0,L|115:-8,1,80
21,167,212230,2,0,L|29:249,1,80
116,342,212593,2,0,P|159:367|211:359,2,80
256,192,214048,12,0,216593,0:0:0:0:
172,102,216957,6,0,P|161:55|137:20,2,74.4000023272706
184,220,217502,2,0,P|191:275|206:300,2,74.4000023272706
266,109,218048,2,0,P|306:79|338:71,2,74.4000023272706
237,241,218593,2,0,P|263:282|287:305,2,74.4000023272706
248,89,219139,2,0,P|298:37|385:33,1,148.800004654541
435,156,219866,6,0,P|451:200|452:234,2,74.4000023272706
300,94,220411,2,0,P|254:83|218:92,2,74.4000023272706
368,223,220957,2,0,P|367:266|349:297,2,74.4000023272706
231,167,221502,2,0,P|185:155|154:157,2,74.4000023272706
232,278,222048,2,0,P|184:307|152:306,1,74.4000023272706
79,224,222411,1,0,0:0:0:0:
321,54,222775,6,0,L|240:52,2,74.4000023272706
438,144,223320,2,0,L|524:149,2,74.4000023272706
308,198,223866,2,0,L|229:193,2,74.4000023272706
431,278,224411,2,0,L|527:278,2,74.4000023272706
326,348,224957,2,0,L|245:339,1,74.4000023272706
121,320,225320,1,0,0:0:0:0:
70,160,225684,5,0,0:0:0:0:
186,78,225866,1,0,0:0:0:0:
186,78,225957,1,0,0:0:0:0:
186,78,226048,1,0,0:0:0:0:
255,175,226230,5,0,0:0:0:0:
332,84,226411,1,0,0:0:0:0:
332,84,226502,1,0,0:0:0:0:
332,84,226593,1,0,0:0:0:0:
398,188,226775,5,0,0:0:0:0:
256,192,226957,12,0,232957,0:0:0:0:
