osu file format v14

[General]
AudioFilename: ChouCho - DreamRiser.mp3
AudioLeadIn: 500
PreviewTime: 57164
Countdown: 0
SampleSet: Soft
StackLeniency: 0.7
Mode: 3
LetterboxInBreaks: 0
SpecialStyle: 0
WidescreenStoryboard: 0

[Editor]
Bookmarks: 19528
DistanceSpacing: 0.8
BeatDivisor: 4
GridSize: 4
TimelineZoom: 1.4

[Metadata]
Title:DreamRiser (TV size)
TitleUnicode:DreamRiser (TV size)
Artist:ChouCho
ArtistUnicode:ChouCho
Creator:Amiichii
Version:Easy
Source:GIRLS und PANZER
Tags:Opening ガールズ&パンツァー ガルパン Garuzu ando Pantsa Actas Sensha-dou ちょうちょ
BeatmapID:1126879
BeatmapSetID:531735

[Difficulty]
HPDrainRate:7
CircleSize:4
OverallDifficulty:7
ApproachRate:9
SliderMultiplier:1.8
SliderTickRate:1

[Events]
//Background and Video events
0,0,"Background.jpg",0,0
Video,0,"Video.avi"
//Break Periods
//Storyboard Layer 0 (Background)
//Storyboard Layer 1 (Fail)
//Storyboard Layer 2 (Pass)
//Storyboard Layer 3 (Foreground)
//Storyboard Sound Samples

[TimingPoints]
2074,363.636363636364,4,2,1,35,1,0
57346,-100,4,2,1,35,0,1
68892,-100,4,2,1,35,0,0
68983,-100,4,2,1,35,0,1
82437,-100,4,2,1,35,0,0

[HitObjects]
320,192,1528,5,2,0:0:0:0:
64,192,1710,1,8,0:0:0:0:
448,192,1710,1,0,0:0:0:0:
320,192,2074,1,8,0:0:0:0:
192,192,2255,1,8,0:0:0:0:
64,192,2801,1,8,0:0:0:0:
448,192,2983,1,2,0:0:0:0:
320,192,3164,1,2,0:0:0:0:
64,192,3346,1,4,0:0:0:0:
192,192,3346,1,0,0:0:0:0:
320,192,3710,1,2,0:0:0:0:
192,192,3892,1,8,0:0:0:0:
320,192,4074,1,4,0:0:0:0:
448,192,4074,1,0,0:0:0:0:
192,192,4437,1,2,0:0:0:0:
64,192,4619,1,8,0:0:0:0:
448,192,4619,1,0,0:0:0:0:
320,192,4983,1,8,0:0:0:0:
192,192,5164,1,8,0:0:0:0:
448,192,5710,1,2,0:0:0:0:
192,192,5892,1,2,0:0:0:0:
64,192,6074,1,8,0:0:0:0:
320,192,6255,1,4,0:0:0:0:
448,192,6255,1,0,0:0:0:0:
192,192,6619,1,2,0:0:0:0:
320,192,6801,1,2,0:0:0:0:
192,192,6983,1,4,0:0:0:0:
64,192,6983,1,0,0:0:0:0:
320,192,7346,1,8,0:0:0:0:
192,192,7528,1,12,0:0:0:0:
448,192,7710,1,2,0:0:0:0:
320,192,7892,1,2,0:0:0:0:
64,192,7892,128,4,9346:0:0:0:0:
448,192,8255,1,8,0:0:0:0:
192,192,8619,1,2,0:0:0:0:
320,192,8983,1,8,0:0:0:0:
192,192,9346,1,4,0:0:0:0:
448,192,9346,1,0,0:0:0:0:
320,192,9710,1,8,0:0:0:0:
64,192,9892,1,4,0:0:0:0:
448,192,9892,1,0,0:0:0:0:
192,192,10255,1,2,0:0:0:0:
320,192,10437,1,8,0:0:0:0:
448,192,10801,1,12,0:0:0:0:
64,192,11164,1,2,0:0:0:0:
320,192,11346,1,12,0:0:0:0:
448,192,11710,1,2,0:0:0:0:
192,192,11892,1,12,0:0:0:0:
320,192,12255,1,2,0:0:0:0:
64,192,12437,1,12,0:0:0:0:
192,192,12801,1,2,0:0:0:0:
448,192,12983,128,12,13346:0:0:0:0:
64,192,13346,128,12,13710:0:0:0:0:
320,192,13710,1,8,0:0:0:0:
448,192,13710,1,4,0:0:0:0:
192,192,14074,1,2,0:0:0:0:
320,192,14255,1,8,0:0:0:0:
64,192,14619,1,2,0:0:0:0:
448,192,14801,1,8,0:0:0:0:
320,192,15164,1,2,0:0:0:0:
64,192,15346,1,8,0:0:0:0:
448,192,15710,1,2,0:0:0:0:
192,192,15892,1,8,0:0:0:0:
448,192,16255,128,8,16619:0:0:0:0:
64,192,16619,1,8,0:0:0:0:
320,192,16983,1,2,0:0:0:0:
64,192,17164,1,8,0:0:0:0:
192,192,17528,1,2,0:0:0:0:
448,192,17710,1,8,0:0:0:0:
64,192,17892,1,4,0:0:0:0:
192,192,17892,1,0,0:0:0:0:
448,192,18255,1,2,0:0:0:0:
192,192,18437,1,8,0:0:0:0:
320,192,18619,1,4,0:0:0:0:
64,192,18619,1,0,0:0:0:0:
448,192,18983,1,2,0:0:0:0:
192,192,19164,1,4,0:0:0:0:
64,192,19346,1,8,0:0:0:0:
320,192,19528,1,2,0:0:0:0:
448,192,19528,1,4,0:0:0:0:
192,192,19892,1,2,0:0:0:0:
320,192,20255,1,2,0:0:0:0:
64,192,20619,1,2,0:0:0:0:
448,192,20983,1,2,0:0:0:0:
192,192,21346,1,2,0:0:0:0:
320,192,21710,1,2,0:0:0:0:
448,192,22074,1,2,0:0:0:0:
64,192,22437,1,2,0:0:0:0:
448,192,22801,1,2,0:0:0:0:
320,192,23164,1,2,0:0:0:0:
64,192,23528,1,2,0:0:0:0:
192,192,23892,1,2,0:0:0:0:
448,192,24255,1,2,0:0:0:0:
192,192,24619,1,2,0:0:0:0:
320,192,24983,1,2,0:0:0:0:
64,192,25164,1,0,0:0:0:0:
448,192,25346,1,2,0:0:0:0:
192,192,25710,1,2,0:0:0:0:
320,192,26074,1,2,0:0:0:0:
64,192,26437,1,2,0:0:0:0:
192,192,26801,1,2,0:0:0:0:
448,192,27164,1,2,0:0:0:0:
64,192,27528,1,2,0:0:0:0:
320,192,27892,1,2,0:0:0:0:
192,192,28255,1,2,0:0:0:0:
64,192,28619,1,2,0:0:0:0:
448,192,28983,1,2,0:0:0:0:
192,192,29346,1,2,0:0:0:0:
320,192,29528,1,0,0:0:0:0:
64,192,29710,1,2,0:0:0:0:
192,192,30074,1,2,0:0:0:0:
448,192,30437,1,8,0:0:0:0:
192,192,30619,1,8,0:0:0:0:
448,192,31164,1,4,0:0:0:0:
64,192,31164,1,2,0:0:0:0:
320,192,31528,1,8,0:0:0:0:
64,192,31892,1,2,0:0:0:0:
448,192,32074,1,2,0:0:0:0:
192,192,32255,1,8,0:0:0:0:
320,192,32437,1,2,0:0:0:0:
448,192,32801,1,2,0:0:0:0:
64,192,32983,1,8,0:0:0:0:
192,192,33346,1,2,0:0:0:0:
448,192,33528,1,2,0:0:0:0:
320,192,33710,1,8,0:0:0:0:
64,192,34074,1,2,0:0:0:0:
320,192,34437,1,8,0:0:0:0:
448,192,34801,1,2,0:0:0:0:
64,192,34983,1,2,0:0:0:0:
320,192,35164,1,8,0:0:0:0:
192,192,35346,1,2,0:0:0:0:
320,192,35710,1,2,0:0:0:0:
64,192,35892,1,8,0:0:0:0:
448,192,36074,1,2,0:0:0:0:
192,192,36437,1,2,0:0:0:0:
320,192,36619,1,8,0:0:0:0:
448,192,36983,1,2,0:0:0:0:
64,192,37346,1,8,0:0:0:0:
448,192,37710,1,2,0:0:0:0:
192,192,37892,1,2,0:0:0:0:
320,192,38074,1,8,0:0:0:0:
64,192,38255,1,2,0:0:0:0:
320,192,38619,1,2,0:0:0:0:
192,192,38801,1,8,0:0:0:0:
64,192,39164,1,2,0:0:0:0:
448,192,39346,1,2,0:0:0:0:
320,192,39528,1,8,0:0:0:0:
192,192,39892,1,2,0:0:0:0:
64,192,40255,1,8,0:0:0:0:
448,192,40619,1,2,0:0:0:0:
320,192,40801,1,2,0:0:0:0:
192,192,40983,1,8,0:0:0:0:
64,192,41346,1,4,0:0:0:0:
320,192,41346,1,0,0:0:0:0:
448,192,41710,1,8,0:0:0:0:
192,192,41892,1,4,0:0:0:0:
64,192,41892,1,0,0:0:0:0:
320,192,42255,1,2,0:0:0:0:
192,192,42437,1,8,0:0:0:0:
448,192,42801,128,4,44255:0:0:0:0:
64,192,42801,1,0,0:0:0:0:
192,192,43346,1,2,0:0:0:0:
64,192,43528,1,8,0:0:0:0:
192,192,44255,128,2,45710:0:0:0:0:
320,192,44437,1,8,0:0:0:0:
64,192,44983,1,8,0:0:0:0:
448,192,45710,128,2,47164:0:0:0:0:
64,192,46437,1,8,0:0:0:0:
192,192,47164,128,4,47528:0:0:0:0:
320,192,47528,1,8,0:0:0:0:
448,192,47710,1,4,0:0:0:0:
64,192,47710,128,0,48074:0:0:0:0:
320,192,48074,1,2,0:0:0:0:
192,192,48255,1,8,0:0:0:0:
448,192,48437,1,4,0:0:0:0:
64,192,48437,1,2,0:0:0:0:
192,192,48801,1,2,0:0:0:0:
448,192,48983,1,8,0:0:0:0:
320,192,49346,1,2,0:0:0:0:
64,192,49528,1,2,0:0:0:0:
448,192,49710,1,8,0:0:0:0:
64,192,50074,1,4,0:0:0:0:
320,192,50074,1,0,0:0:0:0:
192,192,50437,1,8,0:0:0:0:
448,192,50619,1,4,0:0:0:0:
64,192,50619,1,0,0:0:0:0:
320,192,50983,1,2,0:0:0:0:
192,192,51164,1,8,0:0:0:0:
320,192,51528,1,4,0:0:0:0:
448,192,51528,1,0,0:0:0:0:
64,192,51892,1,2,0:0:0:0:
192,192,52074,1,4,0:0:0:0:
320,192,52074,1,0,0:0:0:0:
448,192,52437,1,2,0:0:0:0:
320,192,52619,1,8,0:0:0:0:
64,192,52801,1,4,0:0:0:0:
192,192,52801,1,0,0:0:0:0:
448,192,53164,1,2,0:0:0:0:
64,192,53346,1,8,0:0:0:0:
192,192,53710,1,2,0:0:0:0:
448,192,53892,1,2,0:0:0:0:
64,192,54074,1,8,0:0:0:0:
448,192,54437,1,8,0:0:0:0:
64,192,54801,1,2,0:0:0:0:
320,192,54983,1,8,0:0:0:0:
192,192,55346,1,2,0:0:0:0:
448,192,55528,1,8,0:0:0:0:
64,192,55710,1,8,0:0:0:0:
448,192,56619,128,6,56983:0:0:0:0:
64,192,56983,128,2,57346:0:0:0:0:
192,192,57346,1,4,0:0:0:0:
448,192,57346,1,0,0:0:0:0:
320,192,57710,1,8,0:0:0:0:
64,192,58074,1,2,0:0:0:0:
192,192,58255,1,2,0:0:0:0:
448,192,58437,1,8,0:0:0:0:
320,192,58619,1,2,0:0:0:0:
192,192,58983,1,2,0:0:0:0:
448,192,59164,1,8,0:0:0:0:
320,192,59528,1,2,0:0:0:0:
64,192,59710,1,2,0:0:0:0:
448,192,59892,1,8,0:0:0:0:
192,192,60255,1,2,0:0:0:0:
320,192,60619,1,8,0:0:0:0:
64,192,60983,1,2,0:0:0:0:
448,192,61164,1,2,0:0:0:0:
192,192,61346,1,8,0:0:0:0:
320,192,61528,1,2,0:0:0:0:
64,192,61892,1,2,0:0:0:0:
320,192,62074,1,8,0:0:0:0:
448,192,62437,1,2,0:0:0:0:
320,192,62619,1,2,0:0:0:0:
192,192,62801,1,8,0:0:0:0:
64,192,62983,1,8,0:0:0:0:
448,192,63164,1,2,0:0:0:0:
192,192,63528,1,8,0:0:0:0:
448,192,63892,1,2,0:0:0:0:
320,192,64074,1,2,0:0:0:0:
64,192,64255,1,8,0:0:0:0:
448,192,64437,1,2,0:0:0:0:
192,192,64801,1,2,0:0:0:0:
320,192,64983,1,8,0:0:0:0:
64,192,65346,1,2,0:0:0:0:
192,192,65528,1,2,0:0:0:0:
448,192,65710,1,8,0:0:0:0:
320,192,66074,1,2,0:0:0:0:
64,192,66437,1,8,0:0:0:0:
448,192,66801,1,2,0:0:0:0:
192,192,66983,1,2,0:0:0:0:
64,192,67164,1,8,0:0:0:0:
320,192,67346,1,2,0:0:0:0:
192,192,67710,1,2,0:0:0:0:
448,192,67892,1,8,0:0:0:0:
64,192,68255,128,2,68619:0:0:0:0:
448,192,68619,128,2,68983:0:0:0:0:
192,192,68983,1,4,0:0:0:0:
64,192,68983,1,0,0:0:0:0:
320,192,69346,1,8,0:0:0:0:
64,192,69710,1,2,0:0:0:0:
192,192,69892,1,2,0:0:0:0:
448,192,70074,1,8,0:0:0:0:
320,192,70255,1,2,0:0:0:0:
64,192,70619,1,2,0:0:0:0:
448,192,70801,1,8,0:0:0:0:
192,192,71164,1,2,0:0:0:0:
320,192,71346,1,2,0:0:0:0:
64,192,71528,1,12,0:0:0:0:
448,192,71892,128,4,72255:0:0:0:0:
192,192,71892,1,2,0:0:0:0:
64,192,72255,1,8,0:0:0:0:
192,192,72437,128,4,72801:0:0:0:0:
320,192,72437,1,2,0:0:0:0:
448,192,72801,1,2,0:0:0:0:
320,192,72983,1,8,0:0:0:0:
64,192,73164,128,4,73528:0:0:0:0:
192,192,73164,1,2,0:0:0:0:
320,192,73528,1,2,0:0:0:0:
448,192,73710,1,8,0:0:0:0:
192,192,73892,128,4,74255:0:0:0:0:
64,192,73892,1,2,0:0:0:0:
448,192,74255,1,0,0:0:0:0:
320,192,74437,1,8,0:0:0:0:
64,192,74619,1,8,0:0:0:0:
448,192,74801,1,2,0:0:0:0:
192,192,75164,1,8,0:0:0:0:
320,192,75528,1,2,0:0:0:0:
64,192,75710,1,2,0:0:0:0:
192,192,75892,1,8,0:0:0:0:
448,192,76074,1,4,0:0:0:0:
320,192,76437,1,2,0:0:0:0:
64,192,76619,1,8,0:0:0:0:
192,192,76983,1,2,0:0:0:0:
448,192,77164,1,2,0:0:0:0:
64,192,77346,1,8,0:0:0:0:
192,192,77710,1,4,0:0:0:0:
448,192,78074,1,8,0:0:0:0:
320,192,78437,1,2,0:0:0:0:
64,192,78619,1,2,0:0:0:0:
448,192,78801,1,8,0:0:0:0:
192,192,78983,1,4,0:0:0:0:
320,192,79346,1,2,0:0:0:0:
64,192,79528,1,8,0:0:0:0:
448,192,79892,128,2,80255:0:0:0:0:
64,192,80255,128,8,80619:0:0:0:0:
320,192,80619,1,4,0:0:0:0:
448,192,80983,1,8,0:0:0:0:
64,192,81346,1,8,0:0:0:0:
320,192,81710,1,8,0:0:0:0:
448,192,82074,1,8,0:0:0:0:
192,192,82437,1,8,0:0:0:0:
320,192,83528,1,4,0:0:0:0:
64,192,83528,1,2,0:0:0:0:
448,192,83892,1,2,0:0:0:0:
192,192,84074,1,8,0:0:0:0:
64,192,84437,1,2,0:0:0:0:
320,192,84619,1,8,0:0:0:0:
192,192,84983,1,2,0:0:0:0:
448,192,85164,1,8,0:0:0:0:
320,192,85528,1,2,0:0:0:0:
64,192,85710,1,8,0:0:0:0:
448,192,86074,128,8,86437:0:0:0:0:
64,192,86437,1,4,0:0:0:0:
192,192,86437,1,0,0:0:0:0:
320,192,86801,1,8,0:0:0:0:
192,192,86983,1,4,0:0:0:0:
64,192,86983,1,0,0:0:0:0:
320,192,87346,1,8,0:0:0:0:
64,192,87528,128,4,90437:0:0:0:0:
448,192,87528,128,2,90437:0:0:0:0:
