osu file format v14

[General]
AudioFilename: audio.mp3
AudioLeadIn: 0
PreviewTime: 56891
Countdown: 0
SampleSet: Soft
StackLeniency: 0.5
Mode: 0
LetterboxInBreaks: 0
WidescreenStoryboard: 1

[Editor]
Bookmarks: 13254,19073,30709,47982,56891,68527,71436,74345,80164,91800,93254
DistanceSpacing: 1
BeatDivisor: 4
GridSize: 32
TimelineZoom: 2.3

[Metadata]
Title:DreamRiser (TV Size)
TitleUnicode:DreamRiser (TV Size)
Artist:ChouCho
ArtistUnicode:ChouCho
Creator:imaginative
Version:Normal
Source:ガールズ&パンツァー
Tags:tycani fuiba_fuyu fuiba fuyu girls und panzer opening anime japanese j-pop jpop pop tanks Anchovy アンチョビ Anchobi Anzai Chiyomi 安斎 千代美 nishizumi miho 西住 みほ takebe saori 武部 沙織 isuzu hana 五十鈴 華 akiyama yukari 秋山 優花里 reizei mako 冷泉 麻子 anglerfish ankou team あんこうチーム イコモチ Ikomochi rswxx 陰 祭 insai kage_matu_re 椎名エクセル shiina ekuseru komekueyo
BeatmapID:3693346
BeatmapSetID:1801349

[Difficulty]
HPDrainRate:4
CircleSize:3.5
OverallDifficulty:4
ApproachRate:5.5
SliderMultiplier:1.05
SliderTickRate:1

[Events]
//Background and Video events
0,0,"normal.png",0,0
//Break Periods
//Storyboard Layer 0 (Background)
//Storyboard Layer 1 (Fail)
//Storyboard Layer 2 (Pass)
//Storyboard Layer 3 (Foreground)
//Storyboard Layer 4 (Overlay)
//Storyboard Sound Samples

[TimingPoints]
-4183,363.636363636364,4,2,1,55,1,0
1635,-105.263157894737,4,2,1,75,0,0
1999,-105.263157894737,4,2,1,55,0,0
2908,-105.263157894737,4,2,1,65,0,0
4544,-105.263157894737,4,2,1,75,0,0
4908,-105.263157894737,4,2,1,55,0,0
5817,-105.263157894737,4,2,1,65,0,0
7453,-100,4,2,1,70,0,0
13271,-100,4,2,1,75,0,1
13272,-105.263157894737,4,2,1,75,0,1
19089,-105.263157894737,4,2,1,55,0,0
19090,-111.111111111111,4,2,1,55,0,0
30726,-105.263157894737,4,2,1,65,0,0
42362,-105.263157894737,4,2,1,55,0,0
42726,-111.111111111111,4,2,1,55,0,0
46726,-111.111111111111,4,2,1,75,0,0
47999,-105.263157894737,4,2,1,70,0,0
53999,-97.0873786407767,4,2,1,85,0,0
56181,-105.263157894737,4,2,1,85,0,0
56907,-105.263157894737,4,2,1,80,0,1
56908,-100,4,2,1,80,0,1
82362,-100,4,2,1,70,0,0
83089,-100,4,2,1,75,0,1
87089,-100,4,2,1,80,0,0
87453,-100,4,2,1,60,0,0
88908,-100,4,2,1,40,0,0
90362,-100,4,2,1,20,0,0
91817,-100,4,2,1,5,0,0

[Colours]
Combo1 : 121,255,106
Combo2 : 128,255,214

[HitObjects]
24,144,1635,6,0,P|29:176|17:201,1,49.8749986681939,6|4,3:2|3:2,0:0:0:0:
0,236,1999,1,2,0:2:0:0:
50,327,2362,1,10,0:2:0:0:
50,327,2545,2,0,P|74:333|98:327,1,49.8749986681939,2|0,3:2|3:2,0:0:0:0:
137,296,2908,6,0,B|172:301|172:301|195:321|195:321|245:328,1,99.7499973363877,6|0,3:2|3:2,0:0:0:0:
276,305,3453,1,8,0:2:0:0:
276,305,3635,2,0,B|311:310|311:310|334:330|334:330|384:337,1,99.7499973363877,4|0,3:2|3:2,0:0:0:0:
416,344,4181,1,8,0:2:0:0:
488,276,4544,6,0,L|481:220,1,49.8749986681939,6|4,3:2|3:2,0:0:0:0:
475,176,4908,1,2,0:2:0:0:
403,117,5271,1,2,3:2:0:0:
403,117,5452,2,0,L|410:61,1,49.8749986681939,2|8,3:2|0:2,0:0:0:0:
416,17,5817,6,0,P|373:-1|316:24,1,99.7499973363877,6|0,3:2|3:2,0:0:0:0:
292,53,6362,1,8,0:2:0:0:
292,53,6544,2,0,P|245:69|200:51,1,99.7499973363877,4|2,3:2|3:2,0:0:0:0:
152,37,7090,2,0,L|157:94,1,49.8749986681939,10|2,0:2|3:2,0:0:0:0:
131,133,7453,6,0,B|124:172|124:172|135:193|135:193|128:243,1,105,6|8,3:2|0:2,0:0:0:0:
117,338,8181,2,0,P|87:343|64:335,1,52.5,0|2,3:2|3:2,0:0:0:0:
16,320,8544,1,10,0:2:0:0:
8,215,8908,6,0,L|5:160,1,52.5,6|0,3:2|0:0,0:0:0:0:
29,118,9271,1,8,0:2:0:0:
29,118,9453,2,0,B|89:102|79:148|133:130,1,105,4|0,3:2|3:2,0:0:0:0:
175,104,9999,1,8,0:2:0:0:
269,149,10362,6,0,L|262:211,2,52.5,12|0|0,0:2|3:2|3:2,0:0:0:0:
296,105,10907,1,12,0:2:0:0:
390,56,11271,1,0,3:2:0:0:
390,56,11452,2,0,L|383:-6,2,52.5,12|0|0,0:2|3:2|3:2,0:0:0:0:
413,103,11999,1,12,0:2:0:0:
512,67,12362,1,0,3:2:0:0:
512,67,12543,2,0,P|505:122|500:170,1,105,12|4,0:2|3:1,0:0:0:0:
511,271,13272,6,0,B|454:255|463:299|412:282,1,99.7499973363877,12|0,0:2|3:2,0:0:0:0:
366,279,13817,2,0,L|306:272,1,49.8749986681939,8|0,0:2|3:2,0:0:0:0:
286,314,14181,1,0,3:2:0:0:
286,314,14362,2,0,B|229:329|238:285|187:302,1,99.7499973363877,8|0,0:2|3:2,0:0:0:0:
146,323,14908,1,8,0:2:0:0:
44,287,15271,1,0,3:2:0:0:
44,287,15453,2,0,L|38:234,1,49.8749986681939,8|0,0:2|3:2,0:0:0:0:
55,190,15817,1,8,0:2:0:0:
32,92,16181,6,0,B|97:77|97:77|110:93|122:101,1,99.7499973363877,8|0,0:2|3:2,0:0:0:0:
148,141,16725,2,0,P|174:145|199:137,1,49.8749986681939,8|0,0:2|3:2,0:0:0:0:
241,115,17090,2,0,L|292:122,1,49.8749986681939,0|8,3:2|0:2,0:0:0:0:
339,131,17453,6,0,B|354:196|354:196|340:206|330:221,1,99.7499973363877,4|0,3:2|3:2,0:0:0:0:
309,266,17998,1,8,0:2:0:0:
309,266,18181,2,0,B|294:331|294:331|308:341|318:356,1,99.7499973363877,4|0,3:2|3:2,0:0:0:0:
359,380,18726,1,8,0:2:0:0:
443,337,19090,6,0,L|436:285,1,47.2499985580445,6|2,3:2|0:2,0:0:0:0:
417,247,19453,2,0,L|424:195,2,47.2499985580445,2|2|2,3:2|0:2|3:2,0:0:0:0:
328,280,20181,2,0,P|299:285|271:276,1,47.2499985580445,2|2,3:2|0:2,0:0:0:0:
251,245,20544,2,0,L|244:186,2,47.2499985580445,2|2|2,3:2|0:2|3:2,0:0:0:0:
183,309,21271,1,0,3:2:0:0:
107,251,21634,1,0,3:2:0:0:
30,194,21999,6,0,L|23:142,1,47.2499985580445,2|2,3:2|0:2,0:0:0:0:
44,104,22362,2,0,L|52:52,2,47.2499985580445,2|2|2,3:2|0:2|3:2,0:0:0:0:
136,140,23090,1,2,3:2:0:0:
136,140,23271,2,0,B|187:151|177:109|234:129,1,94.499997116089,2|2,0:2|0:2,0:0:0:0:
270,142,23817,1,2,3:2:0:0:
358,175,24181,1,0,3:2:0:0:
494,136,24726,1,2,0:2:0:0:
494,136,24908,6,0,B|469:159|469:159|485:226,1,94.499997116089,2|2,3:2|3:2,0:0:0:0:
500,261,25453,1,2,0:2:0:0:
420,312,25817,1,2,0:2:0:0:
335,353,26181,2,0,B|303:345|303:345|279:359|279:359|225:343,1,94.499997116089,2|0,0:2|0:0,0:0:0:0:
198,333,26726,2,0,L|191:282,2,47.2499985580445,2|2|0,3:2|0:2|3:2,0:0:0:0:
60,321,27635,1,2,0:2:0:0:
60,321,27817,6,0,B|45:262|45:262|60:250|72:234,1,94.499997116089,2|2,3:2|3:2,0:0:0:0:
101,204,28362,1,2,0:2:0:0:
62,117,28726,2,0,P|105:102|148:121,1,94.499997116089,2|2,0:2|0:2,0:0:0:0:
190,141,29271,5,10,0:2:0:0:
265,197,29635,2,0,L|321:188,1,47.2499985580445,10|0,0:2|3:2,0:0:0:0:
362,184,29999,1,10,0:2:0:0:
362,184,30181,1,10,0:2:0:0:
504,228,30726,6,0,L|497:280,1,49.8749986681939,6|2,3:2|0:2,0:0:0:0:
477,323,31090,2,0,P|452:328|424:319,1,49.8749986681939,10|2,0:2|0:2,0:0:0:0:
381,305,31453,1,2,3:2:0:0:
293,352,31817,2,0,P|268:357|240:348,1,49.8749986681939,10|2,0:2|3:2,0:0:0:0:
198,331,32181,2,0,L|208:274,1,49.8749986681939,2|2,0:2|3:2,0:0:0:0:
217,233,32544,1,10,0:2:0:0:
145,164,32907,2,0,L|135:107,1,49.8749986681939,0|0,3:2|3:2,0:0:0:0:
126,66,33271,1,8,0:2:0:0:
213,18,33635,6,0,P|242:15|269:26,1,49.8749986681939,2|2,3:2|0:2,0:0:0:0:
305,45,33999,2,0,P|334:48|361:37,1,49.8749986681939,10|2,0:2|0:2,0:0:0:0:
397,17,34362,1,2,3:2:0:0:
468,87,34726,1,10,0:2:0:0:
468,87,34907,2,0,L|461:141,1,49.8749986681939,2|2,3:2|0:2,0:0:0:0:
426,171,35271,1,2,3:2:0:0:
426,171,35453,2,0,L|434:277,1,99.7499973363877,10|0,0:2|0:0,0:0:0:0:
358,337,36181,2,0,P|332:342|305:334,1,49.8749986681939,8|2,0:2|0:2,0:0:0:0:
260,331,36544,6,0,B|239:263|239:263|251:253|262:237,1,99.7499973363877,2|10,3:2|0:2,0:0:0:0:
269,193,37090,1,2,0:2:0:0:
250,95,37453,2,0,L|299:87,1,49.8749986681939,2|8,3:2|0:2,0:0:0:0:
331,48,37817,2,0,B|386:39|377:80|430:67,1,99.7499973363877,2|2,3:2|3:2,0:0:0:0:
477,58,38362,1,10,0:2:0:0:
477,58,38544,1,2,0:2:0:0:
502,161,38907,1,0,3:2:0:0:
502,161,39090,2,0,L|496:216,1,49.8749986681939,8|2,0:2|0:2,0:0:0:0:
456,239,39453,6,0,P|462:303|467:349,2,99.7499973363877,2|10|2,3:2|0:2|3:2,0:0:0:0:
421,210,40361,1,0,3:2:0:0:
421,210,40544,1,10,0:2:0:0:
342,147,40908,6,0,B|307:153|307:153|285:174|285:174|236:184,1,99.7499973363877,6|8,3:2|0:2,0:0:0:0:
203,168,41453,2,0,B|168:174|168:174|146:195|146:195|97:205,1,99.7499973363877,4|0,3:2|3:2,0:0:0:0:
63,212,41999,1,8,0:2:0:0:
17,294,42362,5,4,3:2:0:0:
68,373,42726,2,0,L|116:368,1,47.2499985580445,2|0,0:2|3:2,0:0:0:0:
156,343,43090,2,0,B|184:331|196:317|196:317|219:327|246:332,1,94.499997116089,10|2,0:2|0:2,0:0:0:0:
332,351,43817,2,0,P|354:320|336:265,1,94.499997116089,2|2,3:2|0:2,0:0:0:0:
311,230,44363,1,2,3:2:0:0:
345,142,44726,2,0,B|309:126|269:146|287:162|246:181|206:162,1,141.749995674133,2|0,0:2|3:2,0:0:0:0:
122,134,45635,6,0,L|113:192,1,47.2499985580445,2|0,0:2|3:2,0:0:0:0:
73,203,45999,2,0,L|89:305,1,94.499997116089,10|2,0:2|0:2,0:0:0:0:
152,365,46726,6,0,P|183:368|204:358,1,47.2499985580445,6|0,3:2|0:0,0:0:0:0:
241,341,47090,1,10,0:2:0:0:
241,341,47271,1,6,3:2:0:0:
332,365,47635,2,0,P|363:368|384:358,1,47.2499985580445,2|10,3:2|0:2,0:0:0:0:
422,340,47999,6,0,B|440:274|440:274|421:262|407:238,1,99.7499973363877,6|0,3:2|3:2,0:0:0:0:
380,218,48544,2,0,L|386:166,1,49.8749986681939,10|0,0:2|0:0,0:0:0:0:
396,119,48907,2,0,B|339:103|348:147|297:130,1,99.7499973363877,2|10,3:2|0:2,0:0:0:0:
205,102,49635,6,0,L|209:157,1,49.8749986681939,6|2,3:2|0:2,0:0:0:0:
211,205,49999,1,10,0:2:0:0:
211,205,50181,2,0,P|160:223|117:197,1,99.7499973363877,6|0,3:2|3:2,0:0:0:0:
92,163,50726,1,8,0:2:0:0:
97,63,51090,6,0,L|150:56,1,49.8749986681939,6|2,3:2|0:2,0:0:0:0:
197,44,51453,1,10,0:2:0:0:
197,44,51635,2,0,B|254:28|245:72|296:55,1,99.7499973363877,6|2,3:2|3:2,0:0:0:0:
341,45,52181,1,10,0:2:0:0:
341,45,52362,6,0,B|358:64|374:72|374:72|360:129,1,99.7499973363877,6|0,3:2|3:2,0:0:0:0:
347,175,52908,1,8,0:2:0:0:
375,270,53271,2,0,P|324:278|277:246,1,99.7499973363877,2|8,3:2|0:2,0:0:0:0:
190,199,53999,6,0,L|196:145,1,54.0749995461845,14|0,0:2|3:2,0:0:0:0:
166,106,54362,1,0,3:2:0:0:
166,106,54545,2,0,P|137:100|109:107,1,54.0749995461845,12|0,0:2|3:2,0:0:0:0:
71,134,54908,1,0,3:2:0:0:
71,134,55090,1,12,0:2:0:0:
71,134,55271,1,12,0:2:0:0:
214,338,56181,2,0,L|269:331,1,49.8749986681939,2|8,3:2|0:2,0:0:0:0:
305,358,56544,2,0,L|362:364,1,49.8749986681939,2|8,3:2|3:3,0:0:0:0:
406,352,56908,6,0,P|429:311|402:258,1,105,6|10,3:2|0:2,0:0:0:0:
384,213,57453,2,0,L|331:217,1,52.5,2|0,0:2|3:2,0:0:0:0:
283,237,57817,1,2,3:2:0:0:
192,290,58181,6,0,B|164:290|142:303|142:303|127:282|94:270,1,105,6|0,3:2|3:2,0:0:0:0:
53,247,58726,2,0,L|60:191,1,52.5,10|0,0:2|0:0,0:0:0:0:
95,155,59090,2,0,L|90:99,1,52.5,2|2,3:2|3:2,0:0:0:0:
81,50,59453,1,8,0:2:0:0:
178,12,59816,6,0,B|216:17|216:17|239:38|239:38|286:44,1,105,2|10,3:2|0:2,0:0:0:0:
326,51,60362,2,0,P|332:76|322:104,1,52.5,2|0,0:2|3:2,0:0:0:0:
302,148,60725,1,2,3:2:0:0:
256,242,61089,6,0,B|316:226|306:272|360:254,1,105,6|0,3:2|3:2,0:0:0:0:
408,245,61635,2,0,L|414:189,1,52.5,10|0,0:2|0:0,0:0:0:0:
443,150,61999,1,2,3:2:0:0:
443,150,62181,2,0,L|435:92,1,52.5,2|8,3:2|0:2,0:0:0:0:
380,8,62727,6,0,P|354:2|325:11,1,52.5,0|2,3:2|0:2,0:0:0:0:
289,40,63089,1,10,0:2:0:0:
289,40,63271,2,0,B|218:27|218:27|187:59,1,105,2|0,0:2|3:2,0:0:0:0:
167,96,63817,1,8,0:2:0:0:
167,96,63998,5,4,3:2:0:0:
67,128,64362,1,2,3:2:0:0:
67,128,64544,2,0,L|71:189,1,52.5,10|2,0:2|0:2,0:0:0:0:
102,222,64908,2,0,L|90:287,2,52.5,2|0|8,3:2|3:2|0:2,0:0:0:0:
176,147,65635,6,0,B|236:134|223:175|282:159,1,105,2|10,3:2|0:2,0:0:0:0:
326,142,66181,2,0,L|332:200,1,52.5,2|0,0:2|3:2,0:0:0:0:
365,234,66544,2,0,L|359:292,1,52.5,2|8,3:2|0:2,0:0:0:0:
338,334,66908,6,0,P|391:318|441:352,1,105,6|0,3:2|3:2,0:0:0:0:
474,372,67453,1,10,0:2:0:0:
511,273,67817,2,0,L|501:212,1,52.5,2|2,3:2|3:2,0:0:0:0:
469,179,68181,2,0,L|475:123,1,52.5,8|0,0:2|3:2,0:0:0:0:
482,74,68545,6,0,B|447:65|447:65|418:75|418:75|369:63,1,105,6|10,3:2|0:2,0:0:0:0:
330,51,69090,2,0,L|275:60,1,52.5,2|0,0:2|3:2,0:0:0:0:
226,70,69453,1,2,3:2:0:0:
131,24,69817,6,0,B|115:40|95:47|95:47|113:115,1,105,6|0,3:2|3:2,0:0:0:0:
119,158,70362,2,0,P|151:167|180:158,1,52.5,10|0,0:2|0:0,0:0:0:0:
220,151,70726,2,0,P|211:183|220:212,1,52.5,2|2,3:2|3:2,0:0:0:0:
230,252,71089,1,8,0:2:0:0:
269,348,71452,6,0,B|241:351|220:366|220:366|203:347|169:340,1,105,6|10,3:2|0:2,0:0:0:0:
124,328,71999,2,0,L|117:272,1,52.5,6|0,3:2|0:0,0:0:0:0:
116,223,72362,2,0,P|150:215|173:220,1,52.5,2|8,3:2|0:2,0:0:0:0:
218,229,72726,6,0,B|241:157|241:157|211:119,1,105,6|0,3:2|3:2,0:0:0:0:
184,97,73271,1,10,0:2:0:0:
184,97,73452,2,0,B|129:79|132:128|80:107,1,105,6|0,3:2|3:2,0:0:0:0:
32,93,73999,1,8,0:2:0:0:
36,197,74362,6,0,L|39:255,1,52.5,4|2,3:2|0:2,0:0:0:0:
65,294,74726,1,10,0:2:0:0:
65,294,74908,2,0,P|112:309|160:279,1,105,2|0,0:2|3:2,0:0:0:0:
194,245,75453,1,8,0:2:0:0:
194,245,75635,5,4,3:2:0:0:
302,261,75999,1,2,3:2:0:0:
302,261,76181,2,0,L|294:203,1,52.5,10|2,0:2|0:2,0:0:0:0:
260,168,76545,2,0,B|267:129|267:129|256:108|256:108|263:58,1,105,2|8,3:2|0:2,0:0:0:0:
352,14,77271,6,0,P|404:-1|450:32,1,105,6|10,3:2|0:2,0:0:0:0:
482,60,77817,2,0,L|474:117,1,52.5,2|0,0:2|3:2,0:0:0:0:
457,162,78181,2,0,P|428:163|404:150,1,52.5,2|8,3:2|0:2,0:0:0:0:
361,127,78544,6,0,L|369:244,1,105,6|0,3:2|3:2,0:0:0:0:
368,284,79090,1,10,0:2:0:0:
292,356,79453,2,0,L|238:349,1,52.5,2|10,3:2|0:2,0:0:0:0:
190,366,79817,2,0,L|136:359,1,52.5,0|8,3:2|0:2,0:0:0:0:
86,372,80181,6,0,P|64:330|89:277,1,105,6|8,3:2|0:2,0:0:0:0:
121,242,80726,1,0,0:0:0:0:
121,242,80907,2,0,L|112:186,1,52.5,8|0,0:2|0:0,0:0:0:0:
98,139,81271,1,8,0:2:0:0:
82,35,81635,6,0,L|137:28,1,52.5,14|0,0:2|0:0,0:0:0:0:
183,10,81999,2,0,L|238:17,1,52.5,12|0,0:2|0:0,0:0:0:0:
287,22,82362,1,2,0:2:0:0:
409,192,83090,6,0,B|374:197|374:197|351:217|351:217|301:224,1,105,14|0,0:2|3:2,0:0:0:0:
261,234,83635,2,0,P|254:262|267:291,1,52.5,8|0,0:2|3:2,0:0:0:0:
286,336,83999,1,0,3:2:0:0:
286,336,84180,2,0,B|251:341|251:341|228:361|228:361|178:368,1,105,8|0,0:2|3:2,0:0:0:0:
137,375,84725,1,8,0:2:0:0:
50,324,85090,1,0,3:2:0:0:
50,324,85271,2,0,L|44:271,1,52.5,8|0,0:2|0:0,0:0:0:0:
39,219,85635,1,8,0:2:0:0:
95,130,85998,6,0,L|101:77,1,52.5,4|0,3:2|0:0,0:0:0:0:
103,29,86362,1,8,0:2:0:0:
103,29,86545,2,0,B|160:14|151:58|207:40,1,105,4|8,3:2|0:2,0:0:0:0:
256,37,87089,1,4,3:2:0:0:
256,192,87181,12,0,91817,0:0:0:0:
