osu file format v14

[General]
AudioFilename: audio.mp3
AudioLeadIn: 0
PreviewTime: 67296
Countdown: 0
SampleSet: Soft
StackLeniency: 0.4
Mode: 0
LetterboxInBreaks: 0
WidescreenStoryboard: 0

[Editor]
DistanceSpacing: 0.4
BeatDivisor: 4
GridSize: 16
TimelineZoom: 1.9

[Metadata]
Title:BLESS YoUr NAME
TitleUnicode:BLESS YoUr NAME
Artist:ChouCho
ArtistUnicode:ChouCho
Creator:face0xff
Version:Expert
Source:ハイスクールD×D BorN
Tags:highschool dxd high school opening op season 3 s3 three chou cho
BeatmapID:1555815
BeatmapSetID:737238

[Difficulty]
HPDrainRate:5.8
CircleSize:4
OverallDifficulty:9
ApproachRate:9.6
SliderMultiplier:1.8
SliderTickRate:1

[Events]
//Background and Video events
0,0,"849413.png",0,0
//Break Periods
//Storyboard Layer 0 (Background)
//Storyboard Layer 1 (Fail)
//Storyboard Layer 2 (Pass)
//Storyboard Layer 3 (Foreground)
//Storyboard Sound Samples

[TimingPoints]
1612,315.789473684211,4,2,1,90,1,0
1612,-142.857142857143,4,2,1,90,0,0
6664,-83.3333333333333,4,2,1,90,0,0
7454,-100,4,2,1,90,0,0
7769,-111.111111111111,4,2,1,90,0,0
11085,-166.666666666667,4,2,1,90,0,0
11717,-166.666666666667,4,2,1,90,0,1
14401,-66.6666666666667,4,2,1,90,0,1
19454,-100,4,2,1,90,0,1
21506,-100,4,2,1,50,0,0
21822,-111.111111111111,4,2,1,50,0,0
24348,-117.647058823529,4,2,1,50,0,0
31138,-83.3333333333333,4,2,1,50,0,0
31454,-58.8235294117647,4,2,1,50,0,0
31927,-83.3333333333333,4,2,1,70,0,0
34296,-100,4,2,1,70,0,0
34927,-111.111111111111,4,2,1,70,0,0
35559,-90.9090909090909,4,2,1,70,0,0
37927,-111.111111111111,4,2,1,70,0,0
38875,-100,4,2,1,70,0,0
42033,-125,4,2,1,70,0,0
47085,-142.857142857143,4,2,1,50,0,0
51033,-142.857142857143,4,2,1,75,0,0
51506,-90.9090909090909,4,2,1,75,0,0
52612,-142.857142857143,4,2,1,75,0,0
53085,-90.9090909090909,4,2,1,75,0,0
53401,-125,4,2,1,75,0,0
53875,-100,4,2,1,75,0,0
56559,-100,4,2,1,80,0,0
59401,-100,4,2,1,80,0,0
62243,-100,4,2,1,90,0,0
67296,-76.9230769230769,4,2,1,100,0,1
68401,-100,4,2,1,100,0,1
70296,-83.3333333333333,4,2,1,100,0,1
70927,-111.111111111111,4,2,1,100,0,1
72822,-76.9230769230769,4,2,1,100,0,1
73454,-100,4,2,1,100,0,1
73927,-76.9230769230769,4,2,1,100,0,1
74401,-66.6666666666667,4,2,1,100,0,1
74875,-55.5555555555556,4,2,1,100,0,1
75980,-71.4285714285714,4,2,1,100,0,1
82927,-90.9090909090909,4,2,1,100,0,1
84980,-74.0740740740741,4,2,1,100,0,1
86085,-125,4,2,1,100,0,1
86243,-76.9230769230769,4,2,1,90,0,0
86875,-166.666666666667,4,2,1,90,0,0

[Colours]
Combo1 : 74,134,255
Combo2 : 249,108,186
Combo3 : 248,33,54
SliderBorder : 237,203,135
SliderTrackOverride : 20,31,27

[HitObjects]
44,292,1612,6,0,B|113:275|159:314|159:314|146:244|146:244|200:313|248:304|248:304|269:308|269:308|284:296|284:296|302:292|319:284,1,377.999988464356,2|0,0:1|0:1,0:1:0:0:
429,283,2875,6,0,B|426:314|426:314|423:346|467:350|470:314|470:314|478:223|478:223|484:155|436:151|443:75|443:75|446:31,1,377.999988464356,2|0,0:1|0:1,0:1:0:0:
221,113,4138,5,2,0:1:0:0:
445,51,4296,1,10,0:1:0:0:
452,49,4454,1,10,0:1:0:0:
158,189,4612,5,2,0:1:0:0:
424,268,4769,1,10,0:1:0:0:
112,289,4927,5,2,0:1:0:0:
356,159,5085,1,6,0:1:0:0:
150,87,5243,1,10,0:1:0:0:
445,188,5401,5,2,0:1:0:0:
204,275,5559,1,10,0:1:0:0:
197,277,5717,1,10,0:1:0:0:
432,293,5875,5,0,0:1:0:0:
120,290,6033,5,0,0:1:0:0:
161,277,6111,1,0,0:1:0:0:
204,275,6190,1,0,0:1:0:0:
247,281,6269,1,0,0:1:0:0:
287,297,6348,1,0,0:1:0:0:
322,322,6427,1,0,0:1:0:0:
363,336,6506,1,0,0:1:0:0:
404,325,6585,1,0,0:1:0:0:
432,293,6664,6,0,P|451:260|455:308,1,107.999996704102,2|0,0:1|0:1,0:1:0:0:
307,201,6980,1,2,0:1:0:0:
461,82,7138,2,0,B|413:62|413:62|354:61,1,107.999996704102,10|2,0:1|0:1,0:1:0:0:
125,107,7454,2,0,P|167:139|228:146,1,90,10|2,0:1|0:1,0:1:0:0:
388,231,7769,2,0,P|332:285|256:270,1,161.999995056153,2|2,0:1|0:1,0:1:0:0:
277,259,8164,1,2,0:1:0:0:
304,245,8243,1,2,0:1:0:0:
74,332,8401,5,2,0:1:0:0:
218,176,8559,5,10,0:1:0:0:
185,342,8717,5,0,0:1:0:0:
36,161,8875,2,0,L|50:240,1,80.9999975280763,10|10,0:1|0:1,0:1:0:0:
222,95,9190,2,0,L|217:175,1,80.9999975280763,2|2,0:1|0:1,0:1:0:0:
413,149,9506,1,2,0:1:0:0:
329,342,9664,5,2,0:1:0:0:
402,40,9980,5,2,0:1:0:0:
202,244,10296,5,2,0:1:0:0:
202,244,11085,6,0,B|263:225|310:245|310:245|336:242|330:208|307:221,1,161.999995056153,2|0,0:1|0:1,0:1:0:0:
334,102,11717,5,6,1:1:0:0:
304,289,11875,1,2,0:1:0:0:
334,102,12033,1,10,0:1:0:0:
147,180,12190,5,2,0:1:0:0:
394,224,12348,1,10,0:1:0:0:
209,321,12506,5,2,0:1:0:0:
209,321,12585,1,2,0:1:0:0:
209,321,12664,1,2,0:1:0:0:
201,84,12822,1,2,0:1:0:0:
86,308,12980,5,2,1:1:0:0:
83,100,13138,1,2,0:1:0:0:
273,268,13296,1,10,0:1:0:0:
305,45,13454,5,2,0:1:0:0:
156,247,13612,1,10,0:1:0:0:
390,144,13769,5,2,0:1:0:0:
398,144,13848,1,2,0:1:0:0:
405,146,13927,1,10,0:1:0:0:
265,321,14085,5,2,0:1:0:0:
255,325,14164,1,2,0:1:0:0:
244,327,14243,1,2,1:1:0:0:
306,99,14401,6,0,B|343:63|343:63|428:41,1,135.000005149842,2|10,0:1|0:1,0:1:0:0:
362,229,14717,2,0,P|287:237|220:203,1,135.000005149842,2|10,0:1|0:1,0:1:0:0:
405,146,15033,1,2,0:1:0:0:
210,50,15190,1,2,0:1:0:0:
148,164,15348,6,0,P|172:89|219:43,1,135.000005149842,2|2,0:1|0:1,0:1:0:0:
243,333,15664,2,0,B|266:253|266:253|255:200,1,135.000005149842,2|10,0:1|0:1,0:1:0:0:
35,273,15980,2,0,L|172:253,1,135.000005149842,2|10,0:1|0:1,0:1:0:0:
68,181,16296,1,2,0:1:0:0:
54,178,16375,1,2,0:1:0:0:
40,175,16454,1,10,0:1:0:0:
299,248,16612,1,0,0:1:0:0:
443,56,16769,1,2,1:1:0:0:
171,151,16927,5,2,0:1:0:0:
428,60,17085,1,10,0:1:0:0:
86,137,17243,5,2,0:1:0:0:
456,200,17401,1,10,0:1:0:0:
174,335,17559,5,2,0:1:0:0:
306,106,17717,1,10,0:1:0:0:
102,239,17875,5,2,0:1:0:0:
371,337,18033,1,10,1:1:0:0:
44,44,18190,5,2,0:1:0:0:
64,327,18348,1,10,0:1:0:0:
386,156,18506,1,2,0:1:0:0:
55,182,18664,5,14,0:1:0:0:
95,169,18742,1,2,0:1:0:0:
137,166,18821,1,2,0:1:0:0:
179,170,18900,1,2,0:1:0:0:
217,185,18979,1,2,0:1:0:0:
236,222,19058,1,2,0:1:0:0:
267,250,19137,1,2,0:1:0:0:
307,264,19216,1,2,0:1:0:0:
349,264,19295,1,10,0:1:0:0:
463,246,19454,5,10,0:1:0:0:
184,338,19612,5,2,0:1:0:0:
341,172,19769,1,10,0:1:0:0:
353,161,19927,1,10,0:1:0:0:
88,237,20085,5,2,0:1:0:0:
388,274,20243,1,10,0:1:0:0:
406,277,20401,1,10,0:1:0:0:
167,258,20559,5,2,0:1:0:0:
436,174,20717,1,10,0:1:0:0:
452,168,20875,1,10,0:1:0:0:
91,140,21033,5,10,0:1:0:0:
318,325,21190,1,10,0:1:0:0:
365,42,21348,5,10,0:1:0:0:
91,140,21822,5,2,0:1:0:0:
91,140,21980,2,0,B|132:118|132:118|190:114,1,80.9999975280763,0|2,0:1|0:1,0:1:0:0:
193,205,22296,2,0,P|241:182|254:133,1,80.9999975280763,0|2,0:1|0:1,0:1:0:0:
341,97,22612,2,0,L|359:199,1,80.9999975280763,0|2,0:1|0:1,0:1:0:0:
455,193,22927,2,0,L|441:290,1,80.9999975280763,0|2,0:1|0:1,0:1:0:0:
281,272,23243,2,0,P|345:261|387:280,1,80.9999975280763,0|2,0:1|0:1,0:1:0:0:
321,352,23559,2,0,P|256:363|222:350,1,80.9999975280763,0|2,0:1|0:1,0:1:0:0:
168,271,23875,2,0,B|150:323|150:323|151:380,1,80.9999975280763,0|2,0:1|0:1,0:1:0:0:
56,107,24190,5,0,0:1:0:0:
56,107,24269,1,0,0:1:0:0:
56,107,24348,2,0,B|61:175|61:175|62:223|29:275,1,153.000002918243,2|2,1:1|0:1,0:1:0:0:
166,128,24822,1,0,1:1:0:0:
166,128,24980,2,0,P|213:118|263:132,1,76.5000014591217,2|0,0:1|0:1,0:1:0:0:
224,213,25296,2,0,P|268:219|304:240,1,76.5000014591217,2|0,1:1|0:1,0:1:0:0:
169,289,25612,2,0,L|92:301,1,76.5000014591217,10|0,0:1|0:1,0:1:0:0:
262,328,25927,2,0,L|342:348,1,76.5000014591217,10|0,0:1|0:1,0:1:0:0:
399,148,26243,6,0,B|399:231|399:231|427:305,1,153.000002918243,2|0,0:1|0:1,0:1:0:0:
249,162,26717,1,0,0:1:0:0:
249,162,26796,1,0,0:1:0:0:
249,162,26875,2,0,P|268:217|212:178,1,153.000002918243,6|2,0:1|0:1,0:1:0:0:
385,92,27348,6,0,P|355:67|316:60,1,76.5000014591217,0|2,0:1|0:1,0:1:0:0:
464,172,27664,2,0,P|426:191|389:195,1,76.5000014591217,0|2,0:1|0:1,0:1:0:0:
422,310,27980,2,0,B|375:316|375:316|347:305,2,76.5000014591217,0|2|0,0:1|0:1|0:1,0:1:0:0:
244,340,28454,1,2,0:1:0:0:
202,277,28612,2,0,P|235:316|246:358,1,76.5000014591217,8|2,0:1|0:1,0:1:0:0:
125,344,28927,1,0,0:0:0:0:
202,277,29085,5,0,0:0:0:0:
91,249,29243,1,0,0:1:0:0:
142,172,29401,2,0,B|92:158|92:158|66:162,1,76.5000014591217,2|0,0:1|0:1,0:1:0:0:
236,150,29717,1,2,0:1:0:0:
239,242,29875,2,0,P|291:251|322:241,1,76.5000014591217,0|2,0:1|0:1,0:1:0:0:
399,210,30190,1,0,0:1:0:0:
449,324,30348,1,2,0:1:0:0:
491,107,30506,1,0,0:1:0:0:
300,160,30664,5,10,1:1:0:0:
402,47,30822,1,8,0:1:0:0:
446,307,30980,1,10,1:1:0:0:
406,67,31138,2,0,B|370:89|370:89|335:93|296:69,1,107.999996704102,0|2,0:1|0:1,0:1:0:0:
266,70,31375,1,0,0:1:0:0:
216,88,31454,2,0,B|241:142|196:212|196:212|241:190|241:190|213:246|216:286|251:320,1,306.000005836487,6|0,0:1|0:1,0:1:0:0:
131,134,31927,6,0,P|69:120|9:132,1,107.999996704102,2|0,0:1|0:1,0:1:0:0:
92,277,32243,1,8,0:1:0:0:
239,307,32401,2,0,P|283:269|295:216,1,107.999996704102,0|2,0:1|0:1,0:1:0:0:
197,212,32717,1,0,0:1:0:0:
350,100,32875,1,8,0:1:0:0:
370,291,33033,1,0,0:1:0:0:
470,184,33190,5,2,0:1:0:0:
470,184,33348,2,0,L|462:311,1,107.999996704102,0|8,0:1|0:1,0:1:0:0:
350,100,33664,2,0,L|360:212,1,107.999996704102,0|2,0:1|0:1,0:1:0:0:
241,177,33980,2,0,L|231:289,1,107.999996704102,0|8,0:1|0:1,0:1:0:0:
58,261,34296,6,0,B|102:293|148:268|148:268|172:281|172:281|227:254|270:278|270:278|258:295|226:282,1,270,2|8,1:1|0:1,0:1:0:0:
148,354,34927,2,0,P|123:235|188:135,1,242.999992584229,2|8,1:1|0:1,0:1:0:0:
288,105,35559,6,0,B|275:170|275:170|282:217,1,99.0000030212403,0|2,0:1|0:1,0:1:0:0:
375,163,35875,1,0,0:1:0:0:
360,267,36033,2,0,L|473:241,1,99.0000030212403,8|0,0:1|0:1,0:1:0:0:
195,301,36348,2,0,P|242:324|298:318,1,99.0000030212403,2|0,0:1|0:1,0:1:0:0:
167,184,36664,1,8,0:1:0:0:
101,338,36822,1,0,0:1:0:0:
263,197,36980,6,0,P|258:137|142:88,1,198.000006042481,2|8,0:1|0:1,0:1:0:0:
101,338,37454,2,0,B|76:266|76:266|81:231|81:231|55:141,1,198.000006042481,0|0,0:1|0:1,0:1:0:0:
208,306,37927,2,0,B|269:286|344:325|344:325|407:350|401:278|350:299|344:328,1,242.999992584229,8|0,0:1|0:1,0:1:0:0:
477,298,38559,1,8,1:1:0:0:
426,223,38717,1,0,0:1:0:0:
477,110,38875,6,0,B|439:135|439:135|362:147,1,90,2|0,0:1|0:1,0:1:0:0:
306,87,39190,2,0,L|293:187,1,90,10|0,0:1|0:1,0:1:0:0:
177,128,39506,1,8,0:1:0:0:
342,253,39664,1,2,0:1:0:0:
176,137,39822,1,2,0:1:0:0:
152,312,39980,2,0,B|156:261|156:261|163:226|182:207,1,90,10|2,0:1|0:1,0:1:0:0:
79,282,40296,5,10,0:1:0:0:
79,282,40375,1,2,0:1:0:0:
79,282,40454,2,0,P|123:317|241:298,1,180,6|10,0:1|0:1,0:1:0:0:
139,143,40927,5,2,0:1:0:0:
364,252,41085,1,10,0:1:0:0:
179,228,41243,1,10,0:1:0:0:
411,138,41401,1,10,0:1:0:0:
440,322,41559,5,10,0:1:0:0:
400,58,41717,1,10,0:1:0:0:
358,252,41875,1,10,0:1:0:0:
218,248,42033,6,0,B|283:228|301:292|375:241,1,144,2|2,0:1|0:1,0:1:0:0:
148,142,42506,1,2,0:1:0:0:
148,142,42664,1,2,1:1:0:0:
104,329,42980,2,0,L|26:320,1,72,2|0,0:1|0:1,0:1:0:0:
218,248,43296,2,0,L|306:240,1,72,2|0,0:1|0:1,0:1:0:0:
55,115,43769,1,2,0:1:0:0:
44,164,43848,1,2,0:1:0:0:
47,214,43927,1,14,1:1:0:0:
331,134,44243,5,2,0:1:0:0:
301,295,44401,1,2,0:1:0:0:
363,207,44559,2,0,B|410:264|410:264|403:344,1,144,2|0,0:1|0:1,0:1:0:0:
301,295,45033,1,0,0:1:0:0:
491,240,45190,2,0,P|468:178|480:88,1,144,14|0,0:1|0:1,0:1:0:0:
292,158,45664,1,0,0:1:0:0:
377,143,45822,2,0,P|334:83|214:198,1,288,2|4,0:1|0:1,0:1:0:0:
303,303,46769,5,8,0:1:0:0:
125,249,46927,5,8,0:1:0:0:
330,173,47085,6,0,B|272:174|268:225|199:212,1,125.999996154785,2|0,1:1|0:1,0:1:0:0:
458,282,47559,2,0,L|325:267,1,125.999996154785,2|0,1:1|0:1,0:1:0:0:
499,163,48033,1,2,0:1:0:0:
404,185,48190,1,2,0:1:0:0:
281,215,48348,6,0,B|407:184,1,125.999996154785,2|0,1:1|0:1,0:1:0:0:
217,291,48822,2,0,P|276:315|335:300,1,125.999996154785,2|0,1:1|0:1,0:1:0:0:
87,296,49296,1,2,0:1:0:0:
144,210,49454,1,2,0:1:0:0:
45,186,49612,6,0,P|47:248|98:301,1,125.999996154785,2|0,1:1|0:1,0:1:0:0:
144,210,50085,2,0,P|155:152|120:92,1,125.999996154785,2|0,1:1|0:1,0:1:0:0:
248,162,50559,2,0,L|384:185,1,125.999996154785,2|8,1:1|0:1,0:1:0:0:
377,48,51033,5,8,0:1:0:0:
391,82,51112,1,0,0:1:0:0:
399,118,51190,1,0,0:1:0:0:
373,146,51269,1,0,0:1:0:0:
372,183,51348,1,0,0:1:0:0:
384,218,51427,1,0,0:1:0:0:
406,250,51506,2,0,P|460:233|517:233,1,99.0000030212403,10|2,0:1|0:1,0:1:0:0:
318,323,51822,2,0,L|215:303,1,99.0000030212403,2|2,0:1|0:1,0:1:0:0:
184,122,52138,5,8,0:1:0:0:
142,329,52296,1,8,0:1:0:0:
62,218,52454,1,8,0:1:0:0:
293,197,52612,6,0,L|366:190,1,62.9999980773926,2|8,0:1|0:1,0:1:0:0:
293,197,53085,6,0,P|289:251|300:301,1,99.0000030212403,2|2,0:1|0:1,0:1:0:0:
402,238,53401,2,0,B|413:180|413:180|392:79,1,144,2|0,1:1|0:1,0:1:0:0:
217,142,53875,2,0,L|324:116,1,90,2|8,0:1|0:1,0:1:0:0:
304,120,54348,5,10,0:1:0:0:
244,46,54506,1,2,0:1:0:0:
297,267,54664,1,2,1:1:0:0:
217,142,54822,1,2,0:1:0:0:
167,320,54980,2,0,P|208:275|210:234,1,90,10|2,0:1|0:1,0:1:0:0:
84,153,55454,2,0,P|97:219|138:254,1,90,0|0,0:1|0:1,0:1:0:0:
232,67,55927,5,2,1:1:0:0:
318,41,56085,1,2,0:1:0:0:
188,151,56243,1,2,0:1:0:0:
273,172,56401,1,2,0:1:0:0:
232,67,56559,6,0,P|271:121|270:184,1,120,8|2,0:1|0:1,0:1:0:0:
331,355,56980,6,0,B|283:332|283:332|233:258,1,120,8|6,0:1|0:1,0:1:0:0:
85,234,57506,5,2,0:1:0:0:
245,276,57664,1,2,0:1:0:0:
41,346,57822,1,10,0:1:0:0:
41,346,58138,5,2,0:1:0:0:
65,135,58296,1,2,0:1:0:0:
142,301,58454,1,2,0:1:0:0:
57,235,58612,1,2,0:1:0:0:
277,299,58769,1,2,0:1:0:0:
175,161,58927,1,2,0:1:0:0:
175,161,59005,1,2,0:1:0:0:
175,161,59084,1,10,0:1:0:0:
133,341,59243,1,2,0:1:0:0:
76,144,59401,5,2,0:1:0:0:
82,188,59479,1,2,0:1:0:0:
107,225,59558,1,2,0:1:0:0:
146,247,59637,1,2,0:1:0:0:
190,250,59716,1,10,1:1:0:0:
358,211,59875,1,2,0:1:0:0:
299,326,60033,1,2,0:1:0:0:
253,146,60190,5,10,1:1:0:0:
202,344,60348,1,2,0:1:0:0:
401,290,60506,1,2,0:1:0:0:
291,221,60664,5,10,1:1:0:0:
440,54,60822,1,2,0:1:0:0:
512,268,60980,1,2,0:1:0:0:
230,83,61138,5,10,1:1:0:0:
469,139,61296,1,2,0:1:0:0:
300,318,61454,1,2,0:1:0:0:
404,266,61612,5,2,0:1:0:0:
385,225,61690,1,2,0:1:0:0:
351,195,61769,1,2,0:1:0:0:
309,182,61848,1,2,0:1:0:0:
268,194,61927,1,2,0:1:0:0:
234,217,62006,1,2,0:1:0:0:
186,226,62085,1,2,0:1:0:0:
137,221,62164,1,2,0:1:0:0:
94,199,62243,5,10,0:1:0:0:
271,99,62401,5,2,0:1:0:0:
285,92,62559,1,2,0:1:0:0:
169,333,62717,5,8,0:1:0:0:
136,90,62875,5,2,0:1:0:0:
133,72,63033,1,2,0:1:0:0:
348,258,63190,5,8,0:1:0:0:
48,226,63348,5,2,0:1:0:0:
30,225,63506,1,2,0:1:0:0:
352,121,63664,5,8,0:1:0:0:
93,320,63822,1,2,0:1:0:0:
318,342,63980,5,2,0:1:0:0:
134,95,64138,1,14,0:1:0:0:
471,239,64296,5,2,0:1:0:0:
174,259,64454,1,14,0:1:0:0:
406,346,64612,1,2,0:1:0:0:
282,95,64769,6,0,L|288:145,5,45,10|2|2|2|2|2,0:1|0:1|0:1|0:1|0:1|0:1,0:1:0:0:
437,159,65243,2,0,L|431:209,5,45,10|2|2|2|2|2,0:1|0:1|0:1|0:1|0:1|0:1,0:1:0:0:
259,317,65717,2,0,L|253:272,3,45,10|2|2|2,0:1|0:1|0:1|0:1,0:1:0:0:
441,344,66033,1,6,0:1:0:0:
84,293,67296,6,0,B|159:263|152:189|152:189|176:246|249:243,1,233.999989288331,6|8,1:1|0:1,0:1:0:0:
315,192,67769,2,0,P|330:247|306:299,1,116.999994644165,0|2,0:1|0:1,0:1:0:0:
460,239,68085,1,0,0:1:0:0:
327,92,68243,1,8,0:1:0:0:
62,135,68401,6,0,B|171:135|124:196|236:195,1,180,4|0,1:1|0:1,0:1:0:0:
154,317,68875,1,8,0:1:0:0:
149,53,69033,2,0,P|118:137|131:236,1,180,0|0,0:1|0:1,0:1:0:0:
347,175,69506,1,8,0:1:0:0:
223,117,69664,1,0,0:1:0:0:
241,308,69822,6,0,B|297:267|297:267|410:283,1,180,4|8,1:1|0:1,0:1:0:0:
512,152,70296,2,0,P|468:170|399:172,1,107.999996704102,0|2,0:1|0:1,0:1:0:0:
216,59,70612,2,0,P|267:92|328:94,1,107.999996704102,0|8,0:1|0:1,0:1:0:0:
215,347,70927,2,0,B|238:305|242:253|242:253|234:189,1,161.999995056153,4|0,1:1|0:1,0:1:0:0:
350,305,71401,1,8,0:1:0:0:
312,96,71559,1,0,0:1:0:0:
414,211,71717,5,2,0:1:0:0:
414,211,71796,1,2,0:1:0:0:
414,211,71875,1,10,0:1:0:0:
127,247,72033,5,2,0:1:0:0:
127,247,72112,1,2,0:1:0:0:
127,247,72190,1,10,0:1:0:0:
73,81,72348,6,0,P|147:70|225:116,1,161.999995056153,6|8,1:1|0:1,0:1:0:0:
305,173,72822,2,0,P|255:208|196:207,1,116.999994644165,0|2,0:1|0:1,0:1:0:0:
423,219,73138,2,0,B|394:156|394:156|392:94,1,116.999994644165,0|8,0:1|0:1,0:1:0:0:
293,319,73454,6,0,L|484:309,1,180,4|0,1:1|0:1,0:1:0:0:
160,245,73927,1,8,0:1:0:0:
58,205,74085,2,0,P|52:265|99:321,1,116.999994644165,0|2,0:1|0:1,0:1:0:0:
375,232,74401,2,0,B|296:217|296:217|218:230,1,135.000005149842,0|8,0:1|0:1,0:1:0:0:
364,76,74717,1,0,0:1:0:0:
77,264,74875,6,0,B|167:306|265:223|181:88|181:88|278:147|278:147|290:193|277:232,1,485.999985168458,6|0,0:1|0:1,0:1:0:0:
388,338,75664,5,2,0:1:0:0:
388,338,75980,2,0,B|426:270|393:159|393:159|459:215|459:215|418:261|336:238,1,377.999988464356,4|0,0:1|0:1,0:1:0:0:
163,199,76612,1,2,0:1:0:0:
245,317,76769,5,2,0:1:0:0:
290,304,76847,1,2,0:1:0:0:
330,280,76926,1,2,0:1:0:0:
360,243,77005,1,2,0:1:0:0:
378,200,77084,1,2,0:1:0:0:
328,213,77163,1,2,0:1:0:0:
273,225,77242,1,2,0:1:0:0:
217,218,77321,1,2,0:1:0:0:
163,199,77400,5,14,1:1:0:0:
445,127,77559,1,10,0:1:0:0:
122,83,77717,5,2,0:1:0:0:
378,200,77875,1,10,0:1:0:0:
98,318,78033,5,2,0:1:0:0:
312,53,78190,1,10,0:1:0:0:
37,207,78348,5,2,0:1:0:0:
391,328,78506,1,10,0:1:0:0:
229,107,78664,1,6,1:1:0:0:
73,327,78822,5,10,0:1:0:0:
405,232,78980,1,2,0:1:0:0:
115,253,79138,5,10,0:1:0:0:
499,324,79296,1,2,0:1:0:0:
213,148,79454,5,10,0:1:0:0:
312,356,79612,1,2,0:1:0:0:
455,172,79769,1,10,0:1:0:0:
133,252,79927,5,6,1:1:0:0:
385,190,80085,1,10,0:1:0:0:
209,42,80243,5,10,0:1:0:0:
209,42,80401,1,10,0:1:0:0:
388,275,80559,5,10,1:1:0:0:
77,262,80717,1,10,0:1:0:0:
377,78,80875,5,10,0:1:0:0:
312,349,81033,1,10,1:1:0:0:
97,162,81191,1,10,0:1:0:0:
388,275,81348,5,10,1:1:0:0:
205,84,81506,5,2,0:1:0:0:
250,80,81584,1,2,0:1:0:0:
294,89,81663,1,2,0:1:0:0:
338,99,81742,1,2,0:1:0:0:
383,95,81821,1,2,0:1:0:0:
420,98,81900,5,2,0:1:0:0:
403,149,81979,1,2,0:1:0:0:
377,191,82058,1,2,0:1:0:0:
327,210,82137,1,2,0:1:0:0:
300,251,82216,5,2,0:1:0:0:
307,303,82295,1,2,0:1:0:0:
344,339,82374,1,2,0:1:0:0:
396,340,82453,5,14,1:1:0:0:
377,191,82612,1,2,0:1:0:0:
505,261,82769,1,8,0:1:0:0:
210,321,82927,2,0,L|329:298,1,99.0000030212403,0|8,0:1|0:1,0:1:0:0:
68,184,83243,2,0,L|86:298,1,99.0000030212403,0|8,0:1|0:1,0:1:0:0:
266,175,83559,2,0,P|177:162|159:56,1,198.000006042481,2|0,0:1|0:1,0:1:0:0:
351,153,84033,5,8,0:1:0:0:
241,263,84190,1,0,0:1:0:0:
462,205,84348,1,8,0:1:0:0:
178,344,84506,1,0,0:1:0:0:
440,323,84664,5,8,0:1:0:0:
280,160,84822,1,0,0:1:0:0:
280,160,84901,1,0,0:1:0:0:
280,160,84980,2,0,B|284:203|284:203|302:242|302:242|304:286,1,121.500000463486,6|0,1:1|0:1,0:1:0:0:
182,253,85296,1,0,0:1:0:0:
449,175,85454,1,0,0:1:0:0:
214,348,85612,5,0,0:1:0:0:
310,65,85769,1,0,0:1:0:0:
415,344,85927,5,0,0:1:0:0:
160,122,86085,2,0,B|84:145|55:208|55:208|50:293,1,216,6|0,0:1|0:1,0:1:0:0:
307,241,86875,6,0,L|140:263,1,161.999995056153,2|2,0:1|0:1,0:1:0:0:
401,167,87506,5,10,0:1:0:0:
422,161,87664,1,10,0:1:0:0:
146,262,87822,1,2,0:1:0:0:
409,321,87980,5,10,0:1:0:0:
439,329,88138,1,10,0:1:0:0:
136,258,88296,1,2,0:1:0:0:
490,138,88454,21,10,0:1:0:0:
275,364,88612,21,10,0:1:0:0:
317,53,88769,1,14,0:1:0:0:
463,329,88927,1,2,0:1:0:0:
182,192,89085,1,10,0:1:0:0:
490,138,89243,1,14,0:1:0:0:
