osu file format v14

[General]
AudioFilename: audio.mp3
AudioLeadIn: 0
PreviewTime: 67217
Countdown: 0
SampleSet: Soft
StackLeniency: 0.5
Mode: 0
LetterboxInBreaks: 0
WidescreenStoryboard: 1

[Editor]
DistanceSpacing: 0.7
BeatDivisor: 4
GridSize: 32
TimelineZoom: 1.9

[Metadata]
Title:BLESS YoUr NAME (TV Size)
TitleUnicode:BLESS YoUr NAME (TV Size)
Artist:ChouCho
ArtistUnicode:ChouCho
Creator:MajK00
Version:Insane
Source:ハイスクールD×D BorN
Tags:season 3 third three highschool DxD ちょうちょ opening high school pop jpop j-pop japanese anime enuhq kuki1537
BeatmapID:3887388
BeatmapSetID:1726797

[Difficulty]
HPDrainRate:4.5
CircleSize:3.8
OverallDifficulty:8
ApproachRate:9
SliderMultiplier:1.52
SliderTickRate:1

[Events]
//Background and Video events
0,0,"bg.jpg",0,0
//Break Periods
//Storyboard Layer 0 (Background)
//Storyboard Layer 1 (Fail)
//Storyboard Layer 2 (Pass)
//Storyboard Layer 3 (Foreground)
//Storyboard Layer 4 (Overlay)
//Storyboard Sound Samples

[TimingPoints]
1612,315.789473684211,4,2,27,70,1,0
1612,-212.765957446809,4,2,27,70,0,0
4138,-108.695652173913,4,2,27,70,0,0
10296,-175.438596491228,4,2,27,65,0,0
11717,-103.092783505155,4,2,27,70,0,0
19296,-108.695652173913,4,2,27,75,0,0
21822,-138.888888888889,4,2,27,65,0,0
26480,-138.888888888889,4,2,27,5,0,0
26559,-138.888888888889,4,2,27,65,0,0
31454,-114.942528735632,4,2,27,65,0,0
31927,-121.951219512195,4,2,27,65,0,0
42033,-149.253731343284,4,2,27,65,0,0
47085,-175.438596491229,4,2,27,55,0,0
50875,-149.253731343284,4,2,27,65,0,0
59717,-129.87012987013,4,2,27,65,0,0
60980,-114.942528735632,4,2,27,65,0,0
62243,-103.092783505155,4,2,27,65,0,0
67296,-93.4579439252336,4,2,27,75,0,0
70059,-93.4579439252336,4,2,27,5,0,0
70138,-93.4579439252336,4,2,27,75,0,0
86085,-108.695652173913,4,2,27,75,0,0

[Colours]
Combo1 : 49,157,238
Combo2 : 255,64,64
Combo3 : 245,191,141
Combo4 : 192,192,192

[HitObjects]
0,66,1612,6,0,B|128:97|128:97|127:142|160:170,1,214.319996729736,6|0,1:2|0:0,0:0:0:0:
314,204,2875,6,0,P|315:106|218:99,1,214.319996729736,6|0,1:2|0:0,0:0:0:0:
206,368,4138,5,6,1:2:0:0:
256,285,4296,2,0,L|323:301,1,69.9199976528321,4|0,0:3|1:0,0:0:0:0:
428,327,4612,1,12,0:0:0:0:
381,187,4769,2,0,L|313:203,1,69.9199976528321,10|0,0:0|1:0,0:0:0:0:
476,227,5085,1,12,0:0:0:0:
437,108,5243,2,0,P|405:92|371:90,1,69.9199976528321,10|0,0:0|1:0,0:0:0:0:
191,149,5559,5,10,0:0:0:0:
265,0,5717,2,0,P|272:34|281:67,1,69.9199976528321,8|0,0:0|0:0,0:0:0:0:
109,68,6033,2,0,L|95:0,1,69.9199976528321,8|8,0:0|0:3,0:0:0:0:
191,149,6347,1,4,0:3:0:0:
191,149,6427,1,8,0:3:0:0:
191,149,6506,1,4,0:3:0:0:
0,208,6664,6,0,P|22:274|33:342,1,139.839995305664,6|0,1:2|1:0,0:0:0:0:
126,244,7138,2,0,L|193:260,1,69.9199976528321,10|0,0:0|1:0,0:0:0:0:
232,368,7454,2,0,L|299:384,1,69.9199976528321,10|0,0:0|1:0,0:0:0:0:
394,267,7769,2,0,L|327:284,1,69.9199976528321,14|0,0:0|0:0,0:0:0:0:
389,177,8085,5,8,0:0:0:0:
486,232,8243,1,8,0:0:0:0:
475,69,8401,1,8,0:3:0:0:
475,69,8480,1,4,0:3:0:0:
475,69,8559,2,0,L|491:136,1,69.9199976528321,8|4,0:0|0:3,0:0:0:0:
348,91,8875,2,0,L|364:23,1,69.9199976528321,6|8,1:3|0:3,0:0:0:0:
295,169,9190,5,6,1:2:0:0:
237,44,9348,1,8,0:0:0:0:
196,150,9506,1,8,0:0:0:0:
68,67,9664,2,0,L|135:50,1,69.9199976528321,2|0,1:2|0:0,0:0:0:0:
6,187,9980,2,0,L|73:170,1,69.9199976528321,2|0,1:2|0:0,0:0:0:0:
196,150,10296,6,0,P|163:253|142:359,1,216.599997355957,14|2,0:0|0:0,0:0:0:0:
512,204,11717,6,0,L|430:223,1,73.7200017435608,6|0,1:2|0:0,0:0:0:0:
395,50,12033,2,0,L|452:109,1,73.7200017435608,8|0,0:0|1:0,0:0:0:0:
321,228,12348,2,0,L|343:147,1,73.7200017435608,8|0,0:0|1:0,0:0:0:0:
289,0,12664,1,8,0:0:0:0:
234,161,12822,1,4,1:2:0:0:
168,7,12980,6,0,P|131:5|99:22,1,73.7200017435608,8|0,0:0|1:0,0:0:0:0:
0,156,13296,2,0,P|36:154|68:171,1,73.7200017435608,8|0,0:0|1:0,0:0:0:0:
175,284,13612,1,8,0:0:0:0:
21,245,13769,1,0,1:0:0:0:
21,245,13848,1,0,1:0:0:0:
21,245,13927,2,0,L|29:280,3,36.8600008717804,8|0|0|0,0:0|1:0|1:0|1:0,0:0:0:0:
79,367,14243,6,0,P|115:372|150:384,1,73.7200017435608,12|0,0:0|1:0,0:0:0:0:
255,252,14559,2,0,P|220:264|184:271,1,73.7200017435608,8|0,0:0|1:0,0:0:0:0:
353,181,14875,2,0,P|387:192|424:199,1,73.7200017435608,8|4,0:0|0:3,0:0:0:0:
317,335,15190,1,8,0:0:0:0:
246,152,15348,6,0,P|265:80|281:9,1,147.440003487122,4|0,1:2|1:0,0:0:0:0:
115,38,15822,2,0,P|106:74|97:110,1,73.7200017435608,8|0,0:0|1:0,0:0:0:0:
150,259,16138,1,8,0:0:0:0:
30,186,16296,1,0,1:0:0:0:
56,349,16454,2,0,L|64:384,3,36.8600008717804,8|0|8|8,0:0|1:0|0:0|0:0,0:0:0:0:
141,349,16769,6,0,P|177:348|210:332,1,73.7200017435608,12|0,0:0|0:0,0:0:0:0:
253,152,17085,2,0,L|238:224,1,73.7200017435608,8|0,0:0|1:0,0:0:0:0:
344,384,17401,2,0,L|358:311,1,73.7200017435608,8|0,0:0|1:0,0:0:0:0:
210,331,17717,1,8,0:0:0:0:
362,299,17875,6,0,P|432:320|504:334,1,147.440003487122,4|8,1:2|0:0,0:0:0:0:
511,169,18348,2,0,P|476:180|439:186,1,73.7200017435608,8|4,0:0|0:3,0:0:0:0:
419,167,18585,1,8,0:3:0:0:
419,167,18664,2,0,P|384:155|347:149,1,73.7200017435608,8|4,0:0|0:3,0:0:0:0:
321,138,18901,1,8,0:3:0:0:
321,138,18980,2,0,L|312:102,3,36.8600008717804,8|8|0|0,0:0|0:0|1:0|0:0,0:0:0:0:
289,7,19296,5,10,0:0:0:0:
196,135,19454,2,0,L|127:121,1,69.9199976528321,8|0,0:0|1:0,0:0:0:0:
1,189,19769,5,10,0:0:0:0:
33,38,19927,2,0,L|101:24,1,69.9199976528321,8|0,0:0|1:0,0:0:0:0:
172,231,20243,5,10,0:0:0:0:
15,121,20401,2,0,L|-3:215,1,69.9199976528321,10|0,0:0|1:0,0:0:0:0:
159,384,20717,5,10,0:0:0:0:
6,280,20875,2,0,L|19:348,1,69.9199976528321,10|0,0:0|1:0,0:0:0:0:
278,176,21190,5,10,0:0:0:0:
104,305,21348,1,10,0:0:0:0:
512,249,21822,6,0,P|458:237|405:222,1,109.440002671875,6|2,1:2|1:2,0:0:0:0:
332,164,22296,2,0,P|305:171|278:177,1,54.7200013359375,2|0,0:0|1:0,0:0:0:0:
290,262,22612,2,0,P|263:267|236:275,1,54.7200013359375,2|0,0:0|1:0,0:0:0:0:
141,206,22927,6,0,L|87:192,1,54.7200013359375,2|0,0:0|0:0,0:0:0:0:
61,273,23243,2,0,L|7:259,1,54.7200013359375,2|0,0:0|1:0,0:0:0:0:
151,302,23559,2,0,L|164:355,1,54.7200013359375,2|0,0:0|1:0,0:0:0:0:
250,327,23875,1,2,0:0:0:0:
250,327,24033,2,0,L|236:273,1,54.7200013359375,0|0,1:0|0:0,0:0:0:0:
226,144,24348,6,0,P|270:177|323:178,1,109.440002671875,2|0,1:2|1:0,0:0:0:0:
423,138,24822,2,0,L|397:245,1,109.440002671875,2|0,0:0|0:0,0:0:0:0:
512,143,25296,5,2,1:2:0:0:
512,143,25454,2,0,P|508:115|498:90,1,54.7200013359375,2|0,0:0|1:0,0:0:0:0:
420,29,25769,2,0,L|312:50,1,109.440002671875,2|2,0:0|0:0,0:0:0:0:
210,51,26243,2,0,P|215:77|223:103,1,54.7200013359375,2|0,1:2|0:0,0:0:0:0:
134,129,26559,2,0,P|128:102|121:75,1,54.7200013359375,2|0,1:2|0:0,0:0:0:0:
0,183,26875,6,0,P|38:220|45:274,1,109.440002671875,6|2,1:2|1:2,0:0:0:0:
53,367,27348,2,0,L|0:353,1,54.7200013359375,2|0,0:0|1:0,0:0:0:0:
125,309,27664,2,0,L|178:295,1,54.7200013359375,2|0,0:0|1:0,0:0:0:0:
211,197,27980,5,2,0:0:0:0:
211,197,28138,2,0,P|263:212|317:223,1,109.440002671875,0|0,1:0|1:0,0:0:0:0:
399,169,28612,2,0,P|451:172|483:215,1,109.440002671875,2|0,0:0|0:0,0:0:0:0:
512,324,29085,1,2,1:2:0:0:
512,324,29243,1,2,0:0:0:0:
383,312,29401,6,0,L|276:338,1,109.440002671875,6|2,1:2|1:2,0:0:0:0:
191,364,29875,2,0,P|164:359|138:350,1,54.7200013359375,2|0,0:0|1:0,0:0:0:0:
161,262,30190,2,0,P|187:266|213:275,1,54.7200013359375,2|0,0:0|1:0,0:0:0:0:
276,338,30506,1,2,0:0:0:0:
281,212,30664,6,0,L|267:158,1,54.7200013359375,8|4,1:2|0:3,0:0:0:0:
265,138,30901,1,4,0:3:0:0:
265,138,30980,1,8,0:3:0:0:
323,39,31138,1,8,0:0:0:0:
117,5,31454,6,0,P|167:43|162:106,1,132.240001109802,10|8,0:0|0:0,0:0:0:0:
148,126,31848,1,8,0:0:0:0:
148,126,31927,2,0,L|87:141,1,62.3200009509277,6|0,1:2|1:0,0:0:0:0:
0,239,32243,1,10,0:0:0:0:
0,239,32401,2,0,P|30:239|58:253,1,62.3200009509277,2|0,0:0|1:0,0:0:0:0:
94,358,32717,2,0,P|121:343|152:343,1,62.3200009509277,2|8,1:2|0:0,0:0:0:0:
260,384,33033,6,0,P|273:323|290:263,1,124.640001901855,2|2,1:2|1:2,0:0:0:0:
252,121,33506,1,8,0:0:0:0:
252,121,33664,2,0,L|267:181,1,62.3200009509277,2|0,0:0|1:0,0:0:0:0:
158,89,33980,1,2,1:2:0:0:
238,30,34138,2,0,P|268:31|297:44,1,62.3200009509277,8|2,0:0|0:0,0:0:0:0:
403,168,34454,5,4,1:2:0:0:
403,168,34612,1,0,1:0:0:0:
382,50,34769,1,8,0:0:0:0:
512,151,34927,2,0,P|495:211|481:271,1,124.640001901855,2|0,1:2|1:0,0:0:0:0:
512,370,35401,2,0,L|451:385,1,62.3200009509277,8|0,0:0|0:0,0:0:0:0:
373,281,35717,5,0,1:0:0:0:
373,281,35875,1,0,1:0:0:0:
267,384,36033,2,0,L|282:323,1,62.3200009509277,10|0,0:0|0:0,0:0:0:0:
216,226,36348,1,2,1:2:0:0:
179,334,36506,2,0,L|118:349,1,62.3200009509277,2|8,1:2|0:0,0:0:0:0:
0,253,36822,5,2,1:2:0:0:
0,253,36901,1,8,0:3:0:0:
0,253,36980,2,0,P|28:264|59:268,1,62.3200009509277,2|0,1:2|1:0,0:0:0:0:
146,154,37296,1,10,0:0:0:0:
146,154,37454,2,0,L|85:169,1,62.3200009509277,2|0,0:0|1:0,0:0:0:0:
0,101,37769,1,2,1:2:0:0:
96,73,37927,2,0,L|157:58,1,62.3200009509277,10|0,0:0|0:0,0:0:0:0:
272,32,38243,5,2,1:2:0:0:
272,32,38401,1,0,1:0:0:0:
358,78,38559,2,0,P|371:106|373:136,1,62.3200009509277,8|0,0:0|0:0,0:0:0:0:
210,150,38875,2,0,L|270:134,1,62.3200009509277,2|0,1:2|1:0,0:0:0:0:
378,242,39190,2,0,L|317:226,1,62.3200009509277,10|0,0:0|0:0,0:0:0:0:
465,183,39506,6,0,P|479:216|457:312,1,124.640001901855,6|8,1:2|0:0,0:0:0:0:
336,384,39980,2,0,L|351:323,1,62.3200009509277,2|0,1:2|0:0,0:0:0:0:
203,384,40296,1,0,1:0:0:0:
203,384,40375,1,8,0:3:0:0:
203,384,40454,2,0,P|220:324|235:263,1,124.640001901855,14|0,0:0|1:0,0:0:0:0:
99,191,40927,5,8,0:0:0:0:
191,93,41085,2,0,P|196:123|206:153,1,62.3200009509277,10|0,0:0|1:0,0:0:0:0:
217,172,41322,1,0,1:0:0:0:
217,172,41401,1,10,0:0:0:0:
290,80,41559,1,10,0:0:0:0:
156,0,41717,1,8,0:0:0:0:
298,89,41875,1,8,0:0:0:0:
401,0,42033,6,0,L|389:49,2,50.9199975913698,6|0|0,1:2|1:0|1:0,0:0:0:0:
497,0,42506,2,0,L|472:98,1,101.83999518274,2|0,1:2|0:0,0:0:0:0:
396,138,42980,2,0,L|408:187,1,50.9199975913698,2|0,1:2|1:0,0:0:0:0:
512,279,43296,5,2,1:2:0:0:
512,279,43454,2,0,P|487:270|462:266,1,50.9199975913698,0|0,1:0|0:0,0:0:0:0:
416,353,43769,1,2,1:2:0:0:
416,353,43848,1,0,1:0:0:0:
416,353,43927,2,0,P|390:357|366:365,1,50.9199975913698,8|0,0:0|1:0,0:0:0:0:
305,293,44243,2,0,P|279:288|255:280,1,50.9199975913698,2|0,0:0|1:0,0:0:0:0:
103,334,44559,6,0,L|115:383,2,50.9199975913698,6|0|0,1:2|1:0|1:0,0:0:0:0:
24,282,45033,2,0,L|48:183,1,101.83999518274,2|0,1:2|0:0,0:0:0:0:
0,101,45506,2,0,L|49:88,1,50.9199975913698,2|0,1:2|1:0,0:0:0:0:
234,67,45822,5,4,1:2:0:0:
162,0,45980,2,0,L|137:98,1,101.83999518274,0|0,1:0|1:0,0:0:0:0:
141,120,46375,1,0,1:0:0:0:
141,120,46454,2,0,L|153:169,1,50.9199975913698,8|0,0:0|1:0,0:0:0:0:
287,255,46769,1,8,0:0:0:0:
240,161,46927,1,8,0:0:0:0:
163,274,47085,6,0,P|122:258|79:251,1,86.6399989423828,6|0,1:2|0:0,0:0:0:0:
37,333,47559,2,0,P|100:345|162:364,1,129.959998413574,2|2,1:2|0:0,0:0:0:0:
342,384,48348,6,0,P|314:347|311:301,1,86.6399989423828,2|0,1:2|0:0,0:0:0:0:
398,315,48822,2,0,P|411:251|429:188,1,129.959998413574,2|2,1:2|0:0,0:0:0:0:
371,23,49612,6,0,P|407:-4|451:2,1,86.6399989423828,2|2,1:2|0:0,0:0:0:0:
475,82,50085,2,0,P|438:108|394:102,1,86.6399989423828,2|0,1:2|0:0,0:0:0:0:
312,98,50559,1,2,1:2:0:0:
268,274,50875,5,0,1:0:0:0:
300,147,51033,2,0,L|312:98,1,50.9199975913698,8|4,0:0|0:3,0:0:0:0:
156,177,51348,1,4,0:3:0:0:
156,177,51427,1,8,0:3:0:0:
156,177,51506,2,0,L|206:165,1,50.9199975913698,10|8,0:0|0:3,0:0:0:0:
247,14,51822,2,0,L|197:26,1,50.9199975913698,10|8,0:0|0:3,0:0:0:0:
91,49,52138,6,0,L|103:0,2,50.9199975913698,6|0|2,1:2|1:0|1:2,0:0:0:0:
18,101,52612,1,2,1:2:0:0:
18,101,52769,2,0,L|35:172,1,50.9199975913698,8|0,0:0|0:0,0:0:0:0:
97,207,53085,2,0,L|114:278,1,50.9199975913698,2|0,1:2|1:0,0:0:0:0:
0,384,53401,6,0,P|41:346|89:351,1,101.83999518274,2|10,1:2|0:0,0:0:0:0:
171,384,53875,1,2,0:0:0:0:
172,384,54033,2,0,L|221:371,1,50.9199975913698,0|0,1:0|1:0,0:0:0:0:
266,293,54348,2,0,L|315:280,1,50.9199975913698,10|0,0:0|0:0,0:0:0:0:
412,383,54664,6,0,P|402:359|399:334,1,50.9199975913698,6|0,1:2|1:0,0:0:0:0:
446,252,54980,1,2,1:2:0:0:
328,188,55138,2,0,L|278:200,1,50.9199975913698,2|8,1:2|0:0,0:0:0:0:
190,231,55454,1,2,0:0:0:0:
303,330,55612,2,0,L|315:280,1,50.9199975913698,2|0,1:2|1:0,0:0:0:0:
422,166,55927,6,0,P|413:141|409:116,1,50.9199975913698,0|0,1:0|1:0,0:0:0:0:
512,61,56243,2,0,P|503:85|499:110,1,50.9199975913698,4|0,0:3|1:0,0:0:0:0:
348,44,56559,6,0,P|382:27|419:25,2,76.3799963870546,10|2|10,0:0|1:2|0:3,0:0:0:0:
306,157,57190,6,0,P|232:134|158:120,1,152.759992774109,10|2,0:0|1:2,0:0:0:0:
68,134,57822,1,8,0:0:0:0:
0,276,58138,6,0,P|24:268|49:263,1,50.9199975913698,6|0,1:2|0:0,0:0:0:0:
135,275,58454,1,8,0:0:0:0:
56,348,58612,2,0,P|106:355|154:372,1,101.83999518274,0|0,1:0|1:0,0:0:0:0:
177,378,59006,1,0,1:0:0:0:
177,378,59085,2,0,P|202:373|226:365,1,50.9199975913698,8|0,0:0|1:0,0:0:0:0:
301,294,59401,6,0,L|294:318,3,25.4599987956849,10|0|0|0,0:0|1:0|1:0|1:0,0:0:0:0:
306,279,59717,6,0,L|291:222,1,58.5199988391724,14|0,0:0|1:0,0:0:0:0:
398,223,60033,2,0,L|383:166,1,58.5199988391724,0|2,1:0|1:2,0:0:0:0:
240,148,60348,2,0,P|266:136|295:133,1,58.5199988391724,0|0,1:0|1:0,0:0:0:0:
430,86,60664,2,0,P|403:74|374:71,1,58.5199988391724,2|0,1:2|1:0,0:0:0:0:
279,22,60980,6,0,L|246:14,3,33.0600002774506,0|8|8|8,1:0|0:0|0:0|0:0,0:0:0:0:
224,36,61296,2,0,L|191:43,3,33.0600002774506,8|8|8|8,1:2|0:0|0:0|0:0,0:0:0:0:
169,22,61612,2,0,L|136:14,3,33.0600002774506,10|8|10|8,1:2|0:0|0:0|0:0,0:0:0:0:
114,36,61927,5,10,1:2:0:0:
105,37,62005,1,8,0:0:0:0:
97,39,62084,1,8,0:0:0:0:
89,41,62163,1,8,0:0:0:0:
81,43,62243,2,0,L|63:114,1,73.7200017435608,14|0,0:0|1:0,0:0:0:0:
39,210,62559,1,0,1:0:0:0:
168,134,62717,6,0,P|206:132|237:150,1,73.7200017435608,14|0,0:0|1:0,0:0:0:0:
292,239,63033,1,0,1:0:0:0:
229,384,63190,6,0,L|211:312,1,73.7200017435608,14|0,0:0|1:0,0:0:0:0:
184,224,63506,1,0,1:0:0:0:
317,340,63664,6,0,L|388:357,1,73.7200017435608,12|0,0:0|1:0,0:0:0:0:
467,235,63980,1,0,1:0:0:0:
467,235,64059,1,0,1:0:0:0:
467,235,64138,2,0,L|395:252,1,73.7200017435608,12|0,0:0|1:0,0:0:0:0:
321,148,64454,1,12,0:0:0:0:
454,45,64612,5,0,1:0:0:0:
454,45,64690,1,0,1:0:0:0:
454,45,64769,2,0,L|445:80,5,36.8600008717804,10|8|8|4|8|8,0:0|0:0|0:3|0:3|0:3|0:3,0:0:0:0:
369,22,65243,1,10,0:0:0:0:
369,22,65322,1,8,0:0:0:0:
369,22,65401,2,0,L|360:57,3,36.8600008717804,8|4|8|8,0:3|0:3|0:3|0:3,0:0:0:0:
281,0,65717,1,10,0:0:0:0:
281,0,65796,1,8,0:0:0:0:
281,0,65875,2,0,L|272:35,1,36.8600008717804,0|0,1:0|1:0,0:0:0:0:
238,151,66033,5,14,0:0:0:0:
512,110,67296,6,0,B|451:124|451:124|428:158|428:158|366:173,1,162.639995036621,6|10,1:2|0:0,0:0:0:0:
268,35,67769,2,0,L|347:55,1,81.3199975183106,2|0,0:0|1:0,0:0:0:0:
284,231,68085,2,0,P|263:196|263:155,1,81.3199975183106,2|8,1:2|0:0,0:0:0:0:
502,315,68401,6,0,P|475:270|364:293,1,162.639995036621,6|0,1:2|1:0,0:0:0:0:
280,384,68875,1,8,0:0:0:0:
166,305,69033,2,0,P|179:271|189:211,1,81.3199975183106,2|0,0:0|1:0,0:0:0:0:
94,374,69348,1,2,1:2:0:0:
284,231,69506,2,0,P|276:191|261:153,1,81.3199975183106,8|0,0:0|0:0,0:0:0:0:
159,0,69822,6,0,L|119:157,1,162.639995036621,6|10,1:2|0:0,0:0:0:0:
251,60,70296,2,0,P|291:60|325:80,1,81.3199975183106,2|0,1:2|0:0,0:0:0:0:
382,236,70612,1,2,1:2:0:0:
261,153,70769,1,8,0:0:0:0:
202,336,70927,6,0,B|158:318|112:350|138:364|96:389|51:377,1,162.639995036621,6|2,1:2|1:2,0:0:0:0:
170,240,71401,2,0,P|210:242|247:258,1,81.3199975183106,10|0,0:0|0:0,0:0:0:0:
62,292,71717,2,0,L|42:213,1,81.3199975183106,0|0,1:0|1:0,0:0:0:0:
20,27,72033,5,8,0:0:0:0:
15,46,72111,1,8,0:0:0:0:
10,66,72190,1,8,0:0:0:0:
5,86,72269,1,8,0:0:0:0:
0,105,72348,2,0,P|71:100|139:154,1,162.639995036621,6|10,1:2|0:0,0:0:0:0:
248,20,72822,2,0,P|207:19|171:37,1,81.3199975183106,2|0,0:0|1:0,0:0:0:0:
284,176,73138,1,2,1:2:0:0:
362,45,73296,1,8,0:0:0:0:
222,108,73454,6,0,P|247:186|261:266,1,162.639995036621,6|2,1:2|1:2,0:0:0:0:
214,384,73927,1,8,0:0:0:0:
367,288,74085,2,0,P|405:300|445:307,1,81.3199975183106,2|0,0:0|1:0,0:0:0:0:
319,384,74401,1,2,1:2:0:0:
430,207,74559,2,0,P|417:168|409:128,1,81.3199975183106,8|0,0:0|1:0,0:0:0:0:
412,106,74796,5,8,0:3:0:0:
412,106,74875,2,0,B|365:46|313:55|313:55|300:108,1,162.639995036621,6|0,1:2|1:0,0:0:0:0:
189,0,75348,2,0,L|169:78,1,81.3199975183106,10|0,0:0|1:0,0:0:0:0:
32,111,75664,2,0,L|51:189,1,81.3199975183106,10|0,0:0|1:0,0:0:0:0:
263,262,75980,6,0,P|231:197|141:188,1,162.639995036621,14|0,0:0|1:0,0:0:0:0:
151,359,76454,2,0,L|170:280,1,81.3199975183106,10|0,0:0|1:0,0:0:0:0:
306,347,76769,2,0,L|266:356,3,40.6599987591553,8|4|8|0,0:0|0:3|0:3|1:0,0:0:0:0:
360,281,77085,1,8,0:0:0:0:
379,285,77163,1,4,0:3:0:0:
399,290,77242,1,8,0:0:0:0:
419,295,77321,1,8,0:0:0:0:
438,300,77401,6,0,L|418:221,1,81.3199975183106,4|0,1:2|1:0,0:0:0:0:
512,25,77717,1,10,0:0:0:0:
400,134,77875,1,0,1:0:0:0:
375,0,78033,1,10,0:0:0:0:
485,112,78190,1,0,1:0:0:0:
336,198,78348,2,0,L|257:178,1,81.3199975183106,10|0,0:0|1:0,0:0:0:0:
127,0,78664,6,0,P|202:14|233:99,1,162.639995036621,14|10,0:0|0:0,0:0:0:0:
59,70,79138,1,0,1:0:0:0:
163,179,79296,2,0,P|148:141|143:100,1,81.3199975183106,10|0,0:0|1:0,0:0:0:0:
257,178,79612,1,10,0:0:0:0:
169,297,79769,1,0,1:0:0:0:
31,168,79927,5,6,1:2:0:0:
68,317,80086,2,0,L|87:237,1,81.3199975183106,0|0,1:0|1:0,0:0:0:0:
0,384,80401,1,8,0:0:0:0:
169,297,80559,2,0,L|247:316,1,81.3199975183106,10|0,0:0|1:0,0:0:0:0:
369,342,80875,1,8,0:0:0:0:
322,164,81033,2,0,L|341:242,1,81.3199975183106,10|0,0:0|1:0,0:0:0:0:
214,151,81348,5,8,0:0:0:0:
214,151,81427,1,8,0:0:0:0:
214,151,81506,2,0,L|223:111,3,40.6599987591553,0|0|0|4,1:0|1:0|1:0|0:3,0:0:0:0:
291,39,81822,2,0,L|281:0,3,40.6599987591553,8|8|0|0,0:0|0:0|1:0|1:0,0:0:0:0:
165,23,82138,1,8,0:0:0:0:
145,19,82216,1,8,0:0:0:0:
125,14,82295,1,8,0:0:0:0:
105,9,82374,1,8,0:0:0:0:
86,4,82454,6,0,P|106:82|125:161,1,162.639995036621,6|8,1:2|0:0,0:0:0:0:
177,327,82927,1,2,1:2:0:0:
65,233,83085,1,8,0:0:0:0:
250,123,83243,1,2,1:2:0:0:
189,231,83401,1,8,0:0:0:0:
394,292,83559,6,0,P|360:227|278:212,1,162.639995036621,6|4,1:2|1:3,0:0:0:0:
280,384,84033,2,0,P|288:349|299:305,1,81.3199975183106,8|0,0:0|1:0,0:0:0:0:
382,185,84348,2,0,P|373:150|362:106,1,81.3199975183106,8|0,0:0|1:0,0:0:0:0:
467,227,84664,1,10,0:0:0:0:
277,127,84822,5,8,0:3:0:0:
277,127,84901,1,4,0:3:0:0:
277,127,84980,2,0,B|216:141|216:141|193:175|193:175|131:190,1,162.639995036621,6|0,1:2|1:0,0:0:0:0:
28,41,85454,2,0,P|66:42|106:60,1,81.3199975183106,10|0,0:0|1:0,0:0:0:0:
20,229,85769,2,0,L|39:150,1,81.3199975183106,10|0,0:0|1:0,0:0:0:0:
29,342,86085,6,0,P|118:308|300:268,1,279.679990611328,14|0,0:0|0:0,0:0:0:0:
155,206,86875,1,10,0:0:0:0:
294,353,87033,1,8,0:3:0:0:
294,353,87506,5,10,0:0:0:0:
406,210,87664,2,0,L|389:142,1,69.9199976528321,10|0,0:0|1:0,0:0:0:0:
400,310,87980,5,10,0:0:0:0:
512,167,88138,2,0,L|495:99,1,69.9199976528321,10|0,0:0|1:0,0:0:0:0:
283,185,88454,6,0,L|300:253,1,69.9199976528321,10|0,0:0|1:0,0:0:0:0:
311,274,88690,5,0,1:0:0:0:
311,274,88769,1,10,0:0:0:0:
395,127,88927,1,10,0:0:0:0:
249,36,89085,1,10,0:0:0:0:
403,224,89243,1,10,0:0:0:0:
