osu file format v14

[General]
AudioFilename: audio.mp3
AudioLeadIn: 0
PreviewTime: 67217
Countdown: 0
SampleSet: Soft
StackLeniency: 0.5
Mode: 0
LetterboxInBreaks: 0
WidescreenStoryboard: 1

[Editor]
DistanceSpacing: 0.7
BeatDivisor: 4
GridSize: 32
TimelineZoom: 2.1

[Metadata]
Title:BLESS YoUr NAME (TV Size)
TitleUnicode:BLESS YoUr NAME (TV Size)
Artist:ChouCho
ArtistUnicode:ChouCho
Creator:MajK00
Version:Enu's Expert
Source:ハイスクールD×D BorN
Tags:season 3 third three highschool DxD ちょうちょ opening high school pop jpop j-pop japanese anime enuhq kuki1537
BeatmapID:4208058
BeatmapSetID:1726797

[Difficulty]
HPDrainRate:5
CircleSize:3.8
OverallDifficulty:8.7
ApproachRate:9.1
SliderMultiplier:1.82
SliderTickRate:1

[Events]
//Background and Video events
0,0,"bg.jpg",0,0
//Break Periods
//Storyboard Layer 0 (Background)
//Storyboard Layer 1 (Fail)
//Storyboard Layer 2 (Pass)
//Storyboard Layer 3 (Foreground)
//Storyboard Layer 4 (Overlay)
//Storyboard Sound Samples

[TimingPoints]
1612,315.789473684211,4,2,27,70,1,0
1612,-238.095238095238,4,2,27,70,0,0
4138,-108.695652173913,4,2,27,70,0,0
10296,-192.307692307693,4,2,27,65,0,0
11717,-98.0392156862745,4,2,27,70,0,0
19296,-98.0392156862745,4,2,27,75,0,0
21822,-138.888888888889,4,2,27,65,0,0
26480,-138.888888888889,4,2,27,5,0,0
26559,-138.888888888889,4,2,27,65,0,0
31454,-108.695652173913,4,2,27,65,0,0
31927,-121.951219512195,4,2,27,65,0,0
42033,-138.888888888889,4,2,27,55,0,0
57190,-121.951219512195,4,2,27,65,0,0
59717,-108.695652173913,4,2,27,65,0,0
62243,-98.0392156862746,4,2,27,65,0,0
66033,-121.951219512195,4,2,27,65,0,0
67296,-94.3396226415094,4,2,27,75,0,0
70059,-94.3396226415094,4,2,27,5,0,0
70138,-94.3396226415094,4,2,27,75,0,0
86085,-121.951219512195,4,2,27,75,0,0
87506,-94.3396226415094,4,2,27,75,0,0

[Colours]
Combo1 : 0,126,187
Combo2 : 255,40,40
Combo3 : 245,191,141
Combo4 : 192,192,192

[HitObjects]
477,75,1612,6,0,B|412:45|351:92|394:126|326:168|271:135,1,229.319993001709,6|0,1:2|0:0,0:0:0:0:
169,62,2875,6,0,P|197:175|224:299,1,229.319993001709,6|0,1:2|0:0,0:0:0:0:
56,353,4138,5,6,1:2:0:0:
158,178,4296,1,4,0:3:0:0:
158,178,4454,1,0,1:0:0:0:
75,229,4612,1,12,0:0:0:0:
198,381,4769,2,0,P|238:369|286:360,1,83.7199971895753,10|0,0:0|1:0,0:0:0:0:
424,234,5085,1,12,0:0:0:0:
377,384,5243,6,0,P|368:342|357:302,1,83.7199971895753,10|0,0:0|1:0,0:0:0:0:
261,201,5559,1,10,0:0:0:0:
444,259,5717,2,0,P|453:217|464:177,1,83.7199971895753,8|0,0:0|0:0,0:0:0:0:
296,37,6033,1,8,0:0:0:0:
355,144,6190,1,4,0:3:0:0:
477,28,6348,1,8,0:3:0:0:
435,25,6426,1,8,0:3:0:0:
397,42,6505,1,4,0:3:0:0:
257,145,6664,6,0,P|298:153|339:166,1,83.7199971895753,6|0,1:2|0:0,0:0:0:0:
162,232,6980,1,0,1:0:0:0:
260,342,7138,2,0,P|268:300|280:260,1,83.7199971895753,10|0,0:0|1:0,0:0:0:0:
93,384,7454,2,0,P|84:342|72:302,1,83.7199971895753,10|0,0:0|1:0,0:0:0:0:
130,108,7769,6,0,P|77:168|0:151,1,167.439994379151,14|8,0:0|0:0,0:0:0:0:
105,12,8243,2,0,P|144:24|185:32,1,83.7199971895753,8|8,0:0|0:3,0:0:0:0:
246,83,8480,1,4,0:3:0:0:
246,83,8559,2,0,P|285:70|326:62,1,83.7199971895753,8|4,0:0|0:3,0:0:0:0:
477,0,8875,2,0,P|442:26|431:70,1,83.7199971895753,6|8,1:3|0:3,0:0:0:0:
499,129,9190,5,6,1:2:0:0:
353,253,9348,1,8,0:0:0:0:
401,160,9506,1,8,0:0:0:0:
512,315,9664,2,0,P|470:322|431:336,1,83.7199971895753,2|0,1:2|0:0,0:0:0:0:
252,226,9980,2,0,P|293:233|332:247,1,83.7199971895753,2|0,1:2|0:0,0:0:0:0:
157,374,10296,6,0,P|130:256|98:127,1,236.599998555908,14|2,0:0|0:0,0:0:0:0:
310,54,11717,6,0,P|262:41|209:30,1,92.8200005665283,6|0,1:2|0:0,0:0:0:0:
325,175,12033,1,8,0:0:0:0:
435,4,12190,1,0,1:0:0:0:
317,190,12348,2,0,P|271:199|226:212,1,92.8200005665283,8|0,0:0|1:0,0:0:0:0:
36,323,12664,1,8,0:0:0:0:
158,128,12822,1,4,1:2:0:0:
17,215,12980,6,0,P|2:171|16:128,1,92.8200005665283,8|0,0:0|1:0,0:0:0:0:
130,279,13296,2,0,P|144:322|129:365,1,92.8200005665283,8|0,0:0|1:0,0:0:0:0:
265,169,13612,1,8,0:0:0:0:
149,133,13769,1,0,1:0:0:0:
149,133,13848,1,0,1:0:0:0:
149,133,13927,2,0,L|160:182,1,46.4100002832642,8|0,0:0|1:0,0:0:0:0:
342,89,14085,2,0,L|354:44,1,46.4100002832642,0|0,1:0|1:0,0:0:0:0:
214,296,14243,6,0,P|258:283|304:274,1,92.8200005665283,12|0,0:0|1:0,0:0:0:0:
427,316,14559,1,8,0:0:0:0:
290,174,14717,1,0,1:0:0:0:
452,99,14875,2,0,P|438:143|429:189,1,92.8200005665283,8|4,0:0|0:3,0:0:0:0:
269,28,15190,1,8,0:0:0:0:
355,38,15348,6,0,B|315:49|277:55|277:55|261:87|261:87|220:95|183:106,1,185.640001133057,4|0,1:2|1:0,0:0:0:0:
0,0,15822,1,8,0:0:0:0:
84,94,15980,1,0,1:0:0:0:
22,244,16138,2,0,P|13:198|0:154,1,92.8200005665283,8|0,0:0|1:0,0:0:0:0:
133,243,16454,5,8,0:0:0:0:
125,264,16532,1,0,1:0:0:0:
118,287,16611,1,8,0:0:0:0:
113,309,16690,1,8,0:0:0:0:
110,332,16769,2,0,P|148:306|193:308,1,92.8200005665283,12|0,0:0|0:0,0:0:0:0:
328,216,17085,2,0,P|282:217|244:192,1,92.8200005665283,8|0,0:0|1:0,0:0:0:0:
370,46,17401,1,8,0:0:0:0:
444,235,17559,1,0,1:0:0:0:
280,98,17717,1,8,0:0:0:0:
499,167,17875,6,0,P|476:261|451:369,1,185.640001133057,4|8,1:2|0:0,0:0:0:0:
359,382,18348,2,0,P|320:356|275:358,1,92.8200005665283,8|4,0:0|0:3,0:0:0:0:
203,321,18585,1,8,0:3:0:0:
203,321,18664,2,0,P|164:346|119:344,1,92.8200005665283,8|4,0:0|0:3,0:0:0:0:
95,310,18901,1,8,0:3:0:0:
95,310,18980,2,0,P|100:287|105:264,1,46.4100002832642,8|8,0:0|0:0,0:0:0:0:
183,202,19138,2,0,P|177:179|172:156,1,46.4100002832642,0|0,1:0|0:0,0:0:0:0:
91,101,19296,5,10,0:0:0:0:
238,0,19454,2,0,P|285:11|334:22,1,92.8200005665283,8|0,0:0|1:0,0:0:0:0:
496,139,19769,5,10,0:0:0:0:
431,0,19927,2,0,P|419:47|408:96,1,92.8200005665283,8|0,0:0|1:0,0:0:0:0:
276,264,20243,5,10,0:0:0:0:
325,111,20401,2,0,P|336:158|347:207,1,92.8200005665283,10|0,0:0|1:0,0:0:0:0:
509,357,20717,5,10,0:0:0:0:
443,218,20875,2,0,P|431:265|420:314,1,92.8200005665283,10|0,0:0|1:0,0:0:0:0:
244,168,21190,5,10,0:0:0:0:
354,384,21348,2,0,P|316:357|270:358,1,92.8200005665283,10|0,0:0|0:0,0:0:0:0:
116,198,21822,6,0,P|179:183|243:168,1,131.040003199219,6|2,1:2|1:2,0:0:0:0:
318,79,22296,2,0,P|325:112|332:142,1,65.5200015996094,2|0,0:0|1:0,0:0:0:0:
236,11,22612,2,0,P|228:44|221:74,1,65.5200015996094,2|0,0:0|1:0,0:0:0:0:
81,54,22927,6,0,P|103:31|135:18,1,65.5200015996094,2|0,0:0|0:0,0:0:0:0:
63,151,23243,2,0,P|32:138|9:115,1,65.5200015996094,2|0,0:0|1:0,0:0:0:0:
152,130,23559,2,0,P|160:163|167:193,1,65.5200015996094,2|0,0:0|1:0,0:0:0:0:
271,172,23875,1,2,0:0:0:0:
271,172,24033,2,0,P|263:205|256:235,1,65.5200015996094,0|0,1:0|0:0,0:0:0:0:
215,360,24348,6,0,P|262:320|329:318,1,131.040003199219,2|0,1:2|1:0,0:0:0:0:
404,384,24822,2,0,B|434:341|434:341|406:266,1,131.040003199219,2|0,0:0|0:0,0:0:0:0:
347,195,25296,2,0,P|380:187|410:180,1,65.5200015996094,2|2,1:2|0:0,0:0:0:0:
475,104,25612,6,0,P|442:96|412:89,1,65.5200015996094,0|2,1:0|0:0,0:0:0:0:
327,22,25927,2,0,P|360:14|390:7,1,65.5200015996094,0|2,1:0|0:0,0:0:0:0:
274,96,26243,2,0,P|251:72|239:42,1,65.5200015996094,2|0,1:2|0:0,0:0:0:0:
369,118,26559,2,0,P|357:148|334:171,1,65.5200015996094,2|0,1:2|0:0,0:0:0:0:
241,237,26875,6,0,P|303:253|376:273,1,131.040003199219,6|2,1:2|1:2,0:0:0:0:
269,343,27348,2,0,P|236:335|206:328,1,65.5200015996094,2|0,0:0|1:0,0:0:0:0:
104,300,27664,2,0,P|112:333|119:363,1,65.5200015996094,2|0,0:0|1:0,0:0:0:0:
1,308,27980,6,0,P|17:246|37:173,1,131.040003199219,2|0,0:0|0:0,0:0:0:0:
34,89,28454,2,0,P|65:94|93:113,1,65.5200015996094,0|2,1:0|0:0,0:0:0:0:
195,180,28769,2,0,P|163:185|135:204,1,65.5200015996094,0|2,1:0|0:0,0:0:0:0:
188,80,29085,1,2,1:2:0:0:
188,80,29243,1,2,0:0:0:0:
282,208,29401,6,0,P|290:175|297:145,1,65.5200015996094,6|0,1:2|0:0,0:0:0:0:
404,166,29717,1,2,1:2:0:0:
404,166,29875,2,0,P|396:133|389:103,1,65.5200015996094,2|0,0:0|1:0,0:0:0:0:
490,233,30190,2,0,P|498:200|505:170,1,65.5200015996094,2|0,0:0|1:0,0:0:0:0:
396,271,30506,1,2,0:0:0:0:
512,384,30664,5,8,1:2:0:0:
396,271,30822,1,4,0:3:0:0:
396,271,30901,1,4,0:3:0:0:
396,271,30980,1,8,0:3:0:0:
223,364,31138,2,0,P|255:369|286:377,1,65.5200015996094,8|0,0:0|0:0,0:0:0:0:
69,383,31454,2,0,P|117:320|82:249,1,167.439994379151,10|8,0:0|0:0,0:0:0:0:
0,263,31848,5,8,0:0:0:0:
0,263,31927,2,0,P|8:225|18:181,1,74.6200011386109,6|0,1:2|1:0,0:0:0:0:
152,49,32243,1,10,0:0:0:0:
7,51,32401,2,0,P|31:78|69:91,1,74.6200011386109,2|0,0:0|1:0,0:0:0:0:
211,8,32717,2,0,P|176:20|151:48,1,74.6200011386109,2|8,1:2|0:0,0:0:0:0:
225,132,33033,6,0,P|187:140|152:149,1,74.6200011386109,2|0,1:2|0:0,0:0:0:0:
70,220,33348,2,0,P|107:228|142:237,1,74.6200011386109,2|8,1:2|0:0,0:0:0:0:
220,316,33664,2,0,P|182:324|147:333,1,74.6200011386109,2|0,0:0|1:0,0:0:0:0:
270,221,33980,1,2,1:2:0:0:
325,382,34138,2,0,P|333:344|342:309,1,74.6200011386109,8|2,0:0|0:0,0:0:0:0:
477,172,34454,5,4,1:2:0:0:
357,215,34612,1,0,1:0:0:0:
488,279,34769,1,8,0:0:0:0:
358,125,34927,2,0,B|326:131|296:138|296:138|282:162|282:162|251:168|220:175,1,149.240002277222,2|0,1:2|1:0,0:0:0:0:
52,75,35401,2,0,P|60:113|69:148,1,74.6200011386109,8|0,0:0|0:0,0:0:0:0:
172,76,35717,5,0,1:0:0:0:
67,247,35875,1,0,1:0:0:0:
202,180,36033,2,0,P|194:218|185:253,1,74.6200011386109,10|0,0:0|0:0,0:0:0:0:
121,339,36348,1,2,1:2:0:0:
283,223,36506,2,0,P|291:261|300:296,1,74.6200011386109,2|8,1:2|0:0,0:0:0:0:
428,349,36822,5,2,1:2:0:0:
428,349,36901,1,8,0:3:0:0:
428,349,36980,2,0,P|391:351|358:374,1,74.6200011386109,2|0,1:2|1:0,0:0:0:0:
490,264,37296,1,10,0:0:0:0:
379,176,37454,2,0,P|387:212|395:248,1,74.6200011386109,2|0,0:0|1:0,0:0:0:0:
283,173,37769,1,2,1:2:0:0:
440,97,37927,2,0,P|403:88|367:80,1,74.6200011386109,10|0,0:0|0:0,0:0:0:0:
192,27,38243,5,0,1:0:0:0:
192,27,38401,1,0,1:0:0:0:
293,5,38559,2,0,P|284:41|276:77,1,74.6200011386109,8|0,0:0|0:0,0:0:0:0:
121,138,38875,2,0,P|157:139|188:160,1,74.6200011386109,2|0,1:2|1:0,0:0:0:0:
15,60,39190,2,0,P|51:58|82:37,1,74.6200011386109,10|0,0:0|0:0,0:0:0:0:
26,173,39506,6,0,P|17:209|9:245,1,74.6200011386109,6|0,1:2|1:0,0:0:0:0:
179,321,39822,1,8,0:0:0:0:
100,384,39980,2,0,P|91:347|83:311,1,74.6200011386109,2|0,1:2|0:0,0:0:0:0:
272,242,40296,5,0,1:0:0:0:
272,242,40375,1,8,0:3:0:0:
272,242,40454,2,0,P|197:224|126:208,1,149.240002277222,14|0,0:0|1:0,0:0:0:0:
242,137,40927,1,8,0:0:0:0:
352,303,41085,2,0,P|361:266|369:230,1,74.6200011386109,10|0,0:0|1:0,0:0:0:0:
383,198,41322,1,0,1:0:0:0:
383,198,41401,1,10,0:0:0:0:
475,256,41559,1,10,0:0:0:0:
341,105,41717,1,8,0:0:0:0:
480,156,41875,1,8,0:0:0:0:
346,6,42033,6,0,P|311:13|260:25,1,65.5200015996094,6|0,1:2|1:0,0:0:0:0:
133,131,42348,1,0,1:0:0:0:
193,13,42506,2,0,P|207:75|226:157,1,131.040003199219,2|0,1:2|0:0,0:0:0:0:
209,247,42980,2,0,P|181:228|149:222,1,65.5200015996094,2|0,1:2|1:0,0:0:0:0:
67,260,43296,5,2,1:2:0:0:
181,347,43454,2,0,P|243:333|325:314,1,131.040003199219,0|2,1:0|1:2,0:0:0:0:
346,307,43848,1,0,1:0:0:0:
346,307,43927,2,0,P|353:342|365:393,1,65.5200015996094,8|0,0:0|1:0,0:0:0:0:
461,253,44243,2,0,P|453:288|442:339,1,65.5200015996094,2|0,0:0|1:0,0:0:0:0:
332,209,44559,6,0,P|363:203|389:182,1,65.5200015996094,6|0,1:2|1:0,0:0:0:0:
462,22,44875,1,0,1:0:0:0:
512,126,45033,2,0,P|448:111|384:96,1,131.040003199219,2|0,1:2|0:0,0:0:0:0:
328,25,45506,2,0,P|293:33|242:44,1,65.5200015996094,2|0,1:2|1:0,0:0:0:0:
183,2,45822,5,4,1:2:0:0:
306,145,45980,2,0,P|291:209|276:273,1,131.040003199219,0|0,1:0|1:0,0:0:0:0:
271,301,46375,1,0,1:0:0:0:
271,301,46454,1,8,0:0:0:0:
97,377,46612,1,0,1:0:0:0:
170,294,46769,1,8,0:0:0:0:
2,205,46927,1,8,0:0:0:0:
77,282,47085,6,0,P|91:217|106:152,1,131.040003199219,6|0,1:2|0:0,0:0:0:0:
213,203,47559,2,0,P|198:138|183:73,1,131.040003199219,2|0,1:2|0:0,0:0:0:0:
237,7,48033,1,2,0:0:0:0:
420,130,48348,6,0,P|361:105|302:130,1,131.040003199219,2|0,1:2|0:0,0:0:0:0:
366,209,48822,2,0,P|424:233|484:210,1,131.040003199219,2|0,1:2|0:0,0:0:0:0:
506,119,49296,1,2,0:0:0:0:
267,23,49612,6,0,P|275:58|286:109,1,65.5200015996094,2|0,1:2|0:0,0:0:0:0:
382,46,49927,1,2,0:0:0:0:
382,46,50085,2,0,P|367:111|352:176,1,131.040003199219,2|0,1:2|0:0,0:0:0:0:
293,244,50559,1,2,1:2:0:0:
403,350,50875,5,0,1:0:0:0:
293,244,51033,2,0,L|211:262,1,65.5200015996094,8|4,0:0|0:3,0:0:0:0:
293,371,51348,1,4,0:3:0:0:
293,371,51427,1,8,0:3:0:0:
293,371,51506,2,0,L|211:352,1,65.5200015996094,10|8,0:0|0:3,0:0:0:0:
123,279,51822,2,0,P|130:313|123:344,1,65.5200015996094,10|8,0:0|0:3,0:0:0:0:
22,226,52138,6,0,P|14:257|21:289,1,65.5200015996094,6|0,1:2|1:0,0:0:0:0:
115,182,52454,1,2,1:2:0:0:
115,182,52612,1,2,1:2:0:0:
20,110,52769,2,0,P|52:102|83:95,1,65.5200015996094,8|0,0:0|0:0,0:0:0:0:
146,27,53085,2,0,P|178:34|209:41,1,65.5200015996094,2|0,1:2|1:0,0:0:0:0:
387,17,53401,5,2,1:2:0:0:
387,17,53559,1,0,1:0:0:0:
292,126,53717,2,0,P|299:93|306:62,1,65.5200015996094,10|2,0:0|0:0,0:0:0:0:
437,158,54033,1,0,1:0:0:0:
437,158,54190,1,0,1:0:0:0:
368,255,54348,2,0,P|360:222|353:191,1,65.5200015996094,10|0,0:0|0:0,0:0:0:0:
480,295,54664,6,0,P|447:307|425:330,1,65.5200015996094,6|0,1:2|1:0,0:0:0:0:
358,240,54980,1,2,1:2:0:0:
272,384,55138,2,0,P|302:372|325:349,1,65.5200015996094,2|8,1:2|0:0,0:0:0:0:
165,238,55454,1,2,0:0:0:0:
249,294,55612,2,0,P|257:261|264:230,1,65.5200015996094,2|0,1:2|1:0,0:0:0:0:
149,112,55927,5,0,1:0:0:0:
223,152,56085,1,0,1:0:0:0:
297,110,56243,1,4,0:3:0:0:
371,70,56401,1,0,1:0:0:0:
445,112,56559,5,10,0:0:0:0:
359,216,56796,5,2,1:2:0:0:
450,358,57033,5,10,0:3:0:0:
512,299,57190,6,0,P|403:323|294:349,1,223.860003415833,10|2,0:0|1:2,0:0:0:0:
370,235,57822,1,8,0:0:0:0:
152,301,58138,6,0,P|160:337|168:373,1,74.6200011386109,6|0,1:2|0:0,0:0:0:0:
51,249,58454,1,8,0:0:0:0:
51,249,58612,2,0,P|43:285|35:321,1,74.6200011386109,0|0,1:0|0:0,0:0:0:0:
162,194,58927,1,0,1:0:0:0:
162,194,59006,1,0,1:0:0:0:
162,194,59085,1,8,0:0:0:0:
50,120,59243,1,0,1:0:0:0:
142,32,59401,2,0,P|167:37|191:43,1,37.3100005693054,10|0,0:0|1:0,0:0:0:0:
239,102,59559,2,0,P|264:96|288:90,1,37.3100005693054,0|0,1:0|1:0,0:0:0:0:
371,30,59717,6,0,P|380:71|391:118,1,83.7199971895753,14|0,0:0|1:0,0:0:0:0:
498,196,60033,2,0,P|488:236|479:277,1,83.7199971895753,0|2,1:0|1:2,0:0:0:0:
316,348,60348,1,0,1:0:0:0:
372,263,60506,1,0,1:0:0:0:
219,384,60664,1,2,1:2:0:0:
163,299,60822,1,0,1:0:0:0:
262,218,60980,6,0,L|221:208,3,41.8599985947876,0|8|8|8,1:0|0:0|0:0|0:0,0:0:0:0:
98,112,61296,2,0,L|138:102,3,41.8599985947876,8|8|8|8,1:2|0:0|0:0|0:0,0:0:0:0:
214,0,61612,1,10,1:2:0:0:
220,28,61690,1,8,0:0:0:0:
227,57,61769,1,10,0:0:0:0:
233,85,61848,1,8,0:0:0:0:
240,114,61927,2,0,L|287:102,1,41.8599985947876,10|8,0:0|0:0,0:0:0:0:
385,34,62085,2,0,L|337:22,1,41.8599985947876,8|8,0:0|0:0,0:0:0:0:
442,216,62243,5,14,0:0:0:0:
493,120,62401,1,0,1:0:0:0:
335,186,62559,1,0,1:0:0:0:
494,313,62717,2,0,P|447:322|392:336,1,92.8200005665283,14|0,0:0|1:0,0:0:0:0:
224,201,63033,1,0,1:0:0:0:
285,384,63190,2,0,P|294:337|308:282,1,92.8200005665283,14|0,0:0|1:0,0:0:0:0:
351,164,63506,5,0,1:0:0:0:
174,381,63664,2,0,P|165:334|151:279,1,92.8200005665283,12|0,0:0|1:0,0:0:0:0:
2,175,63980,1,0,1:0:0:0:
2,175,64059,1,0,1:0:0:0:
2,175,64138,2,0,P|47:171|79:139,1,92.8200005665283,12|0,0:0|1:0,0:0:0:0:
121,73,64375,1,0,0:0:0:0:
121,73,64454,2,0,P|166:76|198:108,1,92.8200005665283,12|0,0:0|1:0,0:0:0:0:
218,138,64690,5,0,1:0:0:0:
218,138,64769,2,0,P|242:131|271:124,1,46.4100002832642,10|8,0:0|0:0,0:0:0:0:
307,26,64927,1,8,0:3:0:0:
349,44,65005,1,4,0:3:0:0:
377,81,65084,1,8,0:3:0:0:
382,127,65163,1,8,0:3:0:0:
365,169,65243,2,0,P|389:175|418:182,1,46.4100002832642,10|8,0:0|0:0,0:0:0:0:
512,287,65401,5,8,0:3:0:0:
467,274,65479,1,4,0:3:0:0:
424,287,65558,1,8,0:3:0:0:
393,321,65637,1,8,0:3:0:0:
386,367,65717,2,0,P|361:360|332:353,1,46.4100002832642,10|8,0:0|0:0,0:0:0:0:
235,294,65875,2,0,P|210:300|181:307,1,46.4100002832642,0|0,1:0|1:0,0:0:0:0:
62,346,66033,5,14,0:0:0:0:
424,70,67296,6,0,B|385:84|345:85|345:85|325:117|325:117|284:117|247:132,1,192.920000294373,6|10,1:2|0:0,0:0:0:0:
100,0,67769,2,0,P|139:26|153:71,1,96.4600001471863,2|0,0:0|1:0,0:0:0:0:
82,258,68085,2,0,P|101:214|144:193,1,96.4600001471863,2|8,1:2|0:0,0:0:0:0:
250,337,68401,6,0,P|149:359|53:382,1,192.920000294373,6|0,1:2|1:0,0:0:0:0:
246,229,68875,1,8,0:0:0:0:
347,384,69033,2,0,P|357:335|370:281,1,96.4600001471863,2|0,0:0|1:0,0:0:0:0:
512,134,69348,1,2,1:2:0:0:
470,312,69506,2,0,P|459:263|446:209,1,96.4600001471863,8|0,0:0|0:0,0:0:0:0:
443,38,69822,6,0,P|401:88|327:84,1,144.690000220779,6|0,1:2|0:0,0:0:0:0:
301,69,70138,1,10,0:0:0:0:
160,0,70296,2,0,P|196:29|204:76,1,96.4600001471863,2|0,1:2|0:0,0:0:0:0:
55,183,70612,2,0,P|84:146|131:138,1,96.4600001471863,2|8,1:2|0:0,0:0:0:0:
189,355,70927,6,0,P|211:254|234:158,1,192.920000294373,6|2,1:2|1:2,0:0:0:0:
99,283,71401,1,10,0:0:0:0:
332,214,71559,1,0,1:0:0:0:
332,214,71638,1,8,0:0:0:0:
332,214,71717,2,0,P|320:260|310:307,1,96.4600001471863,0|0,1:0|1:0,0:0:0:0:
505,143,72033,5,8,0:0:0:0:
459,157,72111,1,8,0:0:0:0:
412,147,72190,1,8,0:0:0:0:
375,116,72269,1,8,0:0:0:0:
358,72,72348,2,0,P|318:98|271:92,1,96.4600001471863,6|0,1:2|0:0,0:0:0:0:
98,6,72664,1,10,0:0:0:0:
146,183,72822,2,0,P|156:135|168:89,1,96.4600001471863,2|0,0:0|1:0,0:0:0:0:
33,270,73138,2,0,P|22:222|10:176,1,96.4600001471863,2|8,1:2|0:0,0:0:0:0:
128,363,73454,6,0,P|187:292|277:309,1,192.920000294373,6|2,1:2|1:2,0:0:0:0:
445,212,73927,1,8,0:0:0:0:
385,384,74085,2,0,P|368:339|385:294,1,96.4600001471863,2|0,0:0|1:0,0:0:0:0:
260,122,74401,1,2,1:2:0:0:
471,63,74559,1,8,0:0:0:0:
294,239,74717,5,0,1:0:0:0:
294,239,74796,1,8,0:3:0:0:
294,239,74875,2,0,P|196:216|97:194,1,192.920000294373,6|0,1:2|1:0,0:0:0:0:
319,117,75348,2,0,P|365:129|412:139,1,96.4600001471863,10|0,0:0|1:0,0:0:0:0:
143,76,75664,2,0,P|95:65|49:53,1,96.4600001471863,10|0,0:0|1:0,0:0:0:0:
251,0,75980,6,0,P|228:98|206:197,1,192.920000294373,14|0,0:0|1:0,0:0:0:0:
145,356,76454,1,10,0:0:0:0:
312,217,76612,1,0,1:0:0:0:
81,88,76769,1,8,0:0:0:0:
89,125,76847,1,4,0:3:0:0:
98,163,76926,1,8,0:3:0:0:
107,200,77005,1,0,1:0:0:0:
113,239,77085,2,0,P|88:244|66:249,1,48.2300000735931,8|4,0:0|0:3,0:0:0:0:
202,122,77243,2,0,P|226:127|248:132,1,48.2300000735931,8|8,0:0|0:0,0:0:0:0:
436,283,77401,6,0,P|446:238|457:189,1,96.4600001471863,4|0,1:2|1:0,0:0:0:0:
323,6,77717,2,0,P|333:50|344:99,1,96.4600001471863,10|0,0:0|1:0,0:0:0:0:
273,250,78033,5,10,0:0:0:0:
446,93,78190,1,0,1:0:0:0:
214,12,78348,1,10,0:0:0:0:
362,197,78506,1,0,1:0:0:0:
127,95,78664,6,0,P|171:105|220:116,1,96.4600001471863,14|0,0:0|1:0,0:0:0:0:
25,273,78980,2,0,P|69:263|118:252,1,96.4600001471863,10|0,0:0|1:0,0:0:0:0:
335,365,79296,5,10,0:0:0:0:
208,229,79454,1,0,1:0:0:0:
378,115,79612,1,10,0:0:0:0:
423,299,79769,1,0,1:0:0:0:
234,112,79927,5,6,1:2:0:0:
381,0,80085,2,0,P|371:44|360:93,1,96.4600001471863,0|0,1:0|1:0,0:0:0:0:
300,289,80401,5,8,0:0:0:0:
512,178,80559,2,0,P|468:188|419:199,1,96.4600001471863,10|0,0:0|1:0,0:0:0:0:
253,132,80875,5,8,0:0:0:0:
427,321,81033,2,0,P|383:311|334:300,1,96.4600001471863,10|0,0:0|1:0,0:0:0:0:
150,384,81348,1,8,0:0:0:0:
150,384,81427,1,8,0:0:0:0:
150,384,81506,2,0,P|156:359|163:328,1,48.2300000735931,0|0,1:0|1:0,0:0:0:0:
11,174,81664,2,0,P|5:199|-3:230,1,48.2300000735931,0|4,1:0|0:3,0:0:0:0:
156,44,81822,5,8,0:0:0:0:
183,83,81900,1,8,0:0:0:0:
193,130,81980,1,0,1:0:0:0:
183,177,82058,1,0,1:0:0:0:
156,217,82138,2,0,P|178:208|201:201,1,48.2300000735931,8|8,0:0|0:0,0:0:0:0:
358,91,82296,5,8,0:0:0:0:
358,91,82375,1,8,0:0:0:0:
358,91,82454,2,0,P|368:135|379:184,1,96.4600001471863,6|0,1:2|1:0,0:0:0:0:
319,323,82769,1,8,0:0:0:0:
498,155,82927,1,2,1:2:0:0:
227,36,83085,1,8,0:0:0:0:
283,197,83243,1,2,1:2:0:0:
408,0,83401,1,8,0:0:0:0:
266,216,83559,6,0,B|139:173|139:173|113:196|92:215,1,192.920000294373,6|4,1:2|1:3,0:0:0:0:
24,90,84033,1,8,0:0:0:0:
165,268,84190,1,0,1:0:0:0:
16,384,84348,2,0,P|26:340|37:291,1,96.4600001471863,8|0,0:0|1:0,0:0:0:0:
200,384,84664,2,0,P|190:340|179:291,1,96.4600001471863,10|8,0:0|0:3,0:0:0:0:
172,260,84901,5,4,0:3:0:0:
172,260,84980,2,0,B|210:269|248:273|248:273|270:306|270:306|311:310|354:320,1,192.920000294373,6|0,1:2|1:0,0:0:0:0:
512,136,85454,2,0,P|501:183|490:230,1,96.4600001471863,10|0,0:0|1:0,0:0:0:0:
330,118,85769,2,0,P|340:70|351:23,1,96.4600001471863,10|0,0:0|1:0,0:0:0:0:
232,328,86085,6,0,P|362:274|512:225,1,298.480004554443,14|0,0:0|0:0,0:0:0:0:
320,145,86875,1,10,0:0:0:0:
504,365,87033,1,8,0:3:0:0:
195,101,87506,5,10,0:0:0:0:
323,269,87664,2,0,P|333:224|349:155,1,96.4600001471863,10|0,0:0|1:0,0:0:0:0:
184,244,87980,5,10,0:0:0:0:
428,84,88138,2,0,P|438:128|454:197,1,96.4600001471863,10|0,0:0|1:0,0:0:0:0:
264,31,88454,6,0,P|224:4|177:7,1,96.4600001471863,10|0,0:0|1:0,0:0:0:0:
146,19,88690,1,0,1:0:0:0:
146,19,88769,1,10,0:0:0:0:
43,167,88927,1,10,0:0:0:0:
190,271,89085,1,10,0:0:0:0:
294,122,89243,1,10,0:0:0:0:
