osu file format v14

[General]
AudioFilename: audio.mp3
AudioLeadIn: 0
PreviewTime: 59420
Countdown: 0
SampleSet: Soft
StackLeniency: 0.7
Mode: 0
LetterboxInBreaks: 0
WidescreenStoryboard: 1

[Editor]
DistanceSpacing: 1
BeatDivisor: 4
GridSize: 32
TimelineZoom: 1

[Metadata]
Title:Authentic symphony
TitleUnicode:Authentic symphony
Artist:ChouCho
ArtistUnicode:ちょうちょ
Creator:timemon
Version:Normal
Source:ましろ色シンフォニー -The color of lovers-
Tags:uberzolik anime full version Mashiro-iro Symphony: The Color of Lovers Mashiroiro
BeatmapID:1590377
BeatmapSetID:754826

[Difficulty]
HPDrainRate:4
CircleSize:4
OverallDifficulty:5
ApproachRate:6
SliderMultiplier:0.999999999999999
SliderTickRate:1

[Events]
//Background and Video events
0,0,"mashiroirobg2.jpg",0,0
//Break Periods
2,12306,13798
2,87734,97456
2,171391,181113
2,206848,216770
2,218020,227398
//Storyboard Layer 0 (Background)
//Storyboard Layer 1 (Fail)
//Storyboard Layer 2 (Pass)
//Storyboard Layer 3 (Foreground)
//Storyboard Sound Samples

[TimingPoints]
2506,342.857142857143,4,2,1,50,1,0
6620,-100,4,2,1,70,0,0
7820,-100,4,2,1,70,0,0
11248,-100,4,2,1,70,0,0
15363,-100,4,2,2,50,0,0
36791,-100,4,2,1,60,0,0
58734,-100,4,2,2,60,0,0
59420,-100,4,2,1,40,0,0
59763,-100,4,2,1,60,0,0
59934,-100,4,2,1,40,0,0
60106,-100,4,2,1,80,0,1
82048,-100,4,2,1,60,0,0
98506,-100,4,2,1,60,0,0
129877,-100,4,2,1,70,0,0
131420,-100,4,2,1,60,0,0
142391,-100,4,2,2,60,0,0
143077,-100,4,2,1,60,0,0
143677,-100,4,2,1,5,0,0
143763,-100,4,2,1,80,0,1
148477,-100,4,2,1,5,0,1
148563,-100,4,2,1,80,0,1
165706,-100,4,2,1,60,0,0
171191,-100,4,2,1,60,0,0
174020,-100,4,2,1,5,0,0
174106,-100,4,2,1,60,0,0
176677,-100,4,2,1,60,0,0
180620,-100,4,2,1,70,0,0
180877,-100,4,2,1,5,0,0
180963,-100,4,2,1,70,0,0
182163,-100,4,2,1,80,0,1
182248,-100,4,2,1,5,0,0
182334,-100,4,2,1,80,0,0
193134,-100,4,2,1,80,0,1
193220,-100,4,2,1,80,0,0
197334,-100,4,2,1,5,0,0
197420,-100,4,2,1,80,0,0
217820,-100,4,2,2,50,0,0
226048,-100,4,2,2,30,0,0
228106,-100,4,2,1,40,0,0
228448,-100,4,2,1,60,0,0
228791,-100,4,2,1,70,0,1
233506,-100,4,2,1,5,0,1
233591,-100,4,2,1,70,0,1
250734,-100,4,2,1,60,0,0
267191,-100,4,2,1,5,0,0

[Colours]
Combo1 : 233,233,233
Combo2 : 170,255,255
Combo3 : 255,213,255
Combo4 : 255,255,185

[HitObjects]
129,105,6277,5,0,0:0:0:0:
129,105,6620,6,0,P|112:172|203:252,1,200,4|0,0:0|0:0,0:0:0:0:
249,243,7477,1,0,0:0:0:0:
310,322,7820,2,0,P|339:282|343:215,2,99.9999999999999,4|0|0,0:0|0:0|3:0,0:0:0:0:
215,355,8848,1,0,3:0:0:0:
215,355,9020,2,0,L|148:361,1,50,2|2,0:0|0:0,0:0:0:0:
133,316,9363,6,0,P|117:261|137:207,1,99.9999999999999,4|0,0:0|0:0,0:0:0:0:
149,175,9877,2,0,P|165:120|145:66,2,99.9999999999999,0|0|4,0:0|0:0|0:0,0:0:0:0:
62,123,10906,1,8,0:0:0:0:
149,175,11248,2,0,L|211:170,2,50,0|0|0,3:0|3:0|3:0,0:0:0:0:
128,221,11763,2,0,L|66:216,1,50,0|0,3:0|3:0,0:0:0:0:
43,253,12106,5,4,0:0:0:0:
256,192,14848,5,2,0:0:0:0:
357,302,15363,1,0,0:0:0:0:
357,302,15534,2,0,P|376:251|363:185,1,99.9999999999999,0|0,0:0|0:0,0:0:0:0:
359,157,16048,2,0,P|340:106|353:40,1,99.9999999999999,0|0,0:0|0:0,0:0:0:0:
368,17,16563,2,0,L|477:27,2,99.9999999999999,0|0|0,0:0|0:0|0:0,0:0:0:0:
318,7,17420,1,0,0:0:0:0:
318,7,17591,1,2,0:0:0:0:
156,86,18620,5,0,0:0:0:0:
156,86,18791,2,0,P|170:134|146:198,1,99.9999999999999,2|0,0:0|0:0,0:0:0:0:
133,225,19306,2,0,B|91:199|91:199|27:212,2,99.9999999999999,0|0|0,0:0|0:0|0:0,0:0:0:0:
164,264,20163,1,0,0:0:0:0:
164,264,20334,1,2,0:0:0:0:
311,110,22048,6,0,L|305:8,2,99.9999999999999,0|0|0,0:0|0:0|0:0,0:0:0:0:
383,178,23077,2,0,P|447:194|490:172,1,99.9999999999999,2|0,0:0|0:0,0:0:0:0:
506,141,23591,1,2,0:0:0:0:
506,141,23763,2,0,L|500:39,1,99.9999999999999,2|0,0:0|0:0,0:0:0:0:
458,12,24277,1,2,0:0:0:0:
313,184,25648,5,2,0:0:0:0:
313,184,25820,2,0,L|307:286,1,99.9999999999999,2|0,0:0|0:0,0:0:0:0:
303,333,26334,2,0,P|266:294|204:298,2,99.9999999999999,0|0|2,0:0|0:0|0:0,0:0:0:0:
428,251,27534,1,0,0:0:0:0:
271,103,28391,5,0,0:0:0:0:
271,103,28563,2,0,L|214:109,2,50,2|0|0,0:0|0:0|0:0,0:0:0:0:
320,98,29077,2,0,P|346:66|411:59,2,99.9999999999999,0|0|2,0:0|0:0|0:0,0:0:0:0:
415,213,30277,1,0,0:0:0:0:
415,213,30448,2,0,P|389:245|324:252,2,99.9999999999999,0|0|0,0:0|0:0|0:0,0:0:0:0:
439,168,31306,1,2,0:0:0:0:
190,80,33534,6,0,L|195:31,2,50,0|0|0,0:0|0:0|0:0,0:0:0:0:
181,130,34048,2,0,P|128:147|70:122,1,99.9999999999999,0|2,0:0|0:0,0:0:0:0:
52,98,34562,2,0,L|61:208,2,99.9999999999999,2|0|0,0:0|0:0|0:0,0:0:0:0:
115,20,35591,1,2,0:0:0:0:
200,71,35934,1,2,0:0:0:0:
200,71,36106,2,0,L|253:69,1,50,0|0,0:0|0:0,0:0:0:0:
272,24,36448,2,0,L|325:26,1,50,0|0,0:0|0:0,0:0:0:0:
357,60,36791,6,0,P|371:116|355:161,1,99.9999999999999,6|2,0:0|0:0,0:0:0:0:
280,218,37477,2,0,P|266:274|282:319,1,99.9999999999999,2|2,0:0|0:0,0:0:0:0:
308,353,37991,2,0,B|356:336|356:336|409:348,1,99.9999999999999,0|0,0:0|0:0,0:0:0:0:
416,298,38506,2,0,B|463:308|463:308|511:291,2,99.9999999999999,2|2|2,0:0|0:0|0:0,0:0:0:0:
355,218,39534,6,0,L|361:112,1,99.9999999999999,2|2,0:0|0:0,0:0:0:0:
291,45,40220,2,0,P|242:23|179:40,1,99.9999999999999,10|2,0:0|0:0,0:0:0:0:
165,67,40734,2,0,P|115:72|71:51,1,99.9999999999999,0|0,0:0|0:0,0:0:0:0:
10,131,41420,2,0,L|18:243,1,99.9999999999999,0|0,0:0|0:0,0:0:0:0:
66,239,41934,2,0,L|61:306,1,50,10|0,0:0|0:0,0:0:0:0:
36,331,42277,6,0,P|84:352|135:334,1,99.9999999999999,4|2,0:0|0:0,0:0:0:0:
184,256,42963,2,0,P|232:235|283:253,1,99.9999999999999,2|2,0:0|0:0,0:0:0:0:
308,286,43477,2,0,L|411:281,1,99.9999999999999,0|0,0:0|0:0,0:0:0:0:
450,254,43991,2,0,B|461:303|461:303|449:355,2,99.9999999999999,2|2|2,0:0|0:0|0:0,0:0:0:0:
354,223,45020,6,0,B|343:174|343:174|355:122,1,99.9999999999999,2|2,0:0|0:0,0:0:0:0:
325,29,45706,2,0,P|277:59|220:53,1,99.9999999999999,2|2,0:0|0:0,0:0:0:0:
195,27,46220,2,0,L|204:132,1,99.9999999999999,8|0,3:0|0:0,0:0:0:0:
263,207,46906,2,0,P|207:225|147:209,1,99.9999999999999,8|2,0:0|0:0,0:0:0:0:
119,203,47420,1,2,0:0:0:0:
119,203,47591,1,2,0:0:0:0:
119,203,47763,6,0,P|97:258|151:333,1,150,4|2,0:0|0:0,0:0:0:0:
191,339,48448,2,0,L|302:333,1,99.9999999999999,8|0,0:0|0:0,0:0:0:0:
340,326,48963,2,0,P|364:280|419:266,1,99.9999999999999,4|8,0:0|0:0,0:0:0:0:
472,188,49648,2,0,L|468:132,2,50,0|0|0,3:0|3:0|3:0,0:0:0:0:
506,224,50163,2,0,L|502:280,1,50,0|2,3:0|3:2,0:0:0:0:
463,305,50506,6,0,P|422:315|356:292,1,99.9999999999999,4|0,0:0|0:0,0:0:0:0:
287,360,51191,2,0,P|274:312|282:252,1,99.9999999999999,8|0,0:0|0:0,0:0:0:0:
295,214,51706,1,4,0:0:0:0:
215,154,52048,2,0,L|218:99,1,50,0|0,0:0|0:0,0:0:0:0:
251,67,52391,2,0,L|306:70,2,50,8|8|2,0:0|0:0|0:0,0:0:0:0:
224,23,52906,2,0,L|169:20,1,50,8|2,0:0|0:0,0:0:0:0:
124,24,53248,6,0,P|99:70|112:129,2,99.9999999999999,6|2|2,0:0|0:0|0:0,0:0:0:0:
205,83,54277,1,2,0:0:0:0:
154,169,54620,2,0,B|104:155|104:155|54:166,2,99.9999999999999,2|2|2,0:0|0:0|0:0,0:0:0:0:
189,262,55648,1,2,0:0:0:0:
253,186,55991,6,0,P|296:155|355:163,1,99.9999999999999,2|2,0:0|0:0,0:0:0:0:
411,228,56677,2,0,L|407:343,1,99.9999999999999,2|2,0:0|0:0,0:0:0:0:
321,378,57363,1,8,0:0:0:0:
241,317,57706,1,8,0:0:0:0:
146,349,58048,1,8,0:0:0:0:
60,297,58391,1,8,0:0:0:0:
90,201,58734,5,2,0:0:0:0:
419,67,59763,5,2,0:0:0:0:
346,135,60106,6,0,L|340:246,2,99.9999999999999,4|8|2,0:0|0:0|0:0,0:0:0:0:
284,56,61134,1,8,0:0:0:0:
284,56,61306,2,0,P|222:89|182:77,1,99.9999999999999,2|2,0:0|0:0,0:0:0:0:
165,43,61820,2,0,L|171:154,2,99.9999999999999,8|2|8,0:0|0:0|0:0,0:0:0:0:
73,83,62848,6,0,L|79:194,1,99.9999999999999,2|8,0:0|0:0,0:0:0:0:
32,272,63534,2,0,P|85:283|139:259,1,99.9999999999999,2|8,0:0|0:0,0:0:0:0:
152,311,64048,2,0,P|205:300|259:324,1,99.9999999999999,2|2,0:0|0:0,0:0:0:0:
289,341,64563,1,8,0:0:0:0:
361,271,64906,2,0,L|357:214,1,50,2|2,0:0|0:0,0:0:0:0:
311,201,65248,2,0,L|315:144,1,50,8|0,0:0|0:0,0:0:0:0:
319,101,65591,6,0,P|376:119|433:111,1,99.9999999999999,2|8,0:0|0:0,0:0:0:0:
455,85,66106,2,0,P|455:135|446:192,1,99.9999999999999,0|2,0:0|0:0,0:0:0:0:
400,201,66620,1,8,0:0:0:0:
400,201,66791,2,0,P|400:251|409:308,1,99.9999999999999,2|2,0:0|0:0,0:0:0:0:
437,340,67306,1,8,0:0:0:0:
343,375,67648,1,2,0:0:0:0:
277,299,67991,1,8,0:0:0:0:
198,361,68334,6,0,L|84:355,1,99.9999999999999,2|8,0:0|0:0,0:0:0:0:
62,319,68848,1,0,0:0:0:0:
62,319,69020,2,0,P|51:267|72:216,1,99.9999999999999,2|8,0:0|0:0,0:0:0:0:
94,182,69534,1,4,0:0:0:0:
178,235,69877,2,0,L|236:230,1,50,2|8,0:0|0:0,0:0:0:0:
277,222,70220,2,0,P|288:170|267:119,1,99.9999999999999,4|2,0:0|0:0,0:0:0:0:
245,84,70734,1,8,0:0:0:0:
324,22,71077,6,0,P|376:33|427:12,2,99.9999999999999,4|8|2,0:0|0:0|0:0,0:0:0:0:
245,84,72106,1,8,0:0:0:0:
245,84,72277,2,0,L|136:75,1,99.9999999999999,2|2,0:0|0:0,0:0:0:0:
108,41,72791,2,0,L|117:150,2,99.9999999999999,8|2|8,0:0|0:0|0:0,0:0:0:0:
21,91,73820,6,0,L|30:200,1,99.9999999999999,2|8,0:0|0:0,0:0:0:0:
33,240,74334,1,0,0:0:0:0:
128,270,74677,2,0,L|123:319,1,50,2|8,0:0|0:0,0:0:0:0:
155,358,75020,2,0,P|225:373|267:360,1,99.9999999999999,4|2,0:0|0:0,0:0:0:0:
295,342,75534,1,8,0:0:0:0:
380,290,75877,1,2,0:0:0:0:
466,340,76220,1,8,0:0:0:0:
501,246,76563,6,0,P|508:190|487:140,1,99.9999999999999,2|8,0:0|0:0,0:0:0:0:
465,108,77077,2,0,B|424:133|424:133|361:125,1,99.9999999999999,0|2,0:0|0:0,0:0:0:0:
278,90,77763,2,0,L|288:201,1,99.9999999999999,4|2,0:0|0:0,0:0:0:0:
292,239,78277,1,8,0:0:0:0:
286,338,78620,2,0,P|258:333|220:320,1,50,2|2,0:0|0:0,0:0:0:0:
218,280,78963,2,0,P|190:285|152:298,1,50,8|0,0:0|0:0,0:0:0:0:
136,329,79306,6,0,P|105:350|39:346,1,99.9999999999999,2|8,0:0|0:0,0:0:0:0:
11,310,79820,2,0,L|19:201,1,99.9999999999999,2|2,0:0|0:0,0:0:0:0:
88,139,80506,1,4,0:0:0:0:
173,190,80848,1,2,0:0:0:0:
173,190,81020,1,8,0:0:0:0:
238,114,81363,2,0,L|233:56,2,50,2|2|8,0:0|0:0|0:0,0:0:0:0:
275,147,81877,1,2,0:0:0:0:
275,147,82048,6,0,P|358:157|404:91,1,150,4|2,0:0|0:0,0:0:0:0:
436,79,82734,2,0,L|429:202,1,99.9999999999999,8|0,0:0|0:0,0:0:0:0:
402,220,83248,2,0,L|407:319,1,99.9999999999999,4|8,0:0|0:0,0:0:0:0:
320,369,83934,2,0,P|303:331|245:314,2,99.9999999999999,0|0|2,3:0|3:0|0:0,0:0:0:0:
368,383,84791,5,4,0:0:0:0:
424,191,85477,1,2,3:0:0:0:
231,244,86163,2,0,L|233:178,1,50,8|8,0:0|0:0,0:0:0:0:
274,166,86506,2,0,L|272:100,1,50,8|8,0:0|0:0,0:0:0:0:
271,66,86848,1,8,0:0:0:0:
271,66,87020,1,4,0:0:0:0:
413,113,87534,1,6,0:0:0:0:
406,155,98506,6,0,L|401:265,2,99.9999999999999,2|2|2,0:0|0:0|0:0,0:0:0:0:
339,79,99534,1,2,0:0:0:0:
263,144,99877,2,0,P|231:158|164:138,1,99.9999999999999,2|2,0:0|0:0,0:0:0:0:
122,54,100563,2,0,P|154:40|221:60,1,99.9999999999999,2|2,0:0|0:0,0:0:0:0:
169,143,101248,6,0,P|156:192|176:252,2,99.9999999999999,2|2|2,0:0|0:0|0:0,0:0:0:0:
251,86,102277,1,2,0:0:0:0:
261,185,102620,2,0,P|309:171|351:124,2,99.9999999999999,2|2|2,0:0|0:0|0:0,0:0:0:0:
169,143,103648,1,2,0:0:0:0:
117,228,103991,6,0,L|123:333,2,99.9999999999999,2|2|2,0:0|0:0|0:0,0:0:0:0:
169,143,105020,1,2,0:0:0:0:
92,78,105363,1,2,0:0:0:0:
170,16,105706,2,0,L|275:10,2,99.9999999999999,2|2|2,0:0|0:0|0:0,0:0:0:0:
212,106,106734,6,0,L|317:100,1,99.9999999999999,2|2,0:0|0:0,0:0:0:0:
378,175,107420,2,0,P|394:223|374:280,1,99.9999999999999,2|2,0:0|0:0,0:0:0:0:
320,349,108106,2,0,L|220:343,2,99.9999999999999,2|2|2,0:0|0:0|0:0,0:0:0:0:
381,269,109134,1,2,0:0:0:0:
332,181,109477,6,0,P|321:132|331:72,1,99.9999999999999,2|2,0:0|0:0,0:0:0:0:
410,27,110163,2,0,P|421:76|411:136,1,99.9999999999999,2|2,0:0|0:0,0:0:0:0:
332,181,110848,2,0,P|290:201|221:185,2,99.9999999999999,2|2|2,0:0|0:0|0:0,0:0:0:0:
414,124,111877,1,2,0:0:0:0:
461,212,112220,6,0,B|472:262|472:262|458:318,1,99.9999999999999,2|2,0:0|0:0,0:0:0:0:
389,381,112906,1,2,0:0:0:0:
337,295,113248,1,2,0:0:0:0:
268,367,113591,2,0,P|249:341|248:266,1,99.9999999999999,2|2,0:0|0:0,0:0:0:0:
337,295,114277,2,0,P|338:245|313:203,1,99.9999999999999,2|2,0:0|0:0,0:0:0:0:
353,110,114963,6,0,B|400:121|400:121|450:110,2,99.9999999999999,2|2|2,0:0|0:0|0:0,0:0:0:0:
277,44,115991,2,0,B|230:55|230:55|180:44,1,99.9999999999999,2|2,0:0|0:0,0:0:0:0:
96,100,116677,1,2,0:0:0:0:
134,192,117020,1,2,0:0:0:0:
83,278,117363,1,2,0:0:0:0:
140,360,117706,6,0,P|198:374|246:358,1,99.9999999999999,2|2,0:0|0:0,0:0:0:0:
293,281,118391,2,0,P|351:267|399:283,2,99.9999999999999,2|2|2,0:0|0:0|0:0,0:0:0:0:
238,197,119420,1,8,0:0:0:0:
293,113,119763,2,0,P|303:66|292:3,1,99.9999999999999,2|8,0:0|0:0,0:0:0:0:
248,30,120277,1,2,0:0:0:0:
248,30,120448,6,0,P|185:45|144:42,1,99.9999999999999,6|2,0:0|0:0,0:0:0:0:
106,17,120963,1,0,0:0:0:0:
106,17,121134,2,0,L|116:119,1,99.9999999999999,2|2,0:0|0:0,0:0:0:0:
122,166,121648,1,0,0:0:0:0:
199,229,121991,1,0,0:0:0:0:
199,229,122163,2,0,P|152:260|96:257,2,99.9999999999999,2|2|2,0:0|0:0|0:0,0:0:0:0:
264,153,123191,6,0,P|260:96|291:49,1,99.9999999999999,2|2,0:0|0:0,0:0:0:0:
322,31,123706,1,0,0:0:0:0:
322,31,123877,2,0,B|371:45|371:45|425:34,1,99.9999999999999,10|2,0:0|0:0,0:0:0:0:
461,61,124391,2,0,B|470:109|470:109|456:158,1,99.9999999999999,8|0,3:0|0:0,0:0:0:0:
479,255,125077,1,0,0:0:0:0:
479,255,125248,2,0,P|436:255|381:215,1,99.9999999999999,4|10,0:0|0:0,0:0:0:0:
289,213,125934,6,0,L|296:327,1,99.9999999999999,4|2,0:0|0:0,0:0:0:0:
276,359,126448,1,0,0:0:0:0:
276,359,126620,2,0,P|233:326|175:330,1,99.9999999999999,2|2,0:0|0:0,0:0:0:0:
144,347,127134,1,8,0:0:0:0:
85,265,127477,1,8,0:0:0:0:
85,265,127648,2,0,P|78:209|85:155,2,99.9999999999999,2|2|2,0:0|0:0|0:0,0:0:0:0:
177,226,128677,6,0,P|226:230|276:223,1,99.9999999999999,2|2,0:0|0:0,0:0:0:0:
332,140,129363,2,0,P|381:135|431:142,1,99.9999999999999,2|2,0:0|0:0,0:0:0:0:
463,180,129877,1,8,0:0:0:0:
508,91,130220,1,8,0:0:0:0:
433,24,130563,2,0,L|319:33,1,99.9999999999999,2|2,0:0|0:0,0:0:0:0:
298,68,131077,1,10,0:0:0:0:
298,68,131248,1,2,0:0:0:0:
298,68,131420,6,0,L|128:58,1,150,4|2,0:0|0:0,0:0:0:0:
98,58,132106,2,0,P|126:103|126:159,1,99.9999999999999,8|0,0:0|0:0,0:0:0:0:
97,188,132620,2,0,P|136:216|200:213,1,99.9999999999999,4|8,0:0|0:0,0:0:0:0:
232,198,133134,1,0,0:0:0:0:
299,271,133477,1,0,3:0:0:0:
364,195,133820,1,0,3:0:0:0:
432,267,134163,5,4,0:0:0:0:
432,267,134334,2,0,P|454:224|454:157,1,99.9999999999999,8|2,0:0|0:0,0:0:0:0:
442,125,134848,2,0,L|503:129,2,50,8|0|2,0:0|0:0|0:0,0:0:0:0:
391,123,135363,1,4,0:0:0:0:
304,172,135706,2,0,P|295:133|297:113,1,50,0|2,0:0|0:0,0:0:0:0:
301,73,136048,2,0,P|310:34|308:14,2,50,8|8|2,0:0|0:0|0:0,0:0:0:0:
252,87,136563,2,0,P|213:96|193:94,1,50,8|2,0:0|0:0,0:0:0:0:
165,62,136906,6,0,P|157:117|139:178,1,99.9999999999999,6|2,0:0|0:0,0:0:0:0:
69,224,137591,2,0,P|77:279|95:340,1,99.9999999999999,2|2,0:0|0:0,0:0:0:0:
116,362,138106,1,0,0:0:0:0:
116,362,138277,2,0,P|165:332|216:329,1,99.9999999999999,2|2,0:0|0:0,0:0:0:0:
295,374,138963,1,2,0:0:0:0:
363,301,139306,1,2,0:0:0:0:
310,216,139648,6,0,P|300:165|315:111,1,99.9999999999999,2|2,0:0|0:0,0:0:0:0:
396,66,140334,2,0,P|359:32|312:16,1,99.9999999999999,2|2,0:0|0:0,0:0:0:0:
223,63,141020,1,8,0:0:0:0:
129,28,141363,1,8,0:0:0:0:
45,82,141706,1,8,0:0:0:0:
97,166,142048,1,8,0:0:0:0:
58,258,142391,5,2,0:0:0:0:
257,353,143420,6,0,L|257:294,1,50,8|0,0:0|0:0,0:0:0:0:
259,252,143763,6,0,P|310:233|367:249,2,99.9999999999999,4|8|2,0:0|0:0|0:0,0:0:0:0:
177,309,144791,1,8,0:0:0:0:
177,309,144963,2,0,P|126:328|69:312,1,99.9999999999999,2|2,0:0|0:0,0:0:0:0:
34,304,145477,1,8,0:0:0:0:
77,213,145820,1,2,0:0:0:0:
34,122,146163,1,8,0:0:0:0:
100,47,146506,6,0,P|143:74|197:72,1,99.9999999999999,2|8,0:0|0:0,0:0:0:0:
230,43,147020,1,0,0:0:0:0:
230,43,147191,2,0,L|219:148,1,99.9999999999999,2|8,0:0|0:0,0:0:0:0:
227,192,147706,2,0,P|270:165|324:167,1,99.9999999999999,2|2,0:0|0:0,0:0:0:0:
361,190,148220,1,8,0:0:0:0:
436,255,148563,1,2,0:0:0:0:
488,169,148906,1,8,0:0:0:0:
429,87,149248,6,0,L|306:93,1,99.9999999999999,2|8,0:0|0:0,0:0:0:0:
307,137,149763,2,0,L|184:131,1,99.9999999999999,0|2,0:0|0:0,0:0:0:0:
175,93,150277,1,8,0:0:0:0:
175,93,150448,2,0,B|187:138|187:138|176:202,1,99.9999999999999,2|2,0:0|0:0,0:0:0:0:
168,240,150963,2,0,P|112:257|63:242,2,99.9999999999999,8|2|8,0:0|0:0|0:0,0:0:0:0:
238,311,151991,6,0,P|286:301|333:318,1,99.9999999999999,2|8,0:0|0:0,0:0:0:0:
379,337,152506,1,0,0:0:0:0:
379,337,152677,2,0,B|391:292|391:292|380:228,1,99.9999999999999,2|8,0:0|0:0,0:0:0:0:
370,190,153191,1,4,0:0:0:0:
284,137,153534,2,0,L|287:83,1,50,2|8,0:0|0:0,0:0:0:0:
285,36,153877,2,0,P|226:62|178:52,1,99.9999999999999,4|2,0:0|0:0,0:0:0:0:
144,41,154391,1,8,0:0:0:0:
80,118,154734,6,0,L|90:229,2,99.9999999999999,4|8|2,0:0|0:0|0:0,0:0:0:0:
171,159,155763,1,8,0:0:0:0:
171,159,155934,2,0,L|280:168,1,99.9999999999999,2|2,0:0|0:0,0:0:0:0:
308,202,156448,2,0,L|299:93,2,99.9999999999999,8|2|8,0:0|0:0|0:0,0:0:0:0:
399,161,157477,6,0,L|407:260,1,99.9999999999999,2|8,0:0|0:0,0:0:0:0:
414,310,157991,1,0,0:0:0:0:
331,366,158334,2,0,P|298:363|266:358,1,50,2|8,0:0|0:0,0:0:0:0:
249,322,158677,2,0,P|199:340|138:335,1,99.9999999999999,4|2,0:0|0:0,0:0:0:0:
103,327,159191,1,8,0:0:0:0:
134,231,159534,1,2,0:0:0:0:
77,148,159877,2,0,L|83:99,1,50,8|2,0:0|0:0,0:0:0:0:
92,49,160220,6,0,P|145:30|202:46,1,99.9999999999999,2|8,0:0|0:0,0:0:0:0:
229,63,160734,2,0,P|282:82|339:66,1,99.9999999999999,0|2,0:0|0:0,0:0:0:0:
371,59,161248,1,8,0:0:0:0:
371,59,161420,1,4,0:0:0:0:
428,140,161763,1,2,0:0:0:0:
428,140,161934,2,0,L|425:206,1,50,8|0,0:0|0:0,0:0:0:0:
381,213,162277,2,0,L|384:279,2,50,2|2|8,0:0|0:0|0:0,0:0:0:0:
343,179,162791,1,0,0:0:0:0:
343,179,162963,6,0,L|236:182,1,99.9999999999999,2|8,0:0|0:0,0:0:0:0:
208,218,163477,2,0,P|192:265|219:323,1,99.9999999999999,2|2,0:0|0:0,0:0:0:0:
289,368,164163,1,4,0:0:0:0:
365,303,164506,1,2,0:0:0:0:
365,303,164677,2,0,P|421:281|472:293,1,99.9999999999999,8|2,0:0|3:2,0:0:0:0:
509,200,165363,1,8,3:2:0:0:
441,126,165706,6,0,L|447:9,1,99.9999999999999,4|0,0:0|0:0,0:0:0:0:
398,10,166220,1,2,0:0:0:0:
398,10,166391,2,0,L|281:4,1,99.9999999999999,8|0,0:0|0:0,0:0:0:0:
265,42,166906,2,0,B|249:88|249:88|267:151,1,99.9999999999999,4|8,0:0|0:0,0:0:0:0:
313,223,167591,2,0,B|267:239|267:239|204:221,2,99.9999999999999,0|0|2,3:0|3:0|0:0,0:0:0:0:
359,203,168448,5,4,0:0:0:0:
488,50,169134,1,2,3:0:0:0:
295,105,169820,2,0,L|300:168,1,50,8|8,0:0|0:0,0:0:0:0:
336,187,170163,2,0,L|331:250,1,50,8|8,0:0|0:0,0:0:0:0:
323,286,170506,1,8,0:0:0:0:
323,286,170677,2,0,P|260:311|217:296,1,99.9999999999999,4|0,0:0|0:0,0:0:0:0:
184,284,171191,5,6,0:0:0:0:
115,271,182163,6,0,P|158:293|224:283,2,99.9999999999999,6|8|2,0:0|0:0|0:0,0:0:0:0:
59,187,183191,1,8,0:0:0:0:
59,187,183363,2,0,P|81:144|71:78,2,99.9999999999999,2|2|0,0:0|0:0|0:0,0:0:0:0:
3,269,184391,1,2,0:0:0:0:
3,269,184563,2,0,L|9:330,1,50,8|0,0:0|0:0,0:0:0:0:
13,368,184906,6,0,P|58:332|114:340,1,99.9999999999999,2|8,0:0|0:0,0:0:0:0:
143,310,185420,2,0,P|188:346|244:338,1,99.9999999999999,0|2,0:0|0:0,0:0:0:0:
309,285,186106,2,0,P|327:239|316:178,1,99.9999999999999,4|2,0:0|0:0,0:0:0:0:
234,139,186791,1,2,0:0:0:0:
234,139,186963,2,0,P|216:93|227:32,1,99.9999999999999,2|8,0:0|0:0,0:0:0:0:
262,14,187477,1,8,0:0:0:0:
262,14,187648,6,0,L|321:22,2,50,6|2|8,0:0|0:0|0:0,0:0:0:0:
221,43,188163,2,0,L|107:58,1,99.9999999999999,0|2,0:0|0:0,0:0:0:0:
92,98,188677,2,0,L|42:91,2,50,8|2|0,0:0|0:0|0:0,0:0:0:0:
121,138,189191,2,0,B|132:184|132:184|116:244,1,99.9999999999999,2|0,0:0|0:0,0:0:0:0:
94,279,189706,2,0,B|140:268|140:268|200:284,1,99.9999999999999,2|8,0:0|0:0,0:0:0:0:
259,354,190391,6,0,P|287:309|281:248,1,99.9999999999999,2|8,0:0|0:0,0:0:0:0:
276,213,190906,1,0,0:0:0:0:
358,156,191248,1,2,0:0:0:0:
318,63,191591,1,4,0:0:0:0:
219,79,191934,1,2,0:0:0:0:
219,79,192106,2,0,P|174:92|118:75,1,99.9999999999999,8|2,0:0|0:0,0:0:0:0:
38,25,192791,1,2,3:2:0:0:
16,122,193134,5,2,3:2:0:0:
16,122,193306,1,2,0:0:0:0:
16,122,193477,2,0,L|21:188,1,50,2|0,0:0|0:0,0:0:0:0:
24,221,193820,2,0,P|73:234|124:212,1,99.9999999999999,2|8,0:0|0:0,0:0:0:0:
157,187,194334,2,0,P|206:174|257:196,1,99.9999999999999,4|2,0:0|0:0,0:0:0:0:
290,220,194848,1,8,0:0:0:0:
365,154,195191,1,2,0:0:0:0:
365,154,195363,2,0,L|355:52,1,99.9999999999999,2|2,0:0|0:0,0:0:0:0:
390,18,195877,6,0,L|290:27,1,99.9999999999999,6|8,0:0|0:0,0:0:0:0:
271,74,196391,2,0,L|171:64,1,99.9999999999999,2|0,0:0|0:0,0:0:0:0:
81,108,197077,1,4,0:0:0:0:
137,190,197420,1,2,0:0:0:0:
137,190,197591,2,0,P|147:234|129:295,2,99.9999999999999,8|2|8,0:0|0:0|0:0,0:0:0:0:
81,108,198620,6,0,L|193:118,1,99.9999999999999,6|8,0:0|0:0,0:0:0:0:
204,160,199134,2,0,L|316:150,1,99.9999999999999,0|2,0:0|0:0,0:0:0:0:
371,76,199820,1,4,0:0:0:0:
430,156,200163,1,2,0:0:0:0:
430,156,200334,2,0,P|445:209|428:253,1,99.9999999999999,8|2,0:0|0:0,0:0:0:0:
346,305,201020,1,8,0:0:0:0:
413,378,201363,6,0,L|515:365,2,99.9999999999999,2|8|2,0:0|0:0|0:0,0:0:0:0:
346,305,202391,1,8,0:0:0:0:
346,305,202563,2,0,B|360:253|360:253|344:190,1,99.9999999999999,4|2,0:0|0:0,0:0:0:0:
334,160,203077,2,0,B|289:171|289:171|237:157,1,99.9999999999999,8|2,0:0|0:0,0:0:0:0:
202,120,203591,2,0,L|216:236,1,99.9999999999999,8|2,0:0|0:0,0:0:0:0:
187,262,204106,6,0,P|157:218|109:213,1,99.9999999999999,8|8,0:0|3:0,0:0:0:0:
76,245,204620,1,8,3:0:0:0:
76,245,204791,2,0,L|18:240,2,50,8|8|8,3:0|3:0|3:0,0:0:0:0:
100,289,205306,1,4,0:0:0:0:
254,191,217820,5,2,0:0:0:0:
93,317,228448,5,8,0:0:0:0:
166,249,228791,6,0,L|172:138,2,99.9999999999999,4|8|2,0:0|0:0|0:0,0:0:0:0:
228,328,229819,1,8,0:0:0:0:
228,328,229991,2,0,P|290:295|330:307,1,99.9999999999999,2|2,0:0|0:0,0:0:0:0:
347,341,230505,2,0,L|341:230,2,99.9999999999999,8|2|8,0:0|0:0|0:0,0:0:0:0:
439,301,231534,6,0,L|433:190,1,99.9999999999999,2|8,0:0|0:0,0:0:0:0:
480,112,232220,2,0,P|427:101|373:125,1,99.9999999999999,2|8,0:0|0:0,0:0:0:0:
360,73,232734,2,0,P|307:84|253:60,1,99.9999999999999,4|0,0:0|0:0,0:0:0:0:
223,43,233248,1,8,0:0:0:0:
151,113,233591,2,0,L|155:170,1,50,2|2,0:0|0:0,0:0:0:0:
201,183,233934,2,0,L|197:240,1,50,8|2,0:0|0:0,0:0:0:0:
193,283,234277,6,0,P|136:265|79:273,1,99.9999999999999,2|8,0:0|0:0,0:0:0:0:
57,299,234791,2,0,P|57:249|66:192,1,99.9999999999999,0|0,0:0|0:0,0:0:0:0:
112,183,235305,1,8,0:0:0:0:
112,183,235477,2,0,P|112:133|103:76,1,99.9999999999999,2|2,0:0|0:0,0:0:0:0:
75,44,235991,1,8,0:0:0:0:
169,9,236333,1,2,0:0:0:0:
235,85,236676,1,8,0:0:0:0:
198,178,237020,6,0,P|145:197|95:184,2,99.9999999999999,2|8|2,0:0|0:0|0:0,0:0:0:0:
283,230,238048,1,8,0:0:0:0:
283,230,238220,2,0,L|273:341,1,99.9999999999999,4|2,0:0|0:0,0:0:0:0:
307,367,238734,1,8,0:0:0:0:
307,367,238906,2,0,P|352:378|411:352,1,99.9999999999999,4|2,0:0|0:0,0:0:0:0:
442,332,239420,1,8,0:0:0:0:
430,232,239763,6,0,L|420:121,2,99.9999999999999,4|8|2,0:0|0:0|0:0,0:0:0:0:
349,171,240792,1,8,0:0:0:0:
349,171,240963,2,0,L|240:162,1,99.9999999999999,2|2,0:0|0:0,0:0:0:0:
204,182,241477,2,0,L|213:291,2,99.9999999999999,8|2|8,0:0|0:0|0:0,0:0:0:0:
113,223,242506,6,0,L|105:124,1,99.9999999999999,2|8,0:0|0:0,0:0:0:0:
98,74,243020,1,0,0:0:0:0:
181,18,243363,2,0,P|214:21|246:26,1,50,10|8,0:0|0:0,0:0:0:0:
263,62,243706,2,0,P|313:44|374:49,1,99.9999999999999,4|2,0:0|0:0,0:0:0:0:
409,57,244220,1,8,0:0:0:0:
378,153,244563,1,2,0:0:0:0:
435,236,244906,2,0,L|429:285,1,50,8|2,0:0|0:0,0:0:0:0:
420,335,245249,6,0,P|367:354|310:338,1,99.9999999999999,2|8,0:0|0:0,0:0:0:0:
283,321,245763,2,0,P|230:302|173:318,1,99.9999999999999,0|2,0:0|0:0,0:0:0:0:
141,325,246277,1,8,0:0:0:0:
141,325,246449,1,4,0:0:0:0:
84,244,246792,1,2,0:0:0:0:
84,244,246963,2,0,L|87:178,1,50,8|0,0:0|0:0,0:0:0:0:
131,171,247306,2,0,L|128:105,2,50,2|2|8,0:0|0:0|0:0,0:0:0:0:
169,205,247820,1,0,0:0:0:0:
169,205,247992,6,0,L|276:202,1,99.9999999999999,6|8,0:0|0:0,0:0:0:0:
304,166,248506,2,0,P|320:119|293:61,1,99.9999999999999,2|2,0:0|0:0,0:0:0:0:
223,16,249192,1,4,0:0:0:0:
147,81,249534,1,2,0:0:0:0:
147,81,249706,2,0,B|98:99|98:99|43:84,1,99.9999999999999,8|2,0:0|0:0,0:0:0:0:
4,174,250391,1,8,0:0:0:0:
65,252,250734,6,0,P|123:296|207:269,1,150,4|2,0:0|0:0,0:0:0:0:
234,249,251420,2,0,L|227:126,1,99.9999999999999,8|0,0:0|0:0,0:0:0:0:
202,109,251934,2,0,L|207:10,1,99.9999999999999,4|8,0:0|0:0,0:0:0:0:
302,40,252620,2,0,B|353:54|353:54|398:43,2,99.9999999999999,0|0|2,3:0|3:0|0:0,0:0:0:0:
256,19,253477,5,4,0:0:0:0:
451,63,254163,1,2,3:0:0:0:
281,140,254849,2,0,L|279:206,1,50,8|8,0:0|0:0,0:0:0:0:
238,218,255192,2,0,L|240:284,1,50,8|8,0:0|0:0,0:0:0:0:
241,318,255534,1,8,0:0:0:0:
241,318,255706,1,4,0:0:0:0:
150,360,256048,6,0,L|157:255,1,99.9999999999999,4|2,0:0|0:0,0:0:0:0:
193,226,256563,2,0,L|186:126,1,99.9999999999999,8|2,0:0|0:0,0:0:0:0:
309,40,257420,2,0,P|351:63|411:62,1,99.9999999999999,4|2,0:0|0:0,0:0:0:0:
445,39,257934,1,8,0:0:0:0:
493,126,258277,2,0,L|489:187,2,50,2|2|8,0:0|0:0|0:0,0:0:0:0:
397,156,258963,6,0,L|404:270,1,99.9999999999999,4|8,0:0|0:0,0:0:0:0:
492,300,259648,2,0,L|488:361,2,50,2|2|2,0:0|0:0|0:0,0:0:0:0:
496,249,260163,1,12,0:0:0:0:
373,334,260677,1,8,3:0:0:0:
293,273,261020,1,0,3:0:0:0:
200,311,261363,1,0,3:0:0:0:
141,230,261706,5,4,0:0:0:0:
256,192,261877,12,0,267191,0:0:0:0:
