osu file format v14

[General]
AudioFilename: audio.mp3
AudioLeadIn: 0
PreviewTime: 59420
Countdown: 0
SampleSet: Soft
StackLeniency: 0.7
Mode: 0
LetterboxInBreaks: 0
WidescreenStoryboard: 1

[Editor]
DistanceSpacing: 1.6
BeatDivisor: 4
GridSize: 32
TimelineZoom: 0.9

[Metadata]
Title:Authentic symphony
TitleUnicode:Authentic symphony
Artist:ChouCho
ArtistUnicode:ちょうちょ
Creator:timemon
Version:Hard
Source:ましろ色シンフォニー -The color of lovers-
Tags:uberzolik anime full version Mashiro-iro Symphony: The Color of Lovers Mashiroiro
BeatmapID:1589875
BeatmapSetID:754826

[Difficulty]
HPDrainRate:5
CircleSize:4
OverallDifficulty:7
ApproachRate:8
SliderMultiplier:1.4
SliderTickRate:1

[Events]
//Background and Video events
0,0,"mashiroirobg2.jpg",0,0
//Break Periods
2,87734,97756
2,171391,175927
2,206848,217070
2,226248,227698
//Storyboard Layer 0 (Background)
//Storyboard Layer 1 (Fail)
//Storyboard Layer 2 (Pass)
//Storyboard Layer 3 (Foreground)
//Storyboard Sound Samples

[TimingPoints]
2506,342.857142857143,4,2,1,50,1,0
6620,-166.666666666667,4,2,1,70,0,0
7820,-142.857142857143,4,2,1,70,0,0
15363,-166.666666666667,4,2,2,50,0,0
36791,-125,4,2,1,60,0,0
58734,-125,4,2,2,60,0,0
59420,-125,4,2,1,40,0,0
59763,-125,4,2,1,60,0,0
59934,-125,4,2,1,40,0,0
60106,-100,4,2,1,80,0,1
82048,-125,4,2,1,60,0,0
98506,-125,4,2,1,60,0,0
129877,-125,4,2,1,70,0,0
131420,-125,4,2,1,60,0,0
142391,-125,4,2,2,60,0,0
143077,-125,4,2,1,60,0,0
143677,-125,4,2,1,5,0,0
143763,-100,4,2,1,80,0,1
148477,-100,4,2,1,5,0,1
148563,-100,4,2,1,80,0,1
165706,-125,4,2,1,60,0,0
171191,-142.857142857143,4,2,1,60,0,0
174020,-142.857142857143,4,2,1,5,0,0
174106,-142.857142857143,4,2,1,60,0,0
176677,-125,4,2,1,60,0,0
180620,-100,4,2,1,70,0,0
180877,-100,4,2,1,5,0,0
180963,-100,4,2,1,70,0,0
182163,-100,4,2,1,80,0,1
182248,-100,4,2,1,5,0,0
182334,-100,4,2,1,80,0,0
193134,-100,4,2,1,80,0,1
193220,-100,4,2,1,80,0,0
197334,-100,4,2,1,5,0,0
197420,-100,4,2,1,80,0,0
217820,-250,4,2,2,50,0,0
226048,-166.666666666667,4,2,2,30,0,0
228106,-166.666666666667,4,2,1,40,0,0
228448,-166.666666666667,4,2,1,60,0,0
228791,-100,4,2,1,70,0,1
233506,-100,4,2,1,5,0,1
233591,-100,4,2,1,70,0,1
250734,-125,4,2,1,60,0,0
267191,-125,4,2,1,5,0,0

[Colours]
Combo1 : 233,233,233
Combo2 : 170,255,255
Combo3 : 255,213,255
Combo4 : 255,255,185

[HitObjects]
256,192,2506,12,0,6277,0:0:0:0:
316,130,6620,6,0,P|349:212|314:283,1,167.999994873047,4|0,0:0|0:0,0:0:0:0:
255,324,7477,1,0,0:0:0:0:
255,324,7820,2,0,L|142:314,2,97.9999970092774,4|0|0,0:0|0:0|3:0,0:0:0:0:
375,249,8848,2,0,L|434:243,2,48.9999985046387,0|2|2,3:0|0:0|0:0,0:0:0:0:
313,184,9363,6,0,P|295:134|316:72,1,97.9999970092774,4|0,0:0|0:0,0:0:0:0:
343,12,9877,1,0,0:0:0:0:
211,99,10220,1,0,0:0:0:0:
413,139,10563,1,4,0:0:0:0:
413,139,10906,6,0,L|411:206,1,48.9999985046387,8|0,0:0|0:0,0:0:0:0:
342,244,11248,2,0,L|344:311,2,48.9999985046387,0|0|0,3:0|3:0|3:0,0:0:0:0:
413,343,11763,1,0,3:0:0:0:
413,343,11934,1,0,3:0:0:0:
289,373,12106,1,4,0:0:0:0:
256,192,12191,12,2,14848,0:0:0:0:
192,233,15363,5,0,0:0:0:0:
192,233,15534,2,0,P|139:218|101:230,1,83.9999974365235,0|0,0:0|0:0,0:0:0:0:
62,287,16048,2,0,P|38:253|40:197,1,83.9999974365235,0|0,0:0|0:0,0:0:0:0:
76,142,16563,2,0,B|83:100|83:100|74:52,2,83.9999974365235,0|0|0,0:0|0:0|0:0,0:0:0:0:
35,211,17420,1,0,0:0:0:0:
35,211,17591,1,2,0:0:0:0:
180,32,18620,5,0,0:0:0:0:
180,32,18791,2,0,L|273:42,1,83.9999974365235,2|0,0:0|0:0,0:0:0:0:
295,114,19306,2,0,P|329:84|345:32,2,83.9999974365235,0|0|0,0:0|0:0|0:0,0:0:0:0:
216,131,20163,1,0,0:0:0:0:
216,131,20334,1,2,0:0:0:0:
127,251,22048,6,0,P|75:273|38:263,2,83.9999974365235,0|0|0,0:0|0:0|0:0,0:0:0:0:
221,163,23077,2,0,L|316:174,1,83.9999974365235,2|0,0:0|0:0,0:0:0:0:
352,236,23591,1,2,0:0:0:0:
352,236,23763,2,0,L|447:225,1,83.9999974365235,2|0,0:0|0:0,0:0:0:0:
493,170,24277,1,2,0:0:0:0:
279,342,25648,5,2,0:0:0:0:
279,342,25820,2,0,L|195:332,1,83.9999974365235,2|0,0:0|0:0,0:0:0:0:
149,266,26334,2,0,P|138:212|161:173,1,83.9999974365235,0|0,0:0|0:0,0:0:0:0:
246,128,27020,2,0,P|206:87|127:84,1,125.999996154785,2|0,0:0|0:0,0:0:0:0:
140,79,28391,5,0,0:0:0:0:
140,79,28563,2,0,L|197:77,2,41.9999987182618,2|0|0,0:0|0:0|0:0,0:0:0:0:
92,143,29077,2,0,P|75:192|88:237,1,83.9999974365235,0|0,0:0|0:0,0:0:0:0:
196,278,29763,2,0,P|213:327|200:372,1,83.9999974365235,2|0,0:0|0:0,0:0:0:0:
132,330,30277,1,0,0:0:0:0:
119,251,30448,2,0,P|79:265|53:304,2,83.9999974365235,0|0|0,0:0|0:0|0:0,0:0:0:0:
132,330,31306,1,2,0:0:0:0:
290,132,33534,6,0,L|287:75,1,41.9999987182618,0|0,0:0|0:0,0:0:0:0:
332,23,33877,2,0,P|386:13|425:30,1,83.9999974365235,0|0,0:0|0:0,0:0:0:0:
464,82,34391,1,2,0:0:0:0:
464,82,34563,2,0,L|457:169,2,83.9999974365235,2|0|0,0:0|0:0|0:0,0:0:0:0:
341,123,35591,1,2,0:0:0:0:
376,248,35934,1,2,0:0:0:0:
376,248,36106,2,0,L|374:281,3,20.9999993591309,0|0|0|0,0:0|0:0|0:0|0:0,0:0:0:0:
340,289,36448,2,0,L|342:322,3,20.9999993591309,0|0|0|0,0:0|0:0|0:0|0:0,0:0:0:0:
346,348,36791,6,0,P|289:371|228:350,1,112,6|2,0:0|0:0,0:0:0:0:
191,291,37306,1,0,0:0:0:0:
137,355,37477,2,0,P|117:329|105:305,1,56,2|0,0:0|0:0,0:0:0:0:
30,272,37820,1,2,0:0:0:0:
30,272,37991,2,0,P|50:246|62:222,1,56,0|2,0:0|0:0,0:0:0:0:
160,106,38506,2,0,L|153:39,1,56,2|0,0:0|0:0,0:0:0:0:
239,136,38848,2,0,L|232:203,1,56,2|0,0:0|0:0,0:0:0:0:
197,261,39191,2,0,P|169:266|128:252,1,56,2|0,0:0|0:0,0:0:0:0:
111,332,39534,6,0,P|163:350|237:328,1,112,2|2,0:0|0:0,0:0:0:0:
283,297,40048,1,0,0:0:0:0:
346,250,40220,2,0,P|398:232|472:254,1,112,10|2,0:0|0:0,0:0:0:0:
505,183,40734,2,0,L|496:63,1,112,0|0,0:0|0:0,0:0:0:0:
404,4,41248,1,2,0:0:0:0:
404,4,41420,2,0,L|395:124,1,112,0|0,0:0|0:0,0:0:0:0:
335,166,41934,1,10,0:0:0:0:
335,166,42106,1,0,0:0:0:0:
277,110,42277,6,0,P|224:87|158:108,1,112,4|2,0:0|0:0,0:0:0:0:
111,156,42791,1,0,0:0:0:0:
167,218,42963,2,0,P|184:269|163:332,1,112,2|2,0:0|0:0,0:0:0:0:
244,360,43477,2,0,P|279:319|344:306,1,112,0|0,0:0|0:0,0:0:0:0:
391,243,43991,2,0,B|446:261|446:261|502:238,2,112,2|2|2,0:0|0:0|0:0,0:0:0:0:
284,108,45020,6,0,L|156:120,1,112,2|2,0:0|0:0,0:0:0:0:
85,235,45706,2,0,P|66:290|86:344,1,112,2|2,0:0|0:0,0:0:0:0:
160,369,46220,2,0,P|212:352|264:371,1,112,8|0,3:0|0:0,0:0:0:0:
337,329,46734,1,2,0:0:0:0:
337,329,46906,2,0,B|352:273|352:273|340:212,1,112,8|2,0:0|0:0,0:0:0:0:
296,148,47420,1,2,0:0:0:0:
343,78,47591,1,2,0:0:0:0:
276,26,47763,6,0,L|153:36,1,112,4|0,0:0|0:0,0:0:0:0:
134,113,48277,1,2,0:0:0:0:
134,113,48448,2,0,L|11:103,1,112,8|0,0:0|0:0,0:0:0:0:
149,197,48963,2,0,L|260:187,1,112,4|8,0:0|0:0,0:0:0:0:
370,315,49648,2,0,P|383:288|388:256,2,56,0|0|0,3:0|3:0|3:0,0:0:0:0:
288,337,50163,2,0,P|260:341|235:355,1,56,0|2,3:0|3:2,0:0:0:0:
154,377,50506,6,0,P|155:323|214:272,1,112,4|0,0:0|0:0,0:0:0:0:
262,236,51020,1,2,0:0:0:0:
206,173,51191,2,0,B|188:117|188:117|209:61,1,112,8|0,0:0|0:0,0:0:0:0:
281,27,51706,1,4,0:0:0:0:
281,27,52048,2,0,L|355:18,1,56,0|0,0:0|0:0,0:0:0:0:
206,67,52391,2,0,L|132:58,1,56,8|8,0:0|0:0,0:0:0:0:
263,130,52734,1,2,0:0:0:0:
263,130,52906,2,0,L|337:121,1,56,8|2,0:0|0:0,0:0:0:0:
382,177,53248,6,0,P|378:206|366:252,1,56,6|0,0:0|0:0,0:0:0:0:
438,283,53591,2,0,P|420:306|386:339,1,56,2|0,0:0|0:0,0:0:0:0:
333,374,53934,2,0,L|259:363,1,56,2|0,0:0|0:0,0:0:0:0:
216,307,54277,2,0,L|142:318,1,56,2|0,0:0|0:0,0:0:0:0:
101,254,54620,2,0,P|92:224|95:188,1,56,2|0,0:0|0:0,0:0:0:0:
175,213,54963,2,0,P|196:190|229:174,1,56,2|0,0:0|0:0,0:0:0:0:
247,256,55306,2,0,P|277:263|307:283,1,56,2|0,0:0|0:0,0:0:0:0:
249,343,55648,1,2,0:0:0:0:
249,343,55991,6,0,P|302:358|363:330,1,112,2|2,0:0|0:0,0:0:0:0:
408,274,56506,1,0,0:0:0:0:
352,211,56677,2,0,P|345:178|355:137,1,56,2|0,0:0|0:0,0:0:0:0:
420,113,57020,2,0,P|427:80|417:39,1,56,2|0,0:0|0:0,0:0:0:0:
353,12,57363,5,8,0:0:0:0:
282,57,57534,1,8,0:0:0:0:
209,14,57706,2,0,L|136:25,1,56,8|8,0:0|0:0,0:0:0:0:
48,81,58048,2,0,L|104:90,1,56,8|8,0:0|0:0,0:0:0:0:
201,154,58391,2,0,L|146:163,1,56,8|8,0:0|0:0,0:0:0:0:
98,232,58734,1,2,0:0:0:0:
78,51,59763,5,2,0:0:0:0:
78,51,60106,6,0,L|85:200,2,140,4|8|2,0:0|0:0|0:0,0:0:0:0:
168,12,60963,1,2,0:0:0:0:
168,12,61134,1,8,0:0:0:0:
220,95,61306,2,0,P|273:113|349:73,1,140,2|2,0:0|0:0,0:0:0:0:
425,21,61820,2,0,P|438:52|444:106,1,70,8|0,0:0|0:0,0:0:0:0:
494,172,62163,2,0,P|473:198|429:230,1,70,2|2,0:0|0:0,0:0:0:0:
397,307,62506,2,0,P|363:302|313:280,1,70,8|0,0:0|0:0,0:0:0:0:
245,240,62848,6,0,P|167:215|111:248,1,140,2|8,0:0|0:0,0:0:0:0:
68,324,63363,1,0,0:0:0:0:
68,324,63534,2,0,L|-7:318,2,70,2|2|8,0:0|0:0|0:0,0:0:0:0:
148,379,64048,2,0,P|158:302|147:222,1,140,2|2,0:0|0:0,0:0:0:0:
136,142,64563,1,8,0:0:0:0:
136,142,64906,2,0,L|142:64,1,70,2|2,0:0|0:0,0:0:0:0:
236,122,65248,2,0,L|230:191,1,70,8|0,0:0|0:0,0:0:0:0:
295,264,65591,6,0,P|356:263|418:188,1,140,2|8,0:0|0:0,0:0:0:0:
325,172,66106,2,0,P|261:173|200:243,1,140,0|2,0:0|0:0,0:0:0:0:
178,315,66620,1,8,0:0:0:0:
92,267,66791,2,0,P|79:197|101:128,1,140,2|2,0:0|0:0,0:0:0:0:
182,78,67306,2,0,P|196:42|206:-5,1,70,8|0,0:0|0:0,0:0:0:0:
98,132,67648,2,0,P|121:162|157:194,1,70,2|2,0:0|0:0,0:0:0:0:
93,32,67991,2,0,P|54:37|9:52,1,70,8|0,0:0|0:0,0:0:0:0:
144,184,68334,6,0,P|211:157|287:156,1,140,2|8,0:0|0:0,0:0:0:0:
347,223,68848,1,0,0:0:0:0:
275,354,69020,2,0,L|271:285,1,70,2|2,0:0|0:0,0:0:0:0:
363,317,69363,1,8,0:0:0:0:
184,371,69534,1,4,0:0:0:0:
61,153,69877,1,2,0:0:0:0:
107,239,70048,1,8,0:0:0:0:
168,105,70220,1,4,0:0:0:0:
249,159,70391,2,0,P|262:125|262:72,1,70,0|2,0:0|0:0,0:0:0:0:
152,37,70734,2,0,P|155:71|167:104,1,70,8|0,0:0|0:0,0:0:0:0:
264,91,71077,6,0,L|419:80,2,140,4|8|2,0:0|0:0|0:0,0:0:0:0:
212,174,71934,1,2,0:0:0:0:
212,174,72106,1,8,0:0:0:0:
278,245,72277,2,0,P|290:316|239:379,1,140,2|2,0:0|0:0,0:0:0:0:
192,293,72791,2,0,L|106:304,1,70,8|0,0:0|0:0,0:0:0:0:
5,206,73134,2,0,L|75:215,1,70,2|2,0:0|0:0,0:0:0:0:
141,142,73477,2,0,P|155:107|155:54,1,70,8|0,0:0|0:0,0:0:0:0:
251,136,73820,6,0,P|245:193|279:277,1,140,2|8,0:0|0:0,0:0:0:0:
366,299,74334,2,0,P|350:328|318:362,1,70,0|2,0:0|0:0,0:0:0:0:
273,269,74677,1,2,0:0:0:0:
201,335,74848,1,8,0:0:0:0:
137,260,75020,2,0,L|151:108,1,140,4|2,0:0|0:0,0:0:0:0:
228,62,75534,1,8,0:0:0:0:
228,62,75706,1,0,0:0:0:0:
140,18,75877,2,0,P|102:27|58:47,1,70,2|2,0:0|0:0,0:0:0:0:
8,112,76220,1,8,0:0:0:0:
75,182,76391,1,2,0:0:0:0:
75,182,76477,1,2,0:0:0:0:
75,182,76563,6,0,P|98:254|63:327,1,140,2|8,0:0|0:0,0:0:0:0:
198,378,77077,2,0,P|176:312|199:247,1,140,0|2,0:0|0:0,0:0:0:0:
280,192,77591,1,8,0:0:0:0:
337,271,77763,1,4,0:0:0:0:
337,271,78106,1,2,0:0:0:0:
408,204,78277,2,0,L|405:120,1,70,8|0,0:0|0:0,0:0:0:0:
315,95,78620,2,0,L|318:11,2,70,2|2|8,0:0|0:0|0:0,0:0:0:0:
237,155,79134,1,0,0:0:0:0:
237,155,79306,6,0,P|160:179|101:150,1,140,2|8,0:0|0:0,0:0:0:0:
53,237,79820,2,0,P|54:273|65:321,1,70,2|8,0:0|0:0,0:0:0:0:
171,290,80163,2,0,P|153:322|139:368,1,70,2|2,0:0|0:0,0:0:0:0:
267,264,80506,1,4,0:0:0:0:
401,361,80848,1,2,0:0:0:0:
401,361,81020,2,0,L|486:355,1,70,8|0,0:0|0:0,0:0:0:0:
429,266,81363,1,2,0:0:0:0:
429,266,81534,1,2,0:0:0:0:
487,191,81706,2,0,P|493:149|479:112,1,70,8|2,0:0|0:0,0:0:0:0:
433,57,82048,6,0,L|311:70,1,112,4|0,0:0|0:0,0:0:0:0:
260,127,82563,1,2,0:0:0:0:
260,127,82734,2,0,L|138:114,1,112,8|0,0:0|0:0,0:0:0:0:
96,49,83248,2,0,P|68:93|77:162,1,112,4|8,0:0|0:0,0:0:0:0:
114,303,83934,2,0,P|63:261|11:262,2,112,0|0|2,3:0|3:0|0:0,0:0:0:0:
163,371,84791,5,4,0:0:0:0:
163,371,85477,1,2,3:0:0:0:
163,371,86163,1,8,0:0:0:0:
224,313,86334,1,8,0:0:0:0:
299,351,86506,1,8,0:0:0:0:
364,298,86677,1,8,0:0:0:0:
364,298,86763,1,8,0:0:0:0:
364,298,86848,1,8,0:0:0:0:
458,353,87020,1,4,0:0:0:0:
329,188,87363,5,0,0:0:0:0:
329,188,87448,1,0,0:0:0:0:
329,188,87534,1,6,0:0:0:0:
70,143,98506,6,0,P|85:169|121:190,1,56,2|0,0:0|0:0,0:0:0:0:
168,61,98848,2,0,P|152:87|152:128,1,56,2|0,0:0|0:0,0:0:0:0:
288,104,99191,2,0,P|257:103|221:124,1,56,2|0,0:0|0:0,0:0:0:0:
310,229,99534,2,0,P|294:202|259:182,1,56,2|0,0:0|0:0,0:0:0:0:
212,310,99877,2,0,P|227:283|227:242,1,56,2|0,0:0|0:0,0:0:0:0:
158,364,100220,2,0,L|289:360,2,112,2|2|2,0:0|0:0|0:0,0:0:0:0:
50,266,101248,6,0,L|56:197,1,56,2|0,0:0|0:0,0:0:0:0:
157,245,101591,2,0,L|151:176,1,56,2|0,0:0|0:0,0:0:0:0:
254,223,101934,2,0,L|259:168,1,56,2|0,0:0|0:0,0:0:0:0:
360,201,102277,2,0,L|356:146,1,56,2|0,0:0|0:0,0:0:0:0:
458,179,102620,2,0,L|463:124,1,56,2|0,0:0|0:0,0:0:0:0:
398,45,102963,2,0,P|338:17|283:37,2,112,2|2|2,0:0|0:0|0:0,0:0:0:0:
226,93,103991,6,0,P|210:62|207:36,1,56,2|0,0:0|0:0,0:0:0:0:
276,179,104334,2,0,P|294:149|315:134,1,56,2|0,0:0|0:0,0:0:0:0:
226,265,104677,2,0,P|260:266|284:277,1,56,2|0,0:0|0:0,0:0:0:0:
354,314,105020,1,2,0:0:0:0:
354,314,105191,1,0,0:0:0:0:
283,359,105363,1,2,0:0:0:0:
283,359,105706,2,0,L|207:353,1,56,2|0,0:0|0:0,0:0:0:0:
184,282,106048,2,0,L|108:288,1,56,2|0,0:0|0:0,0:0:0:0:
68,345,106391,2,0,L|-8:339,1,56,2|0,0:0|0:0,0:0:0:0:
128,286,106734,6,0,P|144:237|115:172,1,112,2|2,0:0|0:0,0:0:0:0:
52,237,107248,1,0,0:0:0:0:
52,237,107420,2,0,P|32:185|48:132,1,112,2|2,0:0|0:0,0:0:0:0:
112,77,107934,1,0,0:0:0:0:
112,77,108106,2,0,L|225:87,2,112,2|2|2,0:0|0:0|0:0,0:0:0:0:
260,162,109134,1,2,0:0:0:0:
340,15,109477,6,0,L|330:128,1,112,2|2,0:0|0:0,0:0:0:0:
260,162,109991,2,0,L|266:241,1,56,0|2,0:0|0:0,0:0:0:0:
335,252,110334,2,0,L|329:331,1,56,0|2,0:0|0:0,0:0:0:0:
269,356,110677,1,0,0:0:0:0:
269,356,110848,2,0,P|206:369|152:344,2,112,2|2|2,0:0|0:0|0:0,0:0:0:0:
390,256,111877,2,0,P|416:239|455:233,1,56,2|0,0:0|0:0,0:0:0:0:
368,333,112220,6,0,P|340:318|315:288,2,56,2|0|2,0:0|0:0|0:0,0:0:0:0:
390,256,112734,2,0,P|373:229|367:191,1,56,0|2,0:0|0:0,0:0:0:0:
447,200,113077,2,0,P|445:168|459:132,1,56,0|2,0:0|0:0,0:0:0:0:
474,69,113420,1,0,0:0:0:0:
474,69,113591,2,0,P|422:72|374:118,1,112,2|2,0:0|0:0,0:0:0:0:
331,173,114106,2,0,P|314:199|284:223,1,56,0|2,0:0|0:0,0:0:0:0:
225,285,114448,2,0,P|255:285|291:300,1,56,0|2,0:0|0:0,0:0:0:0:
334,355,114791,1,0,0:0:0:0:
334,355,114963,6,0,L|465:348,2,112,2|2|2,0:0|0:0|0:0,0:0:0:0:
174,351,115991,2,0,P|143:350|107:335,1,56,2|0,0:0|0:0,0:0:0:0:
160,216,116334,2,0,L|162:271,1,56,2|0,0:0|0:0,0:0:0:0:
240,295,116677,2,0,P|270:295|306:310,1,56,2|0,0:0|0:0,0:0:0:0:
364,350,117020,1,2,0:0:0:0:
364,350,117191,1,0,0:0:0:0:
415,283,117363,1,2,0:0:0:0:
415,283,117534,1,0,0:0:0:0:
467,216,117706,6,0,P|496:156|485:102,1,112,2|2,0:0|0:0,0:0:0:0:
418,67,118220,2,0,L|354:75,1,56,0|2,0:0|0:0,0:0:0:0:
298,19,118563,2,0,L|242:12,1,56,0|2,0:0|0:0,0:0:0:0:
174,62,118906,1,0,0:0:0:0:
235,127,119077,1,2,0:0:0:0:
235,127,119248,1,2,0:0:0:0:
172,184,119420,2,0,L|177:251,1,56,8|0,0:0|0:0,0:0:0:0:
184,323,119763,1,2,0:0:0:0:
269,258,119934,1,8,0:0:0:0:
269,258,120020,1,8,0:0:0:0:
269,258,120106,1,8,0:0:0:0:
307,365,120277,1,2,0:0:0:0:
403,264,120448,6,0,P|421:205|399:149,1,112,6|2,0:0|0:0,0:0:0:0:
337,208,120963,1,0,0:0:0:0:
309,128,121134,2,0,B|254:142|254:142|195:125,1,112,2|2,0:0|0:0,0:0:0:0:
151,58,121648,2,0,P|141:28|136:-5,2,56,0|2|0,0:0|0:0|0:0,0:0:0:0:
200,126,122163,2,0,P|194:153|185:179,1,56,2|0,0:0|0:0,0:0:0:0:
101,186,122506,2,0,P|106:213|115:239,1,56,2|0,0:0|0:0,0:0:0:0:
61,304,122848,1,2,0:0:0:0:
61,304,123191,6,0,P|110:325|178:296,1,112,2|2,0:0|0:0,0:0:0:0:
229,254,123706,1,0,0:0:0:0:
229,254,123877,2,0,P|278:233|346:262,1,112,10|2,0:0|0:0,0:0:0:0:
397,305,124391,2,0,P|418:256|389:188,1,112,8|0,3:0|0:0,0:0:0:0:
359,128,124906,1,2,0:0:0:0:
412,63,125077,1,0,0:0:0:0:
343,14,125248,2,0,L|273:20,1,56,4|0,0:0|0:0,0:0:0:0:
190,77,125591,1,10,0:0:0:0:
190,77,125763,1,0,0:0:0:0:
279,156,125934,6,0,P|291:213|272:268,1,112,4|2,0:0|0:0,0:0:0:0:
200,302,126448,1,0,0:0:0:0:
249,370,126620,2,0,L|362:358,1,112,2|2,0:0|0:0,0:0:0:0:
408,288,127134,2,0,P|432:306|446:330,1,56,8|0,0:0|0:0,0:0:0:0:
491,245,127477,1,8,0:0:0:0:
491,245,127648,2,0,L|485:183,1,56,2|0,0:0|0:0,0:0:0:0:
405,162,127991,2,0,L|411:100,1,56,2|0,0:0|0:0,0:0:0:0:
469,46,128334,1,2,0:0:0:0:
306,15,128677,6,0,P|247:34|194:23,1,112,2|2,0:0|0:0,0:0:0:0:
81,118,129363,2,0,L|86:185,1,56,2|0,0:0|0:0,0:0:0:0:
146,232,129706,1,2,0:0:0:0:
84,288,129877,2,0,P|126:314|187:305,1,112,8|8,0:0|0:0,0:0:0:0:
185,305,130391,1,2,0:0:0:0:
338,348,130563,2,0,P|283:338|236:365,1,112,2|2,0:0|0:0,0:0:0:0:
188,249,131077,2,0,L|184:318,1,56,10|2,0:0|0:0,0:0:0:0:
148,174,131420,6,0,P|202:164|250:192,1,112,4|0,0:0|0:0,0:0:0:0:
311,248,131934,1,2,0:0:0:0:
344,170,132106,2,0,L|334:49,1,112,8|0,0:0|0:0,0:0:0:0:
258,21,132620,1,4,0:0:0:0:
258,21,132963,2,0,P|227:33|189:39,1,56,8|0,0:0|0:0,0:0:0:0:
160,109,133306,1,0,3:0:0:0:
160,109,133391,1,0,3:0:0:0:
160,109,133477,2,0,P|129:96|91:91,1,56,0|0,3:0|3:0,0:0:0:0:
50,154,133820,1,0,3:0:0:0:
85,229,133991,1,2,3:2:0:0:
55,308,134163,5,4,0:0:0:0:
119,361,134334,2,0,L|242:353,1,112,8|2,0:0|0:0,0:0:0:0:
268,278,134848,2,0,P|293:295|312:326,2,56,8|0|2,0:0|0:0|0:0,0:0:0:0:
199,228,135363,1,4,0:0:0:0:
199,228,135706,6,0,L|195:163,1,56,0|2,0:0|0:0,0:0:0:0:
241,102,136048,2,0,L|244:49,2,28,8|8|8,0:0|0:0|0:0,0:0:0:0:
300,162,136391,1,2,0:0:0:0:
358,100,136563,2,0,P|384:86|425:82,1,56,8|2,0:0|0:0,0:0:0:0:
465,144,136906,6,0,L|458:212,1,56,6|0,0:0|0:0,0:0:0:0:
380,227,137248,2,0,L|387:295,1,56,2|0,0:0|0:0,0:0:0:0:
497,341,137591,2,0,L|429:348,1,56,2|0,0:0|0:0,0:0:0:0:
385,282,137934,1,2,0:0:0:0:
326,355,138106,1,0,0:0:0:0:
326,355,138191,1,0,0:0:0:0:
326,355,138277,2,0,P|296:368|259:366,1,56,2|0,0:0|0:0,0:0:0:0:
203,321,138620,2,0,P|190:291|192:254,1,56,2|0,0:0|0:0,0:0:0:0:
258,204,138963,2,0,P|271:234|269:271,1,56,2|0,0:0|0:0,0:0:0:0:
119,180,139306,2,0,L|186:186,1,56,2|0,0:0|0:0,0:0:0:0:
229,121,139648,6,0,P|242:67|202:7,1,112,2|2,0:0|0:0,0:0:0:0:
144,62,140163,1,0,0:0:0:0:
144,62,140334,2,0,P|108:72|75:72,1,56,2|0,0:0|0:0,0:0:0:0:
74,155,140677,2,0,P|37:145|9:129,1,56,2|2,0:0|3:0,0:0:0:0:
81,238,141020,5,8,0:0:0:0:
12,286,141191,1,8,0:0:0:0:
90,377,141363,2,0,L|85:322,1,56,8|8,0:0|0:0,0:0:0:0:
162,222,141706,2,0,L|157:278,1,56,8|8,0:0|0:0,0:0:0:0:
238,366,142048,2,0,L|233:311,1,56,8|8,0:0|0:0,0:0:0:0:
292,250,142391,1,2,0:0:0:0:
348,132,143334,5,2,0:0:0:0:
348,132,143420,2,0,L|342:224,1,84,8|0,0:0|0:0,0:0:0:0:
333,264,143763,6,0,P|286:284|204:251,2,140,4|8|2,0:0|0:0|0:0,0:0:0:0:
410,203,144620,1,2,0:0:0:0:
410,203,144791,1,8,0:0:0:0:
472,278,144963,2,0,B|463:383|463:383|441:350,1,140,2|2,0:0|0:0,0:0:0:0:
366,293,145477,2,0,P|330:275|282:273,1,70,8|0,0:0|0:0,0:0:0:0:
245,190,145820,2,0,P|209:208|161:210,1,70,2|2,0:0|0:0,0:0:0:0:
117,287,146163,2,0,L|123:357,1,70,8|0,0:0|0:0,0:0:0:0:
179,211,146506,6,0,L|189:70,1,140,2|8,0:0|0:0,0:0:0:0:
107,17,147020,1,0,0:0:0:0:
29,76,147191,1,2,0:0:0:0:
29,76,147363,2,0,P|54:98|89:113,1,70,2|8,0:0|0:0,0:0:0:0:
167,195,147706,2,0,P|205:112|187:68,1,140,2|2,0:0|0:0,0:0:0:0:
264,7,148220,2,0,L|410:22,1,140,8|2,0:0|0:0,0:0:0:0:
465,97,148734,1,2,0:0:0:0:
396,167,148906,1,8,0:0:0:0:
436,256,149077,1,0,0:0:0:0:
379,335,149248,6,0,P|308:359|243:326,1,140,2|8,0:0|0:0,0:0:0:0:
255,156,149763,2,0,P|311:205|309:279,1,140,0|2,0:0|0:0,0:0:0:0:
226,242,150277,1,8,0:0:0:0:
251,334,150448,2,0,L|99:320,1,140,2|2,0:0|0:0,0:0:0:0:
0,242,150963,2,0,L|152:228,2,140,8|2|8,0:0|0:0|0:0,0:0:0:0:
251,334,151991,6,0,P|261:252|246:189,1,140,2|8,0:0|0:0,0:0:0:0:
208,106,152506,1,0,0:0:0:0:
304,120,152677,1,2,0:0:0:0:
238,19,152848,1,2,0:0:0:0:
238,19,152934,1,2,0:0:0:0:
238,19,153020,1,8,0:0:0:0:
112,92,153191,1,4,0:0:0:0:
112,92,153534,2,0,L|113:168,1,70,2|8,0:0|0:0,0:0:0:0:
186,222,153877,2,0,P|124:255|47:231,1,140,4|2,0:0|0:0,0:0:0:0:
3,158,154391,1,8,0:0:0:0:
1,343,154563,1,2,0:0:0:0:
1,343,154648,1,2,0:0:0:0:
1,343,154734,6,0,P|67:328|128:361,2,140,4|8|2,0:0|0:0|0:0,0:0:0:0:
58,239,155591,1,2,0:0:0:0:
58,239,155763,1,8,0:0:0:0:
6,156,155934,2,0,L|17:3,1,140,2|2,0:0|0:0,0:0:0:0:
173,63,156448,2,0,P|138:64|105:56,1,70,8|0,0:0|0:0,0:0:0:0:
216,143,156791,2,0,P|250:144|284:135,1,70,2|2,0:0|0:0,0:0:0:0:
348,3,157134,2,0,P|346:37|355:71,1,70,8|0,0:0|0:0,0:0:0:0:
364,184,157477,6,0,P|319:225|235:215,1,140,2|8,0:0|0:0,0:0:0:0:
182,297,157991,2,0,P|137:256|53:266,1,140,0|2,0:0|0:0,0:0:0:0:
7,343,158506,1,8,0:0:0:0:
104,353,158677,2,0,P|122:269|111:207,1,140,4|2,0:0|0:0,0:0:0:0:
94,120,159191,1,8,0:0:0:0:
94,120,159534,2,0,L|100:36,1,70,2|2,0:0|0:0,0:0:0:0:
191,16,159877,1,8,0:0:0:0:
266,86,160048,1,2,0:0:0:0:
266,86,160134,1,2,0:0:0:0:
266,86,160220,6,0,P|322:108|404:72,1,140,2|8,0:0|0:0,0:0:0:0:
455,4,160734,2,0,L|433:159,1,140,0|2,0:0|0:0,0:0:0:0:
357,202,161248,1,8,0:0:0:0:
403,288,161420,1,4,0:0:0:0:
148,358,161763,1,2,0:0:0:0:
148,358,161934,1,8,0:0:0:0:
113,265,162106,1,0,0:0:0:0:
209,278,162277,2,0,P|242:285|290:291,1,70,2|2,0:0|0:0,0:0:0:0:
228,167,162620,2,0,P|194:174|147:180,1,70,8|0,0:0|0:0,0:0:0:0:
296,66,162963,6,0,P|326:127|344:199,1,140,2|8,0:0|0:0,0:0:0:0:
306,287,163477,1,2,0:0:0:0:
306,287,163648,2,0,P|338:240|426:225,1,140,8|2,0:0|0:0,0:0:0:0:
400,319,164163,1,4,0:0:0:0:
400,319,164506,1,2,0:0:0:0:
489,359,164677,1,8,0:0:0:0:
509,263,164848,2,0,L|505:215,2,35,0|0|2,3:2|3:2|3:2,0:0:0:0:
426,178,165191,2,0,L|430:130,2,35,2|0|8,3:2|3:2|3:2,0:0:0:0:
496,78,165534,1,2,0:0:0:0:
496,78,165706,6,0,P|450:52|383:62,1,112,4|0,0:0|0:0,0:0:0:0:
326,109,166220,1,2,0:0:0:0:
286,35,166391,2,0,L|164:43,1,112,8|0,0:0|0:0,0:0:0:0:
93,17,166906,2,0,P|133:57|125:122,1,112,4|8,0:0|0:0,0:0:0:0:
11,179,167591,2,0,P|10:124|50:87,2,112,0|0|2,3:0|3:0|0:0,0:0:0:0:
46,255,168448,5,4,0:0:0:0:
46,255,169134,1,2,3:0:0:0:
46,255,169820,1,8,0:0:0:0:
127,236,169992,1,8,0:0:0:0:
171,308,170163,1,8,0:0:0:0:
116,371,170335,1,8,0:0:0:0:
116,371,170420,1,8,0:0:0:0:
116,371,170506,1,8,0:0:0:0:
38,338,170677,1,4,0:0:0:0:
336,200,171191,5,6,0:0:0:0:
381,87,176677,6,0,L|376:165,1,56,6|0,0:0|0:0,0:0:0:0:
295,124,177020,2,0,L|290:202,1,56,2|0,0:0|0:0,0:0:0:0:
209,161,177363,2,0,L|204:239,1,56,2|0,0:0|0:0,0:0:0:0:
119,253,177706,2,0,L|123:198,1,56,10|0,0:0|0:0,0:0:0:0:
176,315,178048,2,0,P|117:341|68:323,2,112,2|2|2,0:0|0:0|0:0,0:0:0:0:
325,368,179077,1,10,0:0:0:0:
410,223,179420,6,0,L|403:102,2,112,2|2|2,0:0|0:0|0:0,0:0:0:0:
351,283,180277,1,0,0:0:0:0:
351,283,180448,1,2,0:0:0:0:
289,206,180620,6,0,L|162:211,1,105,8|0,0:0|0:0,0:0:0:0:
135,214,180963,1,8,0:0:0:0:
167,121,181134,1,8,0:0:0:0:
122,33,181306,1,2,0:0:0:0:
43,90,181477,2,0,L|45:139,3,35,8|0|0|0,0:0|0:0|3:0|3:0,0:0:0:0:
83,154,181820,2,0,L|81:203,3,35,0|0|0|0,3:0|3:0|3:0|3:0,0:0:0:0:
46,223,182163,6,0,P|43:258|54:305,1,70,6|2,0:0|0:0,0:0:0:0:
150,359,182506,2,0,P|153:324|147:290,1,70,8|0,0:0|0:0,0:0:0:0:
241,204,182848,2,0,P|238:238|244:273,2,70,2|2|8,0:0|0:0|0:0,0:0:0:0:
303,127,183363,2,0,L|443:135,2,140,2|2|0,0:0|0:0|0:0,0:0:0:0:
257,40,184220,1,2,0:0:0:0:
257,40,184391,1,2,0:0:0:0:
175,95,184563,2,0,P|138:99|88:90,1,70,8|0,0:0|0:0,0:0:0:0:
29,32,184906,5,2,0:0:0:0:
4,126,185077,1,2,0:0:0:0:
66,201,185248,1,8,0:0:0:0:
14,284,185420,2,0,P|46:298|87:297,1,70,0|2,0:0|0:0,0:0:0:0:
131,382,185763,2,0,P|159:361|178:325,1,70,2|8,0:0|0:0,0:0:0:0:
222,244,186106,2,0,P|254:200|358:187,1,140,4|2,0:0|0:0,0:0:0:0:
390,260,186620,2,0,L|378:110,1,140,8|2,0:0|0:0,0:0:0:0:
373,22,187134,1,2,0:0:0:0:
373,22,187306,1,8,0:0:0:0:
499,83,187477,1,8,0:0:0:0:
499,83,187563,1,8,0:0:0:0:
499,83,187648,6,0,L|493:170,2,70,6|2|8,0:0|0:0|0:0,0:0:0:0:
407,175,188163,2,0,L|413:262,1,70,0|2,0:0|0:0,0:0:0:0:
475,311,188506,2,0,P|443:330|404:337,2,70,2|8|2,0:0|0:0|0:0,0:0:0:0:
411,244,189020,1,0,0:0:0:0:
411,244,189191,2,0,P|328:208|277:227,1,140,2|0,0:0|0:0,0:0:0:0:
214,291,189706,2,0,L|201:211,1,70,2|2,0:0|0:0,0:0:0:0:
338,291,190048,2,0,L|325:371,1,70,8|0,0:0|0:0,0:0:0:0:
214,291,190391,6,0,P|167:315|74:293,1,140,2|8,0:0|0:0,0:0:0:0:
21,223,190906,2,0,P|12:182|20:139,1,70,0|2,0:0|0:0,0:0:0:0:
105,116,191248,2,0,P|114:75|106:32,1,70,2|8,0:0|0:0,0:0:0:0:
138,203,191591,2,0,L|288:196,1,140,4|2,0:0|0:0,0:0:0:0:
341,120,192106,1,8,0:0:0:0:
341,120,192277,1,0,0:0:0:0:
417,180,192448,1,2,0:0:0:0:
356,257,192620,2,0,L|358:299,2,35,0|0|2,3:2|3:2|3:2,0:0:0:0:
430,350,192963,5,0,3:0:0:0:
430,350,193048,1,0,3:0:0:0:
430,350,193134,1,2,3:2:0:0:
357,291,193306,1,2,0:0:0:0:
270,336,193477,1,2,0:0:0:0:
206,261,193648,1,0,0:0:0:0:
206,261,193820,2,0,L|209:175,2,70,2|2|8,0:0|0:0|0:0,0:0:0:0:
270,336,194334,2,0,P|221:359|132:328,1,140,4|2,0:0|0:0,0:0:0:0:
140,150,194848,2,0,P|184:180|202:273,1,140,8|2,0:0|0:0,0:0:0:0:
141,336,195363,2,0,L|66:330,1,70,2|8,0:0|0:0,0:0:0:0:
9,254,195706,1,2,0:0:0:0:
9,254,195791,1,2,0:0:0:0:
9,254,195877,6,0,B|37:182|37:182|18:110,1,140,6|8,0:0|0:0,0:0:0:0:
69,36,196391,1,2,0:0:0:0:
69,36,196477,1,2,0:0:0:0:
69,36,196563,2,0,B|141:64|141:64|213:45,1,140,2|8,0:0|0:0,0:0:0:0:
294,79,197077,2,0,P|302:156|295:227,1,140,4|2,0:0|0:0,0:0:0:0:
199,203,197591,2,0,P|191:280|198:351,1,140,8|2,0:0|0:0,0:0:0:0:
291,369,198106,1,2,0:0:0:0:
291,369,198277,1,8,0:0:0:0:
354,294,198448,1,0,0:0:0:0:
421,365,198620,6,0,P|451:317|425:230,1,140,6|8,0:0|0:0,0:0:0:0:
250,221,199134,2,0,P|276:270|364:291,1,140,0|2,0:0|0:0,0:0:0:0:
433,239,199648,1,8,0:0:0:0:
374,160,199820,2,0,L|381:12,1,140,4|2,0:0|0:0,0:0:0:0:
273,48,200334,2,0,L|277:142,1,70,8|0,0:0|0:0,0:0:0:0:
211,191,200677,2,0,P|175:197|130:189,1,70,2|2,0:0|0:0,0:0:0:0:
9,116,201020,2,0,P|43:111|78:117,1,70,8|0,0:0|0:0,0:0:0:0:
142,192,201363,6,0,P|151:224|154:279,1,70,2|2,0:0|0:0,0:0:0:0:
251,275,201706,2,0,P|242:307|217:356,1,70,8|0,0:0|0:0,0:0:0:0:
347,273,202048,2,0,P|338:241|335:186,1,70,2|2,0:0|0:0,0:0:0:0:
238,190,202391,1,8,0:0:0:0:
238,190,202563,2,0,P|246:157|271:108,1,70,4|0,0:0|0:0,0:0:0:0:
326,50,202906,1,2,0:0:0:0:
385,127,203077,6,0,P|432:140|514:95,1,140,8|2,0:0|0:0,0:0:0:0:
344,59,203591,2,0,L|352:208,1,140,8|2,0:0|0:0,0:0:0:0:
218,298,204106,2,0,P|239:270|270:255,1,70,8|2,0:0|0:0,0:0:0:0:
377,335,204448,2,0,L|308:344,1,70,8|8,3:0|3:0,0:0:0:0:
308,344,204706,1,8,3:0:0:0:
308,344,204791,1,8,3:0:0:0:
218,298,204963,1,8,3:0:0:0:
140,356,205134,1,8,3:0:0:0:
26,280,205306,5,4,0:0:0:0:
406,87,217820,6,0,L|397:200,2,112,2|2|0,0:0|0:0|0:0,0:0:0:0:
292,363,220563,6,0,L|283:250,2,112,2|0|0,0:0|0:0|0:0,0:0:0:0:
121,158,223306,6,0,P|172:172|236:156,2,112,2|0|0,0:0|0:0|0:0,0:0:0:0:
71,83,225363,1,0,0:0:0:0:
155,31,226048,1,2,0:0:0:0:
434,333,228448,5,8,0:0:0:0:
434,333,228791,6,0,L|427:184,2,140,4|8|2,0:0|0:0|0:0,0:0:0:0:
344,372,229648,1,2,0:0:0:0:
344,372,229819,1,8,0:0:0:0:
292,289,229991,2,0,P|239:271|163:311,1,140,2|2,0:0|0:0,0:0:0:0:
87,363,230505,2,0,P|74:332|68:278,1,70,8|0,0:0|0:0,0:0:0:0:
18,212,230848,2,0,P|39:186|83:154,1,70,2|2,0:0|0:0,0:0:0:0:
115,77,231191,2,0,P|149:82|199:104,1,70,8|0,0:0|0:0,0:0:0:0:
287,148,231534,6,0,L|277:289,1,140,2|8,0:0|0:0,0:0:0:0:
359,342,232048,1,0,0:0:0:0:
437,283,232219,1,2,0:0:0:0:
437,283,232391,2,0,P|412:261|377:246,1,70,2|8,0:0|0:0,0:0:0:0:
299,164,232734,2,0,P|261:247|279:291,1,140,4|0,0:0|0:0,0:0:0:0:
182,314,233248,2,0,L|36:299,1,140,8|2,0:0|0:0,0:0:0:0:
86,206,233762,1,2,0:0:0:0:
44,118,233934,1,8,0:0:0:0:
87,24,234105,1,2,0:0:0:0:
87,24,234191,1,2,0:0:0:0:
87,24,234277,6,0,P|158:0|223:33,1,140,2|8,0:0|0:0,0:0:0:0:
212,203,234791,2,0,P|156:154|152:81,1,140,0|0,0:0|0:0,0:0:0:0:
240,117,235305,1,8,0:0:0:0:
215,25,235477,2,0,L|367:39,1,140,2|2,0:0|0:0,0:0:0:0:
466,117,235991,2,0,L|314:131,2,140,8|2|8,0:0|0:0|0:0,0:0:0:0:
284,326,237020,6,0,P|257:259|256:183,1,140,2|8,0:0|0:0,0:0:0:0:
323,123,237534,1,0,0:0:0:0:
454,195,237706,2,0,L|385:199,1,70,2|8,0:0|0:0,0:0:0:0:
384,199,237963,1,8,0:0:0:0:
384,199,238048,1,8,0:0:0:0:
482,110,238220,1,4,0:0:0:0:
482,110,238563,2,0,P|490:63|481:32,1,70,2|8,0:0|0:0,0:0:0:0:
393,72,238906,2,0,P|365:122|392:208,1,140,4|2,0:0|0:0,0:0:0:0:
354,292,239420,1,8,0:0:0:0:
248,293,239591,1,2,0:0:0:0:
248,293,239677,1,2,0:0:0:0:
248,293,239763,6,0,L|93:304,2,140,4|8|2,0:0|0:0|0:0,0:0:0:0:
300,210,240620,1,2,0:0:0:0:
300,210,240792,1,8,0:0:0:0:
234,139,240963,2,0,P|222:68|273:5,1,140,2|2,0:0|0:0,0:0:0:0:
320,91,241477,2,0,L|406:80,1,70,8|0,0:0|0:0,0:0:0:0:
507,178,241820,2,0,L|437:169,1,70,2|2,0:0|0:0,0:0:0:0:
371,242,242163,2,0,P|357:277|357:330,1,70,8|0,0:0|0:0,0:0:0:0:
261,248,242506,6,0,P|267:191|233:107,1,140,2|8,0:0|0:0,0:0:0:0:
146,85,243020,2,0,P|162:56|194:22,1,70,0|0,0:0|0:0,0:0:0:0:
305,36,243363,1,10,0:0:0:0:
305,36,243448,1,8,0:0:0:0:
305,36,243534,1,8,0:0:0:0:
375,124,243706,2,0,L|361:276,1,140,4|2,0:0|0:0,0:0:0:0:
284,322,244220,1,8,0:0:0:0:
284,322,244392,1,0,0:0:0:0:
372,366,244563,2,0,P|410:357|454:337,1,70,2|2,0:0|0:0,0:0:0:0:
504,272,244906,1,8,0:0:0:0:
437,202,245077,1,2,0:0:0:0:
437,202,245163,1,2,0:0:0:0:
437,202,245249,6,0,P|414:130|449:57,1,140,2|8,0:0|0:0,0:0:0:0:
314,6,245763,2,0,P|336:72|313:137,1,140,0|2,0:0|0:0,0:0:0:0:
232,192,246277,1,8,0:0:0:0:
175,113,246449,1,4,0:0:0:0:
175,113,246792,1,2,0:0:0:0:
104,180,246963,2,0,L|107:264,1,70,8|0,0:0|0:0,0:0:0:0:
197,289,247306,2,0,L|194:373,2,70,2|2|8,0:0|0:0|0:0,0:0:0:0:
275,229,247820,1,0,0:0:0:0:
275,229,247992,6,0,P|352:205|411:234,1,140,6|8,0:0|0:0,0:0:0:0:
459,147,248506,2,0,P|458:111|447:63,1,70,2|8,0:0|0:0,0:0:0:0:
341,94,248849,2,0,P|359:62|373:16,1,70,2|2,0:0|0:0,0:0:0:0:
245,120,249192,1,4,0:0:0:0:
323,298,249534,1,2,0:0:0:0:
260,222,249706,2,0,L|174:232,1,70,8|0,0:0|0:0,0:0:0:0:
65,301,250048,2,0,L|135:310,1,70,2|2,0:0|0:0,0:0:0:0:
210,373,250391,1,8,0:0:0:0:
323,298,250563,1,2,0:0:0:0:
323,298,250734,6,0,P|367:265|432:270,1,112,4|0,0:0|0:0,0:0:0:0:
480,326,251248,1,2,0:0:0:0:
480,326,251420,2,0,L|472:193,1,112,8|0,0:0|0:0,0:0:0:0:
442,135,251934,2,0,P|386:152|327:137,1,112,4|8,0:0|0:0,0:0:0:0:
201,38,252620,2,0,P|187:92|207:145,2,112,0|0|2,3:0|3:0|0:0,0:0:0:0:
276,87,253477,5,4,0:0:0:0:
276,87,254163,1,2,3:0:0:0:
276,87,254848,1,8,0:0:0:0:
347,42,255020,1,8,0:0:0:0:
413,92,255191,1,8,0:0:0:0:
491,60,255363,1,8,0:0:0:0:
491,60,255448,1,8,0:0:0:0:
491,60,255534,1,8,0:0:0:0:
512,159,255706,1,4,0:0:0:0:
398,266,256048,6,0,L|284:263,1,112,4|2,0:0|0:0,0:0:0:0:
233,196,256563,2,0,P|201:246|214:308,1,112,8|2,0:0|0:0,0:0:0:0:
247,370,257077,1,2,0:0:0:0:
247,370,257420,2,0,P|219:317|159:297,1,112,4|2,0:0|0:0,0:0:0:0:
98,337,257934,1,8,0:0:0:0:
56,263,258106,2,0,L|18:268,2,28,2|2|2,0:0|0:0|0:0,0:0:0:0:
110,199,258448,1,2,0:0:0:0:
110,199,258620,2,0,P|117:164|116:129,1,56,8|2,0:0|0:0,0:0:0:0:
79,68,258963,6,0,P|131:61|190:96,1,112,4|8,0:0|0:0,0:0:0:0:
226,159,259477,1,2,0:0:0:0:
226,159,259648,2,0,P|250:136|268:110,2,56,2|2|2,0:0|0:0|0:0,0:0:0:0:
304,247,260163,2,0,P|252:240|193:275,1,112,12|2,0:0|0:0,0:0:0:0:
158,339,260677,2,0,P|134:316|116:290,1,56,8|0,3:0|3:0,0:0:0:0:
120,297,260934,1,0,3:0:0:0:
120,297,261020,1,0,3:0:0:0:
144,217,261191,1,0,3:0:0:0:
110,139,261363,1,0,3:0:0:0:
156,69,261534,1,2,0:0:0:0:
66,0,261706,5,4,0:0:0:0:
256,192,261791,12,0,267191,0:0:0:0:
