osu file format v14

[General]
AudioFilename: audio.mp3
AudioLeadIn: 0
PreviewTime: 206076
Countdown: 0
SampleSet: Soft
StackLeniency: 0.5
Mode: 0
LetterboxInBreaks: 0
WidescreenStoryboard: 1

[Editor]
DistanceSpacing: 3.3
BeatDivisor: 4
GridSize: 8
TimelineZoom: 3.199999

[Metadata]
Title:Authentic symphony
TitleUnicode:Authentic symphony
Artist:ChouCho
ArtistUnicode:ちょうちょ
Creator:Zekk
Version:Bloom
Source:ましろ色シンフォニー -The color of lovers-
Tags:op opening full version japanese pop female vocals vocalist mashiroiro anime kibbleru
BeatmapID:3591343
BeatmapSetID:1754918

[Difficulty]
HPDrainRate:5
CircleSize:4
OverallDifficulty:8
ApproachRate:8
SliderMultiplier:1.6
SliderTickRate:1

[Events]
//Background and Video events
0,0,"peakpx.jpg",0,0
//Break Periods
//Storyboard Layer 0 (Background)
//Storyboard Layer 1 (Fail)
//Storyboard Layer 2 (Pass)
//Storyboard Layer 3 (Foreground)
//Storyboard Layer 4 (Overlay)
//Storyboard Sound Samples

[TimingPoints]
6275,342.857142857143,4,2,1,65,1,0
6275,-100,4,2,1,65,0,0
6619,342.857142857143,4,2,1,65,1,0
6619,-142.857142857143,4,2,1,65,0,0
8472,346.820809248555,4,2,1,65,1,0
8703,348.837209302326,4,2,1,65,1,0
8819,283.018867924528,4,2,1,65,1,0
9007,327.868852459016,4,2,1,65,1,0
9362,342.857142857143,4,2,1,65,1,0
9362,-125,4,2,1,65,0,0
10582,350.877192982457,4,2,1,65,1,0
10582,-125,4,2,1,65,0,0
11458,337.078651685394,4,2,1,65,1,0
11458,-125,4,2,1,65,0,0
11795,312.500000000001,4,2,1,65,1,0
11951,338.983050847459,4,2,1,65,1,0
12120,342.857142857143,4,2,1,65,1,0
14862,-100,4,2,1,50,0,0
15548,-166.666666666667,4,2,1,40,0,0
25834,-142.857142857143,4,2,1,50,0,0
36805,-117.647058823529,4,2,1,60,0,0
47777,-133.333333333333,4,2,1,65,0,0
53262,-111.111111111111,4,2,1,70,0,0
60120,-90.9090909090909,4,2,1,80,0,1
61823,342.857142857143,4,2,1,80,1,1
61823,-90.9090909090909,4,2,1,80,0,1
62851,342.857142857143,4,2,1,80,1,1
62851,-90.9090909090909,4,2,1,80,0,1
82051,-111.111111111111,4,2,1,65,0,0
84793,-166.666666666666,4,2,1,65,0,0
85822,-125,4,2,1,65,0,0
87022,-90.9090909090909,4,2,1,70,0,0
87548,342.857142857143,4,2,1,45,1,0
89605,-166.666666666666,4,2,1,45,0,0
98519,-125,4,2,1,55,0,0
105376,333.333333333333,4,2,1,55,1,0
105376,-125,4,2,1,55,0,0
106729,342.857142857143,4,2,1,55,1,0
106729,-125,4,2,1,55,0,0
109481,342.857142857143,4,2,1,55,1,0
109481,-125,4,2,1,55,0,0
112223,344.827586206897,4,2,1,55,1,0
112740,-125,4,2,1,55,0,0
114981,340.909090909091,4,2,1,55,1,0
114981,-125,4,2,1,55,0,0
120455,342.857142857143,4,2,1,60,1,0
120455,-117.647058823529,4,2,1,60,0,0
131426,-125,4,2,1,65,0,0
136912,-111.111111111111,4,2,1,70,0,0
143761,342.857142857143,4,2,1,80,1,1
143761,-90.9090909090909,4,2,1,80,0,1
162961,341.296928327645,4,2,1,80,1,1
162961,-90.9090909090909,4,2,1,80,0,1
165691,342.857142857143,4,2,1,65,1,0
165691,-111.111111111111,4,2,1,65,0,0
167414,342.857142857143,4,2,1,65,1,0
167414,-111.111111111111,4,2,1,65,0,0
168442,342.857142857143,4,2,1,65,1,0
168442,-166.666666666666,4,2,1,65,0,0
169470,-125,4,2,1,65,0,0
170670,-90.9090909090909,4,2,1,70,0,0
171196,342.857142857143,4,2,1,60,1,0
171881,-117.647058823529,4,2,1,60,0,0
176681,-111.111111111111,4,2,1,65,0,0
180624,-111.111111111111,4,2,1,70,0,0
180957,342.857142857143,4,2,1,70,1,0
181471,-111.111111111111,4,2,1,70,0,0
182157,342.857142857143,4,2,1,80,1,0
182157,-90.9090909090908,4,2,1,80,0,0
206853,342.857142857143,4,2,1,40,1,0
208053,-166.666666666667,4,2,1,40,0,0
217824,-166.666666666667,4,2,1,50,0,0
228795,-90.9090909090909,4,2,1,80,0,1
241472,342.857142857143,4,2,1,80,1,1
241472,-90.9090909090909,4,2,1,80,0,1
242500,342.857142857143,4,2,1,80,1,1
242500,-90.9090909090909,4,2,1,80,0,1
250728,-111.111111111111,4,2,1,65,0,0
253471,-166.666666666667,4,2,1,65,0,0
254500,-125,4,2,1,65,0,0
255700,-90.909090909091,4,2,1,65,0,0
256042,-100,4,2,1,70,0,0

[Colours]
Combo1 : 162,203,225
Combo2 : 210,121,133
Combo3 : 156,140,198
Combo4 : 139,216,156

[HitObjects]
419,329,6275,5,4,2:3:0:0:
419,329,6619,2,0,P|342:319|179:278,1,224,4|0,1:2|2:0,2:0:0:0:
131,319,7476,1,2,2:0:0:0:
0,137,7819,6,0,P|68:137|170:63,1,196,4|0,1:2|2:0,2:0:0:0:
168,64,8472,2,0,P|220:77|254:82,1,80,4|0,0:3|0:0,0:0:0:0:
370,155,8819,1,8,2:3:0:0:
425,98,9007,1,2,1:2:0:0:
476,280,9170,1,2,1:2:0:0:
408,235,9362,6,0,P|357:241|257:258,1,128,4|2,1:2|2:0,2:0:0:0:
86,376,9876,2,0,P|52:322|76:236,1,128,2|2,2:0|2:0,2:0:0:0:
228,66,10582,6,0,P|224:126|218:178,1,96,4|0,1:2|2:0,2:0:0:0:
220,161,10932,2,0,P|183:157|136:151,1,64,8|0,2:0|2:0,2:0:0:0:
34,0,11283,1,8,2:0:0:0:
68,71,11458,2,0,P|61:102|58:151,1,64,2|0,1:2|2:0,2:0:0:0:
239,19,11795,1,0,1:2:0:0:
310,57,11951,1,0,1:2:0:0:
378,22,12120,6,0,P|443:44|437:143,1,160,4|2,1:2|2:0,2:0:0:0:
256,192,12548,12,0,14777,2:0:0:0:
81,342,14862,5,0,1:2:0:0:
81,342,15377,1,2,2:0:0:0:
152,309,15548,2,0,P|203:303|262:306,1,95.9999999999998,2|0,2:0|2:0,2:0:0:0:
328,365,16062,2,0,P|366:337|359:236,1,144,2|2,2:0|2:0,2:0:0:0:
197,59,16920,1,2,2:0:0:0:
499,163,17262,1,2,2:0:0:0:
423,188,17434,2,0,P|353:174|219:137,1,192,2|2,2:0|2:0,2:0:0:0:
75,25,18634,5,2,2:0:0:0:
27,85,18805,2,0,P|29:138|116:162,1,144,2|2,2:0|2:0,2:0:0:0:
330,27,19662,1,2,2:0:0:0:
395,68,20005,2,0,P|426:68|453:70,1,47.9999999999999,2|2,2:0|2:0,2:0:0:0:
496,175,20348,6,0,P|451:194|403:207,1,95.9999999999998,2|2,1:2|2:0,2:0:0:0:
296,304,20862,2,0,P|315:255|322:192,1,95.9999999999998,2|2,2:0|2:0,2:0:0:0:
164,78,21548,2,0,P|211:95|275:107,1,95.9999999999998,2|0,2:0|2:0,2:0:0:0:
148,206,22062,1,2,2:0:0:0:
64,7,22405,1,2,2:0:0:0:
84,269,22748,1,2,2:0:0:0:
227,182,23091,6,0,P|257:179|286:180,2,47.9999999999999,2|0|2,2:0|2:0|2:0,2:0:0:0:
323,96,23605,2,0,P|364:125|427:126,1,95.9999999999998,2|2,2:0|2:0,2:0:0:0:
236,371,24291,6,0,P|244:323|240:260,1,95.9999999999998,2|2,2:0|2:0,2:0:0:0:
180,235,24805,2,0,P|150:242|113:242,1,47.9999999999999,2|2,2:0|2:0,2:0:0:0:
71,286,25148,2,0,P|37:266|32:204,1,95.9999999999998,2|2,2:0|2:0,2:0:0:0:
58,84,25662,5,2,1:2:0:0:
146,139,25834,2,0,P|195:125|264:91,1,112,2|2,1:2|2:0,2:0:0:0:
284,28,26348,1,2,2:0:0:0:
468,177,26691,5,2,2:0:0:0:
468,177,26862,1,0,2:0:0:0:
402,217,27034,2,0,P|391:285|376:341,1,112,2|0,2:0|2:0,2:0:0:0:
167,380,27548,2,0,P|191:326|264:313,1,112,2|0,2:0|2:0,2:0:0:0:
102,237,28405,5,2,2:0:0:0:
38,189,28577,2,0,P|43:153|44:115,1,55.9999999999999,2|2,2:0|2:0,2:0:0:0:
19,29,28920,2,0,P|64:51|102:64,1,83.9999999999999,2|0,2:0|2:0,2:0:0:0:
95,62,29262,2,0,P|133:53|167:49,1,55.9999999999999,2|2,2:0|2:0,2:0:0:0:
283,10,29605,5,0,2:0:0:0:
312,83,29777,2,0,P|296:120|222:131,1,112,2|0,2:0|2:0,2:0:0:0:
154,193,30291,1,2,2:0:0:0:
154,193,30462,2,0,P|171:233|176:291,1,83.9999999999999,2|0,2:0|2:0,2:0:0:0:
176,272,30805,2,0,P|210:267|250:253,1,55.9999999999999,2|0,2:0|2:0,2:0:0:0:
109,365,31148,6,0,P|60:369|-18:391,1,112,2|0,2:0|2:0,2:0:0:0:
33,253,31662,1,2,2:0:0:0:
100,292,31834,1,0,2:0:0:0:
176,272,32177,1,2,2:0:0:0:
194,197,32520,1,2,2:0:0:0:
85,62,32862,6,0,P|56:65|27:67,1,55.9999999999999,2|0,2:0|2:0,2:0:0:0:
29,66,33205,1,2,2:0:0:0:
93,156,33377,2,0,P|138:127|185:82,1,112,2|2,2:0|2:0,2:0:0:0:
188,13,33891,1,0,2:0:0:0:
265,104,34062,6,0,P|294:100|335:100,2,55.9999999999999,2|0|2,2:0|2:0|2:0,2:0:0:0:
395,16,34577,2,0,P|433:27|466:97,1,112,2|2,2:0|2:0,2:0:0:0:
327,202,35262,1,2,2:0:0:0:
456,337,35605,2,0,P|462:304|470:275,1,55.9999999999999,2|0,2:0|2:0,2:0:0:0:
467,282,35948,1,2,2:0:0:0:
371,313,36120,6,0,L|339:323,3,28,2|0|2|0,2:0|2:0|2:0|2:0,2:0:0:0:
279,274,36462,2,0,L|271:302,3,28,2|0|2|0,2:0|2:0|2:0|2:0,2:0:0:0:
203,384,36805,6,0,P|186:307|158:238,1,136,4|0,1:2|1:2,2:0:0:0:
75,281,37320,1,2,2:0:0:0:
12,175,37491,2,0,P|49:192|86:200,1,68.0000000000002,0|2,1:0|2:0,2:0:0:0:
135,65,37834,2,0,P|104:85|78:111,1,68.0000000000002,2|8,1:2|2:3,2:0:0:0:
229,238,38177,6,0,P|249:176|197:110,1,136,0|2,1:2|1:2,2:0:0:0:
150,166,38691,1,0,2:0:0:0:
282,185,38862,2,0,P|320:196|361:205,1,68.0000000000002,0|0,1:2|3:0,2:0:0:0:
347,202,39120,1,0,3:0:0:0:
347,202,39205,1,0,1:2:0:0:
452,138,39377,1,0,2:0:0:0:
327,0,39548,6,0,P|355:63|373:141,1,136,2|0,1:2|1:2,2:0:0:0:
405,327,40062,2,0,P|446:279|507:236,1,136,2|2,2:0|2:0,2:0:0:0:
505,237,40577,1,0,1:2:0:0:
347,239,40748,6,0,P|311:269|215:268,1,136,8|8,2:3|2:0,2:0:0:0:
126,340,41262,2,0,P|164:353|211:381,1,68.0000000000002,0|2,1:2|2:0,2:0:0:0:
26,310,41605,2,0,P|48:276|69:232,1,68.0000000000002,0|2,1:2|2:0,2:0:0:0:
127,126,41948,1,10,2:0:0:0:
1,175,42120,5,2,2:0:0:0:
32,103,42291,2,0,P|80:121|106:206,1,136,6|0,1:2|1:2,2:0:0:0:
226,81,42805,1,2,2:0:0:0:
165,33,42977,2,0,P|124:27|80:12,1,68.0000000000002,0|2,1:2|2:0,2:0:0:0:
295,112,43320,2,0,P|328:116|361:125,1,68.0000000000002,0|8,1:2|2:3,2:0:0:0:
484,206,43662,6,0,P|509:152|494:65,1,136,0|0,1:2|1:2,2:0:0:0:
392,207,44177,1,2,2:0:0:0:
392,207,44348,2,0,P|397:248|412:291,1,68.0000000000002,0|0,1:2|3:0,2:0:0:0:
404,273,44605,1,0,3:0:0:0:
404,273,44691,2,0,P|367:285|323:308,1,68.0000000000002,2|0,1:2|2:0,2:0:0:0:
187,384,45034,6,0,P|187:328|253:267,1,136,2|2,1:2|1:2,2:0:0:0:
136,202,45548,1,0,2:0:0:0:
74,246,45720,2,0,P|48:239|-7:219,1,68.0000000000002,2|0,1:2|2:0,2:0:0:0:
139,103,46062,1,0,1:2:0:0:
11,30,46234,6,0,P|35:76|63:167,1,136,8|0,2:0|1:2,2:0:0:0:
223,34,46748,2,0,P|186:25|144:10,1,68.0000000000002,0|10,1:2|2:0,2:0:0:0:
157,15,47091,1,8,2:0:0:0:
226,143,47262,1,10,2:0:0:0:
293,101,47434,1,2,1:2:0:0:
306,253,47605,1,0,1:0:0:0:
224,216,47777,6,0,P|281:215|406:192,1,180,4|2,1:2|1:2,2:0:0:0:
472,250,48462,1,8,2:0:0:0:
187,370,48805,5,0,2:0:0:0:
135,309,48977,2,0,P|143:262|146:167,1,120,6|10,1:2|2:0,2:0:0:0:
22,128,49491,2,0,P|63:132|104:136,1,60.0000000000001,2|8,2:0|2:0,2:0:0:0:
81,133,49834,1,8,2:3:0:0:
150,105,50005,1,8,2:3:0:0:
222,131,50177,1,4,2:3:0:0:
295,154,50348,1,4,1:3:0:0:
367,122,50520,6,0,P|423:128|511:128,1,120,4|2,1:2|2:0,2:0:0:0:
425,178,51034,1,0,1:2:0:0:
425,178,51205,2,0,P|421:210|423:244,1,60.0000000000001,8|0,2:3|2:0,2:0:0:0:
433,366,51548,1,2,1:2:0:0:
496,324,51720,2,0,P|456:290|380:296,1,120,4|0,1:2|2:0,2:0:0:0:
306,352,52234,1,0,1:2:0:0:
244,296,52405,6,0,P|211:295|174:292,1,60.0000000000001,10|10,2:0|2:0,2:0:0:0:
85,374,52748,1,0,1:2:0:0:
67,236,52920,1,10,2:0:0:0:
17,298,53091,1,2,1:2:0:0:
184,293,53262,6,0,P|197:233|155:157,1,144,4|0,1:2|1:2,2:0:0:0:
67,85,53777,1,0,3:0:0:0:
67,85,53862,1,0,3:0:0:0:
67,85,53948,2,0,P|30:103|-19:121,1,72.0000000000001,2|0,1:2|2:0,2:0:0:0:
215,4,54291,1,2,1:2:0:0:
275,59,54462,6,0,P|254:106|235:221,1,144,2|0,2:0|2:0,2:0:0:0:
438,176,54977,2,0,P|405:162|373:147,1,72.0000000000001,0|2,1:2|2:0,2:0:0:0:
373,147,55320,1,0,1:2:0:0:
335,309,55491,1,0,2:0:0:0:
399,268,55662,1,2,1:2:0:0:
235,196,55834,1,0,2:0:0:0:
258,266,56005,6,0,P|266:197|272:113,1,144,2|0,1:2|1:2,2:0:0:0:
271,122,56520,1,2,2:0:0:0:
153,189,56691,2,0,P|118:184|64:171,1,72.0000000000001,0|2,1:2|2:0,2:0:0:0:
328,280,57034,2,0,P|363:275|417:262,1,72.0000000000001,0|2,1:2|2:0,2:0:0:0:
150,384,57377,5,10,2:0:0:0:
90,297,57548,1,8,2:0:0:0:
165,222,57720,1,10,2:0:0:0:
254,267,57891,1,8,2:0:0:0:
412,130,58062,6,0,P|370:144|320:154,1,72.0000000000001,10|8,2:0|2:0,2:0:0:0:
243,41,58405,1,10,2:0:0:0:
165,222,58577,1,10,2:0:0:0:
33,125,59434,5,2,2:0:0:0:
386,28,59777,1,4,2:3:0:0:
276,286,60120,6,0,P|260:217|219:104,1,176,4|8,1:2|2:0,2:0:0:0:
131,210,60634,1,0,3:0:0:0:
131,210,60720,1,0,3:0:0:0:
131,210,60805,2,0,P|85:201|33:184,1,88,0|0,1:2|1:2,2:0:0:0:
90,125,61148,1,10,2:0:0:0:
13,263,61320,6,0,P|40:324|146:349,1,176,2|0,1:2|1:2,2:0:0:0:
265,384,61823,2,0,P|271:344|299:271,1,88,10|0,2:0|2:0,2:0:0:0:
418,183,62165,2,0,P|379:202|314:220,1,88,2|0,1:2|1:2,2:0:0:0:
225,175,62508,1,10,2:0:0:0:
316,97,62680,1,0,2:0:0:0:
229,20,62851,6,0,P|161:20|110:116,1,176,4|8,1:2|2:0,2:0:0:0:
11,186,63365,1,2,3:0:0:0:
11,186,63451,1,0,3:0:0:0:
11,186,63536,2,0,P|49:204|108:221,1,88,2|0,1:2|1:2,2:0:0:0:
251,162,63879,1,10,2:0:0:0:
208,346,64051,6,0,P|197:253|176:172,1,176,2|0,1:2|1:2,2:0:0:0:
356,243,64565,2,0,P|365:287|379:342,1,88,10|0,2:0|2:0,2:0:0:0:
456,86,64908,1,2,1:2:0:0:
332,149,65079,1,0,1:2:0:0:
248,52,65251,2,0,P|204:43|155:27,1,88,10|0,2:0|2:0,2:0:0:0:
20,186,65593,6,0,P|96:209|131:312,1,176,4|8,1:2|2:0,2:0:0:0:
253,384,66108,2,0,P|255:341|267:275,1,88,2|0,2:0|1:2,2:0:0:0:
413,199,66451,2,0,P|411:242|399:308,1,88,0|10,1:2|2:0,2:0:0:0:
404,286,66793,1,2,1:2:0:0:
195,166,66965,6,0,B|282:178|299:127|382:138,1,176,2|10,2:0|2:0,2:0:0:0:
366,136,67479,1,0,2:0:0:0:
456,23,67651,2,0,P|406:42|351:53,1,88,2|0,1:2|1:2,2:0:0:0:
266,260,67993,2,0,P|280:211|303:161,1,88,10|0,2:0|2:0,2:0:0:0:
193,22,68336,6,0,P|111:22|54:98,1,176,2|12,1:2|2:0,2:0:0:0:
152,212,68851,2,0,L|143:255,2,44,0|0|2,3:0|3:0|1:2,3:0:0:0:
79,179,69193,1,0,1:2:0:0:
266,260,69365,1,10,2:0:0:0:
44,357,69536,6,0,P|139:335|240:327,1,176,4|0,1:2|1:2,2:0:0:0:
381,206,70051,1,10,2:0:0:0:
195,47,70222,6,0,P|177:113|125:219,1,176,4|0,1:2|1:0,2:0:0:0:
130,209,70736,1,10,2:0:0:0:
403,288,70908,5,8,2:0:0:0:
403,288,70993,1,8,2:0:0:0:
403,288,71079,2,0,P|352:248|281:133,1,176,4|8,1:2|2:0,2:0:0:0:
128,332,71593,1,0,3:0:0:0:
128,332,71679,1,0,3:0:0:0:
128,332,71765,2,0,P|174:325|226:326,1,88,0|0,1:2|1:2,2:0:0:0:
125,195,72108,1,10,2:0:0:0:
59,147,72279,6,0,P|13:211|39:308,1,176,2|0,1:2|1:2,2:0:0:0:
210,197,72793,2,0,P|212:153|222:111,1,88,10|0,2:0|2:0,2:0:0:0:
221,111,73136,1,2,1:2:0:0:
345,187,73308,1,0,1:2:0:0:
404,50,73479,2,0,P|351:55|298:54,1,88,10|0,2:0|2:0,2:0:0:0:
18,83,73822,6,0,B|80:69|134:107|146:175,1,176,2|10,1:2|2:0,2:0:0:0:
51,309,74336,1,2,3:2:0:0:
51,309,74422,1,0,3:2:0:0:
51,309,74508,2,0,P|33:266|29:194,1,88,0|2,1:2|1:2,2:0:0:0:
237,276,74851,1,8,2:0:0:0:
134,357,75022,6,0,P|142:285|196:182,1,176,4|0,1:2|1:2,2:0:0:0:
372,330,75536,2,0,P|331:334|276:356,1,88,10|0,2:0|2:0,2:0:0:0:
370,171,75879,2,0,P|402:202|456:227,1,88,2|0,1:2|1:2,2:0:0:0:
440,222,76222,1,10,2:0:0:0:
275,167,76393,5,8,2:0:0:0:
275,167,76479,1,8,2:0:0:0:
275,167,76565,2,0,P|268:126|244:57,1,88,6|0,1:2|1:2,2:0:0:0:
94,0,76908,2,0,P|101:41|125:110,1,88,10|0,2:0|2:0,2:0:0:0:
114,85,77251,1,2,1:2:0:0:
43,220,77422,1,0,1:2:0:0:
0,145,77593,1,10,2:0:0:0:
174,184,77765,6,0,P|176:264|84:308,1,176,4|0,1:2|1:2,2:0:0:0:
212,373,78279,2,0,P|246:372|307:357,1,88,10|0,2:0|3:0,2:0:0:0:
298,360,78536,1,0,3:0:0:0:
298,360,78622,1,2,1:2:0:0:
361,290,78793,1,0,1:2:0:0:
338,198,78965,1,10,2:0:0:0:
257,162,79136,1,0,2:0:0:0:
445,237,79308,6,0,P|377:241|256:267,1,176,4|8,1:2|2:0,2:0:0:0:
271,262,79822,1,2,1:2:0:0:
170,60,79993,2,0,P|155:101|144:144,1,88,8|2,2:0|1:2,2:0:0:0:
304,63,80336,1,0,1:2:0:0:
93,253,80508,6,0,B|115:193|186:162|258:203,1,176,4|0,1:2|1:2,2:0:0:0:
336,361,81022,2,0,P|290:352|226:351,1,88,10|0,2:0|2:0,2:0:0:0:
337,202,81365,1,0,1:2:0:0:
488,285,81536,1,0,1:2:0:0:
449,138,81708,1,8,2:0:0:0:
449,138,81879,1,0,1:2:0:0:
239,271,82051,6,0,P|289:273|402:301,1,144,4|0,1:2|2:0,2:0:0:0:
380,293,82565,1,2,1:2:0:0:
210,132,82736,6,0,P|181:194|122:270,1,144,10|0,2:0|2:0,2:0:0:0:
383,140,83251,6,0,P|363:75|278:56,1,144,4|8,1:2|2:0,2:0:0:0:
226,83,83765,1,2,2:0:0:0:
106,34,83936,2,0,P|140:31|197:13,1,72.0000000000001,8|0,2:3|2:0,2:0:0:0:
70,106,84279,2,0,P|36:109|-21:127,1,72.0000000000001,0|8,1:0|2:0,2:0:0:0:
0,118,84622,1,8,1:3:0:0:
137,257,84793,6,0,P|151:188|188:96,1,144.000000000001,4|0,1:2|2:0,2:0:0:0:
250,101,85479,1,2,2:0:0:0:
456,299,85822,6,0,P|421:304|376:311,1,64,2|2,2:0|2:0,2:0:0:0:
267,369,86165,1,10,2:0:0:0:
332,159,86336,1,10,2:0:0:0:
194,280,86508,1,10,2:0:0:0:
398,233,86679,1,10,2:0:0:0:
398,233,86765,1,8,2:0:0:0:
398,233,86851,1,8,2:0:0:0:
212,198,87022,6,0,P|166:187|28:137,1,176,4|2,1:2|2:0,2:0:0:0:
83,307,87548,1,4,1:2:0:0:
83,307,88062,5,2,2:0:0:0:
238,375,88405,1,2,2:0:0:0:
371,275,88748,1,2,2:0:0:0:
451,113,89433,5,0,2:0:0:0:
451,113,89605,2,0,P|374:102|301:74,1,144.000000000001,2|0,2:0|2:0,2:0:0:0:
185,10,90290,5,2,2:0:0:0:
105,175,90633,1,2,2:0:0:0:
68,104,90805,1,2,2:0:0:0:
321,197,91148,1,2,2:0:0:0:
8,363,91490,6,0,P|31:305|47:226,1,144.000000000001,2|2,2:0|2:0,2:0:0:0:
286,363,92348,1,2,2:0:0:0:
208,108,92690,1,2,1:2:0:0:
445,240,93033,6,0,P|441:273|431:299,1,48.0000000000002,2|0,1:2|2:0,2:0:0:0:
364,305,93376,1,2,2:0:0:0:
300,260,93548,1,2,2:0:0:0:
224,281,93890,1,2,2:0:0:0:
195,354,94233,1,2,2:0:0:0:
41,67,95776,5,2,2:0:0:0:
65,141,95948,1,2,2:0:0:0:
138,166,96119,1,2,2:0:0:0:
203,120,96290,1,2,2:0:0:0:
425,277,96633,1,2,2:0:0:0:
474,217,96805,2,0,P|465:187|458:150,1,48.0000000000002,2|2,2:0|2:0,2:0:0:0:
282,296,97148,5,2,2:0:0:0:
347,338,97319,1,2,2:0:0:0:
91,258,97662,5,2,2:0:0:0:
145,207,97833,2,0,L|181:222,3,24.0000000000001,2|2|2|2,2:0|2:0|2:0|2:0,2:0:0:0:
110,140,98176,2,0,L|143:123,3,24.0000000000001,2|2|2|2,2:0|2:0|2:0|2:0,2:0:0:0:
62,4,98519,6,0,P|44:66|20:124,1,128,2|0,1:2|1:2,2:0:0:0:
135,47,99033,1,0,2:0:0:0:
206,80,99205,2,0,P|241:70|288:59,1,64,2|0,1:2|2:0,2:0:0:0:
374,7,99548,2,0,P|360:35|346:70,1,64,2|0,1:2|2:0,2:0:0:0:
490,188,99890,6,0,B|466:141|424:125|357:142,1,128,2|2,1:2|1:2,2:0:0:0:
382,136,100405,1,0,2:0:0:0:
311,231,100576,2,0,P|347:230|399:232,1,64,2|0,1:2|2:0,2:0:0:0:
282,147,100919,1,2,1:2:0:0:
222,310,101090,6,0,P|207:234|180:171,1,128,0|0,2:0|2:0,2:0:0:0:
64,261,101605,2,0,P|94:272|139:296,1,64,2|2,1:2|2:0,2:0:0:0:
197,369,101948,2,0,P|209:336|232:291,1,64,0|2,1:2|2:0,2:0:0:0:
396,250,102290,1,0,1:2:0:0:
446,311,102462,6,0,P|391:364|320:348,1,128,2|0,2:0|2:0,2:0:0:0:
271,211,102976,2,0,P|304:203|353:182,1,64,0|0,1:2|2:0,2:0:0:0:
512,153,103319,2,0,P|479:161|430:182,1,64,2|0,1:2|3:0,2:0:0:0:
450,171,103576,1,0,3:0:0:0:
450,171,103662,2,0,P|435:133|420:101,1,64,0|0,1:2|2:0,2:0:0:0:
311,9,104005,6,0,P|285:46|284:139,2,128,2|2|0,1:2|1:2|1:2,2:0:0:0:
203,67,104862,1,2,2:0:0:0:
203,67,105033,2,0,P|167:66|128:57,1,64,0|2,1:2|2:0,2:0:0:0:
85,170,105376,6,0,P|153:176|225:194,1,128,0|2,1:2|1:2,2:0:0:0:
288,255,105876,1,0,3:0:0:0:
288,255,105959,1,0,3:0:0:0:
288,255,106042,2,0,P|282:286|265:340,1,64,2|0,1:2|2:0,2:0:0:0:
139,383,106376,2,0,P|163:363|199:343,1,64,2|0,1:2|2:0,2:0:0:0:
468,289,106729,6,0,P|419:286|366:221,1,128,2|0,1:2|1:2,2:0:0:0:
471,136,107243,1,2,2:0:0:0:
411,89,107414,2,0,P|410:52|403:18,1,64,0|2,1:2|2:0,2:0:0:0:
300,107,107757,2,0,P|296:155|281:200,1,96,0|0,1:2|2:0,2:0:0:0:
280,200,108100,1,2,1:2:0:0:
208,184,108271,1,2,2:0:0:0:
147,229,108443,1,2,1:2:0:0:
152,308,108614,1,2,2:0:0:0:
80,339,108786,6,0,L|47:329,3,32,2|2|2|2,1:2|2:0|2:0|2:0,2:0:0:0:
40,247,109129,2,0,L|-2:266,3,32,2|2|2|2,1:2|2:0|2:0|2:0,2:0:0:0:
0,121,109481,6,0,P|57:149|122:169,1,128,4|0,1:2|1:2,2:0:0:0:
273,110,109995,1,2,2:0:0:0:
182,63,110166,2,0,P|190:98|191:142,1,64,0|2,1:2|2:0,2:0:0:0:
320,253,110509,2,0,P|312:218|311:174,1,64,0|2,1:2|2:0,2:0:0:0:
153,269,110852,6,0,P|178:317|256:341,1,128,0|2,1:2|1:2,2:0:0:0:
244,342,111538,2,0,P|211:354|180:362,1,64,0|0,1:2|2:0,2:0:0:0:
54,299,111881,2,0,P|67:259|88:217,1,64,0|2,1:2|2:0,2:0:0:0:
172,150,112223,5,2,1:2:0:0:
193,167,112395,1,2,2:0:0:0:
174,182,112567,1,2,1:2:0:0:
64,72,112740,2,0,P|114:59|179:34,1,96,2|0,2:0|2:0,2:0:0:0:
155,44,113085,1,2,2:0:0:0:
257,102,113257,2,0,P|290:109|329:122,1,64,0|2,1:2|2:0,2:0:0:0:
507,149,113602,6,0,P|497:88|444:58,1,128,2|0,1:2|1:2,2:0:0:0:
395,151,114119,1,2,2:0:0:0:
395,151,114291,2,0,P|401:189|400:235,1,64,0|0,1:2|2:0,2:0:0:0:
473,348,114636,2,0,P|414:318|364:312,1,96,2|0,1:2|2:0,2:0:0:0:
385,312,114981,6,0,P|338:319|250:326,1,128,2|0,1:2|1:2,2:0:0:0:
153,384,115492,1,0,2:0:0:0:
153,384,115662,2,0,P|160:345|163:293,1,64,2|0,1:2|2:0,2:0:0:0:
251,222,116003,2,0,P|217:234|176:244,1,64,0|2,1:2|2:0,2:0:0:0:
56,293,116344,6,0,P|19:244|36:165,1,128,0|0,1:2|1:2,2:0:0:0:
80,52,116856,1,2,2:0:0:0:
153,81,117026,2,0,P|160:116|162:160,1,64,0|2,1:2|2:0,2:0:0:0:
249,83,117367,1,2,1:2:0:0:
358,140,117537,6,0,P|344:79|338:-5,1,128,0|0,2:0|2:0,2:0:0:0:
512,78,118049,2,0,P|481:83|445:94,1,64,0|2,1:2|2:0,2:0:0:0:
269,264,118390,6,0,P|331:252|393:234,1,128,0|0,1:2|1:2,2:0:0:0:
196,118,118901,1,2,2:0:0:0:
144,176,119071,2,0,P|155:214|171:252,1,64,0|0,1:2|1:2,2:0:0:0:
67,375,119412,1,8,2:0:0:0:
26,242,119583,1,0,2:0:0:0:
139,321,119753,2,0,P|175:316|226:313,1,64,2|10,1:2|2:0,2:0:0:0:
202,313,120009,1,8,2:0:0:0:
202,313,120094,1,10,2:0:0:0:
300,250,120265,1,0,1:2:0:0:
412,329,120455,6,0,P|404:270|401:169,1,136,4|0,1:2|1:2,2:0:0:0:
440,91,120969,1,2,2:0:0:0:
335,131,121140,2,0,P|306:134|249:135,1,68.0000000000002,0|2,1:2|2:0,2:0:0:0:
133,215,121483,2,0,P|166:213|200:210,1,68.0000000000002,0|8,1:2|2:0,2:0:0:0:
200,210,121826,1,2,1:2:0:0:
53,146,121997,1,8,2:3:0:0:
53,146,122169,6,0,P|28:193|50:298,1,136,2|0,1:2|1:2,2:0:0:0:
166,346,122683,1,2,3:0:0:0:
166,346,122769,1,0,3:0:0:0:
166,346,122855,2,0,P|154:309|145:257,1,68.0000000000002,0|0,1:2|2:0,2:0:0:0:
278,213,123197,6,0,P|297:276|308:355,1,136,2|0,1:2|1:2,2:0:0:0:
395,242,123712,1,2,2:0:0:0:
447,297,123883,2,0,P|479:285|512:278,1,68.0000000000002,2|0,1:2|2:0,2:0:0:0:
479,117,124226,5,0,1:0:0:0:
408,153,124397,2,0,B|359:173|305:155|281:98,1,136,10|0,2:0|1:2,2:0:0:0:
289,114,124912,1,0,1:2:0:0:
222,29,125083,1,2,2:0:0:0:
164,80,125255,2,0,P|128:92|85:101,1,68.0000000000002,8|2,2:0|2:0,2:0:0:0:
98,98,125597,1,2,1:2:0:0:
48,257,125769,5,8,2:0:0:0:
27,182,125940,2,0,P|88:184|154:237,1,136,4|0,1:2|1:2,2:0:0:0:
220,308,126455,1,2,2:0:0:0:
164,359,126626,2,0,P|123:365|79:380,1,68.0000000000002,0|2,1:2|2:0,2:0:0:0:
260,219,126969,2,0,P|279:247|320:282,1,68.0000000000002,0|8,1:2|2:3,2:0:0:0:
303,270,127312,1,0,1:2:0:0:
446,294,127483,1,8,2:0:0:0:
324,380,127655,1,8,1:3:0:0:
391,238,127826,5,0,1:0:0:0:
391,238,127997,2,0,P|396:197|411:154,1,68.0000000000002,2|0,1:2|3:0,2:0:0:0:
403,171,128255,1,0,3:0:0:0:
403,171,128340,2,0,P|366:159|322:136,1,68.0000000000002,2|0,1:2|2:0,2:0:0:0:
217,17,128683,6,0,P|229:72|242:169,1,136,2|0,1:2|1:2,2:0:0:0:
140,182,129197,1,0,2:0:0:0:
75,138,129369,2,0,P|42:149|10:158,1,68.0000000000002,10|0,2:0|2:0,2:0:0:0:
138,281,129712,1,0,1:2:0:0:
23,370,129883,6,0,P|23:318|75:233,1,136,10|2,2:0|1:2,2:0:0:0:
222,350,130397,2,0,P|185:359|143:374,1,68.0000000000002,0|10,1:0|2:0,2:0:0:0:
156,369,130740,1,8,2:0:0:0:
217,248,130912,1,8,2:3:0:0:
326,303,131083,1,10,2:0:0:0:
382,204,131255,1,0,1:0:0:0:
293,225,131426,6,0,P|227:207|103:160,1,192,4|2,1:2|1:2,2:0:0:0:
69,13,132112,1,8,2:0:0:0:
0,49,132283,1,2,2:0:0:0:
31,121,132455,1,0,2:0:0:0:
207,157,132626,6,0,P|196:100|187:10,1,128,4|8,1:2|2:0,2:0:0:0:
339,59,133140,2,0,P|326:93|318:135,1,64,2|8,1:2|2:0,2:0:0:0:
319,119,133397,1,8,2:0:0:0:
319,119,133483,1,0,1:2:0:0:
444,81,133655,1,8,2:0:0:0:
470,166,133826,2,0,P|430:154|392:148,1,64,10|0,2:0|1:2,2:0:0:0:
273,332,134169,6,0,P|333:310|396:299,1,128,4|0,1:2|2:0,2:0:0:0:
227,243,134683,1,0,1:2:0:0:
281,184,134855,2,0,P|276:149|268:111,1,64,10|0,2:0|2:0,2:0:0:0:
270,120,135197,1,2,1:2:0:0:
162,186,135369,6,0,B|123:211|109:267|149:320,1,128,4|0,1:2|1:2,2:0:0:0:
234,350,135883,2,0,P|267:344|314:344,1,64,2|8,1:2|2:0,2:0:0:0:
297,342,136140,1,8,2:0:0:0:
297,342,136226,1,10,2:0:0:0:
376,269,136397,1,0,1:2:0:0:
304,199,136569,1,10,2:0:0:0:
304,199,136912,6,0,P|300:145|268:34,1,144,4|0,1:2|1:2,2:0:0:0:
204,140,137426,1,0,2:0:0:0:
119,102,137597,2,0,P|82:117|34:132,1,72.0000000000001,2|0,1:2|2:0,2:0:0:0:
51,127,137940,1,2,1:2:0:0:
114,325,138112,5,0,3:0:0:0:
114,325,138197,1,0,3:0:0:0:
114,325,138283,2,0,P|118:277|140:172,1,144,2|2,1:2|1:2,2:0:0:0:
136,183,138797,1,0,2:0:0:0:
254,281,138969,6,0,P|247:313|239:371,1,72.0000000000001,10|0,2:0|1:2,2:0:0:0:
241,351,139312,1,2,1:2:0:0:
163,259,139483,1,0,1:2:0:0:
249,192,139655,6,0,P|305:213|394:240,1,144,4|0,1:2|1:2,2:0:0:0:
385,237,140169,1,2,2:0:0:0:
325,105,140340,1,8,2:0:0:0:
459,49,140512,1,8,2:0:0:0:
512,177,140683,1,0,1:2:0:0:
420,152,140855,6,0,P|386:165|352:176,1,72.0000000000001,12|0,2:0|2:0,2:0:0:0:
292,87,141197,1,8,2:0:0:0:
209,24,141369,1,10,2:0:0:0:
116,49,141540,1,8,2:0:0:0:
51,131,141712,6,0,P|64:168|76:224,1,72.0000000000001,10|8,2:0|2:0,2:0:0:0:
1,309,142055,1,10,2:0:0:0:
198,207,142226,1,10,2:0:0:0:
198,207,143083,5,2,2:0:0:0:
494,334,143340,1,0,1:0:0:0:
494,334,143426,1,12,2:0:0:0:
363,175,143761,6,0,P|340:237|326:351,1,176,4|8,1:2|2:0,2:0:0:0:
431,259,144275,1,0,2:0:0:0:
290,267,144446,1,0,1:2:0:0:
290,267,144618,2,0,P|242:256|192:236,1,88,0|10,1:2|2:0,2:0:0:0:
139,110,144961,6,0,P|65:106|6:195,1,176,2|0,1:2|1:2,2:0:0:0:
234,142,145475,2,0,P|234:96|249:26,1,88,10|0,2:0|2:0,2:0:0:0:
240,54,145818,1,2,1:2:0:0:
367,154,145989,1,0,1:2:0:0:
427,27,146161,2,0,P|382:32|328:32,1,88,10|0,2:0|2:0,2:0:0:0:
298,275,146503,6,0,P|365:257|479:258,1,176,4|8,1:2|2:0,2:0:0:0:
471,256,147018,1,2,2:0:0:0:
414,102,147189,2,0,P|389:127|359:175,1,88,2|0,1:2|1:2,2:0:0:0:
360,171,147532,1,8,2:0:0:0:
241,327,147703,6,0,P|254:228|250:139,1,176,2|0,1:2|1:2,2:0:0:0:
77,241,148218,2,0,P|125:244|185:260,1,88,10|0,2:0|2:0,2:0:0:0:
113,65,148561,2,0,P|82:98|37:130,1,88,2|0,1:2|1:2,2:0:0:0:
47,123,148903,1,10,2:0:0:0:
239,230,149075,1,2,2:0:0:0:
240,30,149246,6,0,P|173:59|173:181,1,176,4|8,1:2|2:0,2:0:0:0:
404,134,149761,2,0,P|359:122|292:96,1,88,2|0,2:0|1:2,2:0:0:0:
245,262,150103,2,0,P|287:273|329:287,1,88,0|10,1:2|2:0,2:0:0:0:
329,287,150446,1,2,1:2:0:0:
491,187,150618,1,0,2:0:0:0:
427,371,150789,5,0,1:2:0:0:
427,371,150961,2,0,B|367:338|347:276|398:198,1,176,10|2,2:0|1:2,2:0:0:0:
247,163,151475,1,0,1:2:0:0:
189,213,151646,2,0,P|193:265|189:338,1,88,10|0,2:0|2:0,2:0:0:0:
0,123,151989,6,0,P|73:121|177:104,1,176,2|12,1:2|2:0,2:0:0:0:
174,104,152503,1,0,2:0:0:0:
301,7,152675,2,0,P|284:47|269:117,1,88,2|8,1:2|2:0,2:0:0:0:
272,90,152932,1,8,2:0:0:0:
272,90,153018,1,10,2:0:0:0:
469,226,153189,6,0,P|379:208|273:197,1,176,4|0,1:2|1:2,2:0:0:0:
295,198,153703,1,8,2:0:0:0:
400,125,153875,1,4,1:2:0:0:
361,282,154046,5,0,1:2:0:0:
313,118,154218,1,0,1:2:0:0:
145,246,154389,5,8,2:0:0:0:
295,198,154561,1,8,2:0:0:0:
224,360,154732,6,0,P|225:283|213:167,1,176,4|8,1:2|2:0,2:0:0:0:
50,88,155246,2,0,P|90:105|154:127,1,88,0|2,2:0|1:2,2:0:0:0:
318,60,155589,1,0,1:2:0:0:
183,9,155761,1,10,2:0:0:0:
331,214,155932,6,0,P|344:123|370:23,1,176,2|0,1:2|1:2,2:0:0:0:
504,191,156446,2,0,P|452:202|389:235,1,88,10|0,2:0|2:0,2:0:0:0:
212,299,156789,2,0,B|229:357|282:378|320:362,1,132,2|0,1:2|2:0,2:0:0:0:
311,364,157132,2,0,P|309:313|311:262,1,88,10|0,2:0|2:0,2:0:0:0:
336,123,157475,6,0,B|319:192|240:214|170:177,1,176,2|8,1:2|2:0,2:0:0:0:
125,282,157989,1,2,2:0:0:0:
64,231,158161,2,0,P|54:180|32:120,1,88,0|2,1:2|1:2,2:0:0:0:
42,145,158503,1,8,2:0:0:0:
25,337,158675,6,0,B|80:305|160:329|184:408,1,176,4|0,1:2|1:2,2:0:0:0:
267,285,159189,2,0,P|316:292|391:298,1,88,10|0,2:0|3:0,2:0:0:0:
354,295,159446,1,0,3:0:0:0:
354,295,159532,1,2,1:2:0:0:
462,341,159703,1,0,1:2:0:0:
512,244,159875,1,10,2:0:0:0:
411,191,160046,1,8,2:0:0:0:
321,218,160218,6,0,P|277:211|233:207,1,88,4|0,1:2|1:2,2:0:0:0:
20,215,160561,2,0,P|60:231|99:253,1,88,8|2,2:0|2:0,2:0:0:0:
122,48,160903,2,0,P|131:88|132:152,1,88,0|0,1:2|1:2,2:0:0:0:
202,287,161246,1,10,2:0:0:0:
321,56,161418,6,0,P|299:112|225:215,1,176,4|0,1:2|1:2,2:0:0:0:
469,192,161932,2,0,P|422:179|372:155,1,88,10|0,2:0|2:0,2:0:0:0:
386,163,162275,1,2,1:2:0:0:
388,313,162446,1,0,1:2:0:0:
388,313,162618,1,10,2:0:0:0:
388,313,162789,1,2,2:0:0:0:
284,211,162961,6,0,P|286:250|279:319,1,88,4|0,1:2|1:0,2:0:0:0:
282,298,163302,1,8,2:0:0:0:
175,353,163472,1,2,1:2:0:0:
90,235,163643,2,0,P|132:241|196:247,1,88,8|2,2:0|1:2,2:0:0:0:
177,245,163984,1,8,2:0:0:0:
307,71,164155,6,0,B|278:26|210:-1|135:43,1,176,4|0,1:2|1:2,2:0:0:0:
263,249,164667,2,0,P|264:197|274:138,1,88,10|0,2:0|2:0,2:0:0:0:
466,223,165008,2,0,P|426:242|361:261,1,88,0|0,1:2|1:0,2:0:0:0:
384,255,165264,1,8,2:3:0:0:
384,255,165350,1,4,2:3:0:0:
247,373,165520,5,0,1:0:0:0:
189,322,165691,2,0,P|224:283|317:293,1,144,4|0,1:2|2:0,2:0:0:0:
309,287,166205,1,2,1:2:0:0:
392,164,166376,5,10,2:0:0:0:
318,189,166548,1,8,2:3:0:0:
255,145,166719,1,4,2:3:0:0:
252,67,166891,2,0,P|315:66|398:58,1,144,4|8,1:2|2:0,2:0:0:0:
171,7,167414,6,0,P|171:46|160:93,1,72.0000000000001,2|10,2:0|2:0,2:0:0:0:
164,78,167756,1,0,1:2:0:0:
64,32,167928,1,8,2:3:0:0:
64,32,168099,1,4,2:3:0:0:
21,140,168271,1,0,1:2:0:0:
21,140,168442,6,0,P|85:159|177:180,1,144.000000000001,4|0,1:2|2:0,2:0:0:0:
224,219,169127,1,2,2:0:0:0:
441,40,169470,6,0,P|432:77|423:133,1,64,2|2,2:0|2:0,2:0:0:0:
373,282,169813,1,10,2:0:0:0:
333,77,169984,1,10,2:0:0:0:
495,203,170156,1,10,2:0:0:0:
274,168,170327,1,10,2:0:0:0:
274,168,170413,1,8,2:0:0:0:
274,168,170499,1,8,2:0:0:0:
255,278,170670,6,0,P|339:262|436:233,1,176,6|0,1:2|2:0,2:0:0:0:
313,377,171196,1,4,1:2:0:0:
313,377,171710,5,0,1:2:0:0:
222,352,171881,2,0,P|176:363|144:368,2,68.0000000000002,8|2|2,2:0|2:0|2:0,2:0:0:0:
24,228,172396,6,0,P|52:262|150:277,1,136,2|4,1:2|2:3,2:0:0:0:
195,229,172910,1,0,1:0:0:0:
195,229,173081,1,8,2:0:0:0:
150,97,173253,1,8,2:0:0:0:
284,164,173424,2,0,P|247:153|193:142,1,68.0000000000002,8|4,2:3|2:3,2:0:0:0:
119,184,173767,1,0,1:0:0:0:
76,23,173938,5,6,1:2:0:0:
13,66,174110,2,0,P|24:112|37:209,1,136,10|0,2:0|1:2,2:0:0:0:
8,301,174624,1,10,2:0:0:0:
80,274,174796,1,2,2:0:0:0:
151,308,174967,1,2,2:0:0:0:
201,377,175138,6,0,B|266:396|299:380|339:336,1,136,6|8,1:2|2:0,2:0:0:0:
431,280,175653,2,0,P|397:275|354:262,1,68.0000000000002,0|8,1:0|2:0,2:0:0:0:
270,293,175996,1,8,2:3:0:0:
292,182,176167,2,8,L|303:232,2,34.0000000000001,8|8|8,2:0|2:0|2:0,2:0:0:0:
182,278,176510,5,8,2:0:0:0:
182,278,176596,1,8,2:0:0:0:
182,278,176681,2,0,P|177:223|153:123,1,144,4|0,1:2|1:2,2:0:0:0:
157,136,177196,1,0,2:0:0:0:
51,35,177367,2,0,P|92:51|125:62,1,72.0000000000001,2|2,1:2|2:0,2:0:0:0:
266,17,177710,5,8,2:3:0:0:
316,74,177881,2,0,P|323:131|270:214,1,144,2|0,2:0|2:0,2:0:0:0:
461,171,178396,2,0,P|446:139|438:99,1,72.0000000000001,0|2,1:2|2:0,2:0:0:0:
362,235,178738,2,0,P|405:245|446:265,1,72.0000000000001,0|0,1:2|2:0,2:0:0:0:
267,384,179081,6,0,P|255:330|212:224,1,144,8|2,2:0|1:2,2:0:0:0:
64,295,179596,2,0,P|107:310|140:318,1,72.0000000000001,0|0,2:0|1:2,2:0:0:0:
132,316,179938,1,0,2:0:0:0:
283,208,180110,6,0,B|229:231|171:215|146:144,1,144,2|0,1:3|1:2,2:0:0:0:
247,54,180624,2,0,P|261:91|269:129,1,72.0000000000001,8|0,2:0|1:2,2:0:0:0:
453,83,180957,1,8,2:0:0:0:
343,31,181128,1,8,2:0:0:0:
415,187,181299,1,2,1:2:0:0:
415,187,181471,2,0,P|449:174|502:160,1,72.0000000000001,2|2,1:2|1:2,2:0:0:0:
350,367,181814,5,8,2:0:0:0:
350,367,181899,1,8,2:0:0:0:
350,367,181985,1,8,2:0:0:0:
350,367,182071,1,8,2:0:0:0:
350,367,182157,2,0,P|339:301|310:181,1,176,4|8,1:2|2:0,2:0:0:0:
428,295,182671,1,2,2:0:0:0:
243,253,182842,1,2,1:2:0:0:
184,308,183014,2,0,P|141:316|100:331,1,88.0000000000001,2|8,1:2|2:0,2:0:0:0:
119,111,183357,6,0,P|43:116|1:208,1,176,2|2,1:2|1:2,2:0:0:0:
192,52,183871,2,0,P|234:59|314:60,1,88.0000000000001,8|2,2:0|2:0,2:0:0:0:
489,107,184214,1,0,1:2:0:0:
357,21,184385,1,0,1:2:0:0:
374,204,184557,2,0,P|377:162|389:107,1,88.0000000000001,10|2,2:0|2:0,2:0:0:0:
492,305,184899,6,0,P|403:321|313:358,1,176,2|10,1:2|2:0,2:0:0:0:
202,221,185414,2,0,L|272:232,2,44.0000000000001,2|2|2,2:0|2:0|1:2,2:0:0:0:
92,194,185757,1,2,1:2:0:0:
196,356,185928,1,8,2:0:0:0:
270,300,186099,6,0,P|265:217|250:107,1,176,4|0,1:2|1:2,2:0:0:0:
98,12,186614,2,0,P|138:27|209:45,1,88.0000000000001,8|2,2:0|2:0,2:0:0:0:
353,124,186957,1,0,1:2:0:0:
353,124,187128,1,2,1:2:0:0:
272,31,187299,1,10,2:0:0:0:
161,111,187471,1,8,2:0:0:0:
217,223,187642,6,0,P|262:211|325:191,1,88.0000000000001,6|2,1:2|1:2,2:0:0:0:
446,131,187985,1,8,2:0:0:0:
335,327,188157,2,0,P|360:273|374:218,1,88.0000000000001,2|2,2:0|1:2,2:0:0:0:
311,67,188499,1,2,1:2:0:0:
512,194,188671,2,0,P|437:171|346:138,1,176,10|2,2:0|2:0,2:0:0:0:
182,15,189185,6,0,P|201:61|217:119,1,88.0000000000001,2|10,1:2|2:0,2:0:0:0:
211,251,189528,1,2,2:0:0:0:
51,141,189699,2,0,P|106:162|167:174,1,88.0000000000001,0|2,1:2|1:2,2:0:0:0:
305,234,190042,1,10,2:0:0:0:
212,97,190214,1,2,2:0:0:0:
100,260,190385,6,0,B|79:310|129:397|212:372,1,176,6|10,1:2|2:0,2:0:0:0:
374,313,190899,1,2,3:2:0:0:
374,313,190985,1,0,3:2:0:0:
374,313,191071,2,0,P|326:307|259:296,1,88.0000000000001,0|2,1:2|1:2,2:0:0:0:
97,347,191414,1,8,2:0:0:0:
242,111,191585,6,0,P|226:172|212:292,1,176,6|2,1:2|1:2,2:0:0:0:
212,283,192099,1,8,2:0:0:0:
316,196,192271,1,2,2:0:0:0:
180,160,192442,2,0,P|128:176|83:186,1,88.0000000000001,0|10,1:2|2:0,2:0:0:0:
214,17,192785,5,8,2:0:0:0:
214,17,192871,1,8,2:0:0:0:
214,17,192957,1,8,2:0:0:0:
214,17,193042,1,8,2:0:0:0:
214,17,193128,2,0,B|231:74|306:106|398:66,1,176,14|12,2:0|2:0,2:0:0:0:
360,78,193642,1,0,2:0:0:0:
508,15,193814,1,2,1:2:0:0:
470,192,193985,2,0,P|467:158|453:100,1,88.0000000000001,2|10,1:2|2:0,2:0:0:0:
275,243,194328,6,0,P|349:265|449:327,1,176,4|0,1:2|1:2,2:0:0:0:
433,314,194842,1,8,2:0:0:0:
363,190,195014,1,2,2:0:0:0:
194,370,195185,2,0,P|240:361|304:340,1,88.0000000000001,2|2,1:2|1:2,2:0:0:0:
279,349,195442,1,0,2:0:0:0:
279,349,195528,2,0,P|267:301|243:241,1,88.0000000000001,8|8,2:0|2:3,2:0:0:0:
164,109,195871,6,0,B|101:93|34:136|55:237,1,176,4|8,1:2|2:0,2:0:0:0:
265,112,196385,1,2,2:0:0:0:
411,182,196557,2,0,P|363:172|312:170,1,88.0000000000001,0|2,1:2|1:2,2:0:0:0:
442,275,196899,1,8,2:0:0:0:
246,374,197071,6,0,P|253:282|246:181,1,176,4|0,1:2|1:2,2:0:0:0:
248,198,197585,1,10,2:0:0:0:
111,262,197757,1,2,2:0:0:0:
61,115,197928,1,2,1:2:0:0:
333,215,198099,5,2,1:2:0:0:
159,173,198271,1,8,2:0:0:0:
278,36,198442,2,0,P|268:78|265:147,1,88.0000000000001,2|6,2:0|1:2,2:0:0:0:
264,122,198785,1,0,1:2:0:0:
374,95,198957,5,10,2:0:0:0:
175,65,199128,2,0,P|90:53|17:30,1,132,2|0,2:0|2:0,2:0:0:0:
45,40,199471,1,2,1:2:0:0:
161,192,199642,1,10,2:0:0:0:
5,274,199814,6,0,P|18:190|99:128,1,176,6|0,1:2|1:2,2:0:0:0:
206,340,200328,2,0,P|158:325|88:314,1,88.0000000000001,10|0,2:0|2:0,2:0:0:0:
332,110,200671,5,2,1:2:0:0:
287,122,200785,5,2,2:0:0:0:
257,158,200899,5,2,2:0:0:0:
253,204,201014,6,0,P|267:241|305:304,1,88.0000000000001,10|2,2:0|2:0,2:0:0:0:
448,384,201357,6,0,P|455:337|474:276,1,88.0000000000001,4|0,1:2|1:2,2:0:0:0:
393,71,201699,2,0,P|386:118|367:179,1,88.0000000000001,10|0,2:0|1:2,2:0:0:0:
375,156,202042,1,2,1:2:0:0:
479,94,202214,1,2,1:2:0:0:
281,28,202385,1,10,2:0:0:0:
512,221,202557,6,0,P|468:218|410:222,1,88.0000000000001,4|2,1:2|2:0,2:0:0:0:
204,364,202899,2,0,P|247:361|291:363,1,88.0000000000001,2|8,1:2|2:0,2:0:0:0:
291,363,203242,1,0,1:2:0:0:
147,252,203414,1,2,1:2:0:0:
275,173,203585,2,0,P|266:214|260:279,1,88.0000000000001,10|0,2:0|1:2,2:0:0:0:
260,259,203928,1,0,1:2:0:0:
111,145,204099,5,14,3:2:0:0:
111,145,204185,1,2,3:2:0:0:
111,145,204271,1,2,3:2:0:0:
111,145,204357,1,2,3:2:0:0:
111,145,204442,2,0,P|120:104|126:39,1,88.0000000000001,8|0,2:0|1:3,2:0:0:0:
125,58,204699,1,8,2:3:0:0:
125,58,204785,2,0,P|165:73|221:85,1,88.0000000000001,4|2,2:3|1:0,2:0:0:0:
441,124,205128,1,2,1:0:0:0:
205,167,205299,1,4,2:0:0:0:
212,174,206157,5,2,2:0:0:0:
212,174,206499,5,2,2:0:0:0:
212,174,206853,5,2,2:0:0:0:
309,362,207881,5,2,2:0:0:0:
381,292,208053,2,0,P|372:234|367:144,1,144,2|2,2:0|2:0,2:0:0:0:
428,10,208910,1,2,2:0:0:0:
274,102,209253,1,2,2:0:0:0:
156,17,209595,6,0,P|94:16|48:89,1,144,2|2,2:0|2:0,2:0:0:0:
111,154,210281,2,0,P|120:231|117:309,1,144,2|2,2:0|2:0,2:0:0:0:
311,197,211653,1,2,2:0:0:0:
384,227,211824,1,2,2:0:0:0:
448,181,211995,1,2,2:0:0:0:
442,103,212167,1,2,2:0:0:0:
339,124,212338,6,0,P|287:113|227:92,1,95.9999999999998,2|2,2:0|2:0,2:0:0:0:
64,183,212853,2,0,P|116:194|176:215,1,95.9999999999998,2|0,2:0|2:0,2:0:0:0:
303,373,213367,1,2,2:0:0:0:
350,311,213538,1,2,2:0:0:0:
329,235,214053,1,2,2:0:0:0:
262,196,214395,1,2,2:0:0:0:
190,223,214738,1,2,2:0:0:0:
69,345,215081,6,0,P|125:325|170:314,1,95.9999999999998,2|2,2:0|2:0,2:0:0:0:
78,133,215595,5,2,2:0:0:0:
78,133,215767,2,0,P|55:197|16:272,1,144,2|0,2:0|2:0,2:0:0:0:
213,247,216453,6,0,P|183:215|153:173,1,95.9999999999998,2|2,2:0|2:0,2:0:0:0:
152,172,216967,1,0,2:0:0:0:
235,103,217138,6,0,P|265:110|300:114,1,47.9999999999999,2|2,2:0|2:0,2:0:0:0:
356,170,217481,2,0,P|379:174|403:180,1,47.9999999999999,2|2,2:0|2:0,2:0:0:0:
454,348,217824,6,0,P|468:287|483:240,1,95.9999999999998,2|2,2:0|2:0,2:0:0:0:
305,19,218510,2,0,P|291:80|276:127,1,95.9999999999998,2|2,2:0|2:0,2:0:0:0:
213,151,219024,1,2,2:0:0:0:
146,109,219195,1,2,2:0:0:0:
73,140,219538,1,2,2:0:0:0:
53,216,219881,1,2,2:0:0:0:
96,280,220224,1,2,2:0:0:0:
174,284,220395,1,2,2:0:0:0:
251,248,220567,6,0,P|285:258|321:267,1,71.9999999999998,2|0,2:0|2:0,2:0:0:0:
320,266,220910,2,0,P|313:297|303:328,1,47.9999999999999,2|0,2:0|2:0,2:0:0:0:
424,231,221253,1,2,2:0:0:0:
471,291,221424,2,0,P|461:328|454:384,1,71.9999999999998,2|0,2:0|2:0,2:0:0:0:
455,361,221767,5,2,2:0:0:0:
386,336,221938,1,2,2:0:0:0:
316,370,222110,2,0,P|269:375|222:335,1,95.9999999999998,2|0,2:0|2:0,2:0:0:0:
135,287,222624,6,0,P|102:287|75:288,1,47.9999999999999,2|2,2:0|2:0,2:0:0:0:
212,230,222967,2,0,P|235:229|259:229,1,47.9999999999999,2|2,2:0|2:0,2:0:0:0:
134,140,223310,6,0,P|83:144|25:140,1,95.9999999999998,2|2,2:0|2:0,2:0:0:0:
38,141,223824,1,2,2:0:0:0:
250,12,224338,1,2,2:0:0:0:
307,62,224510,2,0,P|301:111|298:172,1,95.9999999999998,2|0,2:0|2:0,2:0:0:0:
451,155,225024,2,0,P|426:136|401:112,1,47.9999999999999,2|0,2:0|2:0,2:0:0:0:
349,246,225367,2,0,P|357:215|365:177,1,47.9999999999999,2|0,2:0|2:0,2:0:0:0:
360,199,225710,1,2,2:0:0:0:
432,245,225881,1,2,2:0:0:0:
512,206,226053,6,0,P|504:251|504:317,1,95.9999999999998,2|0,2:0|2:0,2:0:0:0:
446,358,226567,1,2,2:0:0:0:
388,306,226738,2,0,P|347:296|242:395,1,192,2|0,2:0|2:0,2:0:0:0:
66,118,228110,5,2,2:0:0:0:
462,233,228453,2,0,L|443:236,1,12,12|0,2:3|2:0,2:0:0:0:
239,30,228795,6,0,P|265:93|289:219,1,176,4|8,1:2|2:0,2:0:0:0:
171,299,229310,1,0,2:0:0:0:
69,200,229481,2,0,P|119:207|196:212,1,88,0|0,1:2|1:2,2:0:0:0:
288,305,229824,1,10,2:0:0:0:
363,155,229995,6,0,B|312:124|221:162|234:258,1,176,2|0,1:2|1:2,2:0:0:0:
398,347,230510,2,0,P|389:304|386:259,1,88,10|0,2:0|2:0,2:0:0:0:
479,80,230853,2,0,P|480:124|487:172,1,88,2|0,1:2|1:2,2:0:0:0:
337,79,231195,1,10,2:0:0:0:
224,157,231367,1,0,2:0:0:0:
99,60,231538,6,0,P|98:146|79:255,1,176,4|8,1:2|2:0,2:0:0:0:
23,366,232053,1,2,2:0:0:0:
214,326,232224,2,0,P|164:316|106:296,1,88,2|0,1:2|1:2,2:0:0:0:
128,304,232567,1,8,2:0:0:0:
304,364,232738,6,0,B|370:376|439:336|422:246,1,176,4|0,1:2|1:2,2:0:0:0:
252,156,233253,2,0,P|255:203|253:274,1,88,10|0,2:0|2:0,2:0:0:0:
362,119,233595,1,2,1:2:0:0:
227,43,233767,1,2,1:2:0:0:
139,169,233938,1,10,2:0:0:0:
334,237,234110,5,8,2:0:0:0:
334,237,234195,1,8,2:0:0:0:
334,237,234281,2,0,P|386:236|539:218,1,176,4|10,1:2|2:0,2:0:0:0:
254,384,234795,2,0,P|251:342|237:279,1,88,2|0,2:0|1:2,2:0:0:0:
242,297,235138,1,0,1:2:0:0:
78,365,235310,5,10,2:0:0:0:
13,319,235481,2,0,P|0:271|121:202,1,176,2|0,1:2|1:2,2:0:0:0:
289,194,235995,2,0,P|241:194|174:185,1,88,10|0,2:0|2:0,2:0:0:0:
100,104,236338,1,2,1:2:0:0:
148,271,236510,1,0,1:2:0:0:
210,32,236681,2,0,P|201:75|196:118,1,88,10|0,2:0|2:0,2:0:0:0:
331,290,237024,6,0,P|333:217|350:94,1,176,2|12,1:2|2:0,2:0:0:0:
512,154,237538,1,2,2:0:0:0:
463,218,237710,2,0,P|429:223|357:246,1,88,2|8,1:2|2:0,2:0:0:0:
377,237,237967,1,8,2:0:0:0:
377,237,238053,1,10,2:0:0:0:
101,176,238224,6,0,P|162:134|243:40,1,176,4|0,1:2|1:2,2:0:0:0:
230,59,238738,1,10,2:0:0:0:
298,333,238910,6,0,P|223:295|131:276,1,176,4|0,1:2|1:2,2:0:0:0:
133,276,239424,1,10,2:0:0:0:
334,95,239595,5,8,2:0:0:0:
334,95,239681,1,8,2:0:0:0:
334,95,239767,2,0,P|345:156|398:285,1,176,4|8,1:2|2:0,2:0:0:0:
457,146,240281,1,0,2:0:0:0:
219,182,240453,2,0,P|262:188|304:201,1,88,0|0,1:2|1:2,2:0:0:0:
304,201,240795,1,10,2:0:0:0:
196,56,240967,6,0,B|179:114|106:143|27:113,1,176,2|0,1:2|1:2,2:0:0:0:
117,315,241472,2,0,P|118:266|134:190,1,88,10|0,2:0|3:0,2:0:0:0:
123,227,241729,1,0,3:0:0:0:
123,227,241814,2,0,P|166:242|222:252,1,88,2|0,1:2|1:2,2:0:0:0:
374,384,242157,2,0,P|331:369|275:359,1,88,10|0,2:0|2:0,2:0:0:0:
346,172,242500,6,0,B|412:153|478:202|456:289,1,176,2|12,1:2|2:0,2:0:0:0:
459,265,243014,1,10,2:0:0:0:
274,81,243185,2,0,P|267:124|259:167,1,88,0|10,1:2|2:0,2:0:0:0:
259,167,243442,1,8,2:0:0:0:
259,167,243528,1,8,2:0:0:0:
50,80,243700,6,0,P|131:57|219:20,1,176,4|0,1:2|1:2,2:0:0:0:
215,21,244214,1,10,2:0:0:0:
367,112,244385,1,0,2:0:0:0:
256,255,244557,6,0,P|260:208|257:150,1,88,2|0,1:2|1:2,2:0:0:0:
258,167,244900,1,10,2:0:0:0:
366,242,245071,1,10,2:0:0:0:
475,155,245242,6,0,P|470:202|480:346,1,176,4|10,1:2|2:0,2:0:0:0:
366,242,245757,1,0,2:0:0:0:
294,365,245928,2,0,P|342:348|396:340,1,88,2|0,1:2|1:2,2:0:0:0:
378,341,246271,1,2,2:0:0:0:
242,209,246442,6,0,B|216:259|148:292|71:252,1,176,12|0,2:0|1:2,2:0:0:0:
158,60,246957,2,0,P|156:99|156:180,1,88,8|0,2:0|1:2,2:0:0:0:
155,147,247300,1,2,1:2:0:0:
298,85,247471,1,2,1:2:0:0:
375,215,247642,1,8,2:0:0:0:
221,291,247814,1,2,1:2:0:0:
246,178,247985,6,0,P|290:188|337:197,1,88,6|8,1:2|2:0,2:0:0:0:
332,196,248242,1,8,2:0:0:0:
332,196,248328,1,10,2:0:0:0:
467,152,248500,5,2,1:2:0:0:
386,331,248671,1,8,2:0:0:0:
260,250,248842,5,2,1:2:0:0:
461,290,249014,1,8,2:0:0:0:
137,357,249185,6,0,P|214:346|322:347,1,176,4|0,1:2|1:2,2:0:0:0:
174,217,249700,1,10,2:0:0:0:
78,273,249871,1,2,2:0:0:0:
20,175,250042,5,0,1:2:0:0:
20,175,250214,1,8,2:3:0:0:
216,290,250385,5,8,2:0:0:0:
216,290,250557,1,4,2:3:0:0:
216,290,250728,2,0,P|214:220|217:118,1,144,4|0,1:2|2:0,2:0:0:0:
215,146,251242,1,2,1:2:0:0:
389,224,251414,2,0,P|356:223|306:226,1,72.0000000000001,8|2,2:0|2:0,2:0:0:0:
317,224,251757,1,8,2:3:0:0:
385,86,251928,6,0,B|411:131|469:142|531:127,1,144,4|8,1:2|2:0,2:0:0:0:
328,22,252442,1,2,2:0:0:0:
276,75,252614,2,0,P|277:112|274:163,1,72.0000000000001,2|4,1:2|2:3,2:0:0:0:
275,146,252957,1,4,2:3:0:0:
186,221,253128,1,12,2:3:0:0:
186,221,253300,1,2,1:2:0:0:
29,152,253471,6,0,P|89:146|170:127,1,144,4|0,1:2|2:0,2:0:0:0:
223,69,254157,1,2,2:0:0:0:
176,379,254500,6,0,P|168:341|157:306,1,64,2|0,2:0|2:0,2:0:0:0:
83,131,254842,1,10,2:0:0:0:
248,280,255014,1,10,2:0:0:0:
34,202,255185,1,10,2:0:0:0:
285,204,255357,1,10,2:0:0:0:
285,204,255442,1,8,2:0:0:0:
285,204,255528,1,8,2:0:0:0:
87,294,255700,6,0,P|44:287|-17:283,1,87.9999999999999,10|0,2:0|2:0,2:0:0:0:
285,204,256042,2,0,P|398:221|459:225,1,160,4|0,1:2|1:2,2:0:0:0:
216,22,256557,2,0,P|213:59|198:122,1,80,10|0,2:0|2:0,2:0:0:0:
33,202,256900,2,0,P|74:189|135:176,1,80,2|0,1:2|1:2,2:0:0:0:
109,180,257242,1,10,2:0:0:0:
196,306,257414,6,0,B|312:305|278:170,1,160,4|0,1:2|1:2,2:0:0:0:
366,345,257928,1,10,2:0:0:0:
421,290,258100,1,8,2:0:0:0:
421,290,258185,1,8,2:0:0:0:
421,290,258271,2,0,P|412:243|408:187,1,80,0|2,1:2|1:2,2:0:0:0:
290,28,258614,2,0,P|299:75|303:131,1,80,8|2,2:0|1:2,2:0:0:0:
302,106,258957,5,4,1:2:0:0:
414,40,259128,1,0,1:2:0:0:
136,59,259300,2,0,P|175:67|214:73,1,80,10|0,2:0|1:2,2:0:0:0:
329,263,259642,5,10,2:0:0:0:
302,106,259814,1,0,1:2:0:0:
200,223,259985,5,2,1:2:0:0:
486,203,260157,2,0,P|401:194|318:175,1,160,4|2,1:2|1:2,2:0:0:0:
328,177,260671,5,8,2:0:0:0:
232,343,260842,2,0,L|226:299,2,40,2|8|4,1:2|2:3|2:3,2:0:0:0:
174,165,261185,1,2,1:2:0:0:
322,294,261357,1,0,1:2:0:0:
109,228,261528,1,0,1:2:0:0:
109,228,261614,1,0,1:0:0:0:
109,228,261700,1,4,1:2:0:0:
256,192,261785,12,0,267271,2:0:0:0:
