osu file format v14

[General]
AudioFilename: audio.mp3
AudioLeadIn: 0
PreviewTime: -1
Countdown: 1
SampleSet: None
StackLeniency: 0.7
Mode: 0
LetterboxInBreaks: 0
WidescreenStoryboard: 1

[Editor]
DistanceSpacing: 1
BeatDivisor: 4
GridSize: 4
TimelineZoom: 0.7

[Metadata]
Title:Asterism
TitleUnicode:Asterism
Artist:ChouCho
ArtistUnicode:ChouCho
Creator:Owntrolf
Version:Normal
Source:Fate/kaleid liner プリズマ☆イリヤ 3rei!!
Tags:Prisma * Illya
BeatmapID:1044818
BeatmapSetID:490169

[Difficulty]
HPDrainRate:3
CircleSize:3
OverallDifficulty:4
ApproachRate:4
SliderMultiplier:1
SliderTickRate:1

[Events]
//Background and Video events
//Break Periods
//Storyboard Layer 0 (Background)
//Storyboard Layer 1 (Fail)
//Storyboard Layer 2 (Pass)
//Storyboard Layer 3 (Foreground)
//Storyboard Sound Samples

[TimingPoints]
1459,394.736842105263,4,2,0,40,1,0

[Colours]
Combo1 : 88,0,159
Combo2 : 255,191,209
Combo3 : 169,99,254
Combo4 : 231,35,118

[HitObjects]
256,192,1459,12,0,4024,0:0:0:0:
125,144,4616,6,0,P|153:220|268:268,1,200
348,228,5801,1,0,0:0:0:0:
400,144,6195,2,0,P|424:152|476:200,2,75
351,130,6985,2,0,P|327:122|275:74,2,75
364,178,7774,6,0,P|351:240|324:270,1,100
256,197,8564,1,0,0:0:0:0:
184,266,8958,1,0,0:0:0:0:
113,195,9353,2,0,P|170:81|250:53,1,200
256,152,10537,1,0,0:0:0:0:
287,247,10932,6,0,P|352:309|428:321,1,150
458,321,11722,1,0,0:0:0:0:
458,221,12116,1,0,0:0:0:0:
458,120,12511,2,0,P|393:58|317:46,1,150
287,46,13301,1,0,0:0:0:0:
287,146,13695,1,0,0:0:0:0:
253,240,14090,6,0,P|208:268|153:268,1,100
70,228,14880,2,0,P|32:229|-1:243,2,75
212,276,16064,1,0,0:0:0:0:
184,372,16458,1,0,0:0:0:0:
115,300,16853,1,0,0:0:0:0:
144,204,17248,6,0,P|132:96|48:40,1,200
4,124,18432,2,0,L|4:191,1,50
8,224,18827,2,0,P|27:281|55:310,1,100
153,309,19616,1,0,0:0:0:0:
153,309,20011,1,0,0:0:0:0:
251,328,20406,6,0,B|313:349|389:301|453:321,2,200
216,234,22380,1,0,0:0:0:0:
216,134,22774,2,0,P|248:90|301:71,1,100
389,72,23564,6,0,P|450:111|468:182,2,150
288,72,25143,2,0,P|226:111|208:182,2,150
306,170,26722,5,0,0:0:0:0:
270,263,27116,1,0,0:0:0:0:
280,312,27314,2,0,P|311:345|380:360,1,100
397,325,27906,1,0,0:0:0:0:
432,290,28103,5,0,0:0:0:0:
432,190,28498,1,0,0:0:0:0:
432,90,28893,2,0,P|379:104|333:189,1,150
333,282,29880,6,0,P|302:348|181:356,1,200
235,271,31064,1,0,0:0:0:0:
235,221,31261,2,0,P|220:173|183:141,2,100
135,231,32445,1,0,0:0:0:0:
135,237,32643,1,0,0:0:0:0:
135,242,32840,1,0,0:0:0:0:
135,247,33037,6,0,P|190:313|221:326,1,100
253,320,33630,2,0,P|302:306|346:266,1,100
368,232,34222,1,0,0:0:0:0:
354,184,34419,2,0,B|293:176|273:97|230:96,1,150
186,96,35208,2,0,P|137:106|100:139,2,100
236,97,36195,6,0,P|284:86|321:53,1,100
419,31,36985,1,0,0:0:0:0:
490,101,37380,1,0,0:0:0:0:
419,171,37774,2,0,P|380:200|320:208,1,100
280,208,38366,2,0,P|231:216|191:246,1,100
177,294,38958,1,0,0:0:0:0:
106,364,39353,5,0,0:0:0:0:
35,293,39748,1,0,0:0:0:0:
35,243,39945,2,0,L|36:133,1,100
106,72,40735,1,0,0:0:0:0:
205,72,41129,1,0,0:0:0:0:
205,172,41524,1,0,0:0:0:0:
205,222,41722,1,0,0:0:0:0:
304,222,42116,1,0,0:0:0:0:
304,121,42511,6,0,L|517:121,1,200
506,21,43695,1,0,0:0:0:0:
405,21,44090,2,0,L|404:220,1,200
304,222,45274,1,0,0:0:0:0:
203,222,45669,6,0,L|61:80,1,200
133,11,46853,1,0,0:0:0:0:
205,82,47248,2,0,L|63:223,1,200
63,273,48235,1,0,0:0:0:0:
73,321,48432,1,0,0:0:0:0:
110,354,48630,1,0,0:0:0:0:
259,354,49222,6,0,P|308:337|349:282,1,100
385,213,50011,2,0,P|419:177|466:161,1,100
475,261,50801,2,0,P|440:296|393:312,1,100
303,269,51590,2,0,L|263:233,1,50
256,135,52182,6,0,L|218:168,2,50
293,102,52774,1,0,0:0:0:0:
331,68,52972,1,0,0:0:0:0:
368,35,53170,1,0,0:0:0:0:
438,105,53564,2,0,P|425:173|396:204,1,100
317,241,54353,6,0,P|248:232|215:206,1,100
194,175,54945,1,0,0:0:0:0:
166,132,55143,2,0,P|122:107|73:106,1,100
6,181,55932,2,0,P|49:205|98:206,1,100
197,225,56722,6,0,P|215:270|210:320,1,100
245,355,57314,2,0,P|292:368|340:358,1,100
376,322,57906,1,0,0:0:0:0:
416,230,58301,2,0,P|464:219|512:232,2,100
374,257,59287,1,0,0:0:0:0:
336,290,59485,1,0,0:0:0:0:
292,314,59682,6,0,P|232:309|168:241,1,150
142,152,60669,2,0,P|113:111|70:88,1,100
91,42,61261,2,0,P|141:21|196:30,1,100
231,45,61853,1,0,0:0:0:0:
275,67,62051,2,0,P|324:70|369:50,1,100
419,62,62643,1,0,0:0:0:0:
460,91,62840,1,0,0:0:0:0:
460,140,63037,6,0,P|441:200|400:232,1,100
320,200,63827,2,0,P|282:190|207:221,1,100
189,241,64419,1,0,0:0:0:0:
139,328,64814,1,0,0:0:0:0:
89,241,65208,1,0,0:0:0:0:
139,154,65603,2,0,L|196:119,1,50
281,127,66195,6,0,P|328:141|362:176,1,100
363,276,66985,2,0,P|315:261|281:226,1,100
281,127,67774,2,0,P|246:91|199:77,1,100
112,126,68564,2,0,P|146:161|193:175,1,100
281,226,69353,6,0,P|269:273|236:309,1,100
194,338,69945,1,0,0:0:0:0:
136,256,70340,1,0,0:0:0:0:
194,175,70735,1,0,0:0:0:0:
335,123,71327,1,0,0:0:0:0:
335,172,71524,1,0,0:0:0:0:
435,172,71919,1,0,0:0:0:0:
435,71,72314,6,0,P|405:28|341:18,1,100
318,41,72906,2,0,L|280:104,1,50
292,133,73301,2,0,L|317:175,1,50
317,225,73695,2,0,L|291:267,2,50
367,225,74287,2,0,L|405:288,1,50
392,317,74682,1,0,0:0:0:0:
245,347,75274,2,0,L|198:329,1,50
179,282,75669,6,0,L|164:216,1,50
181,185,76064,1,0,0:0:0:0:
198,138,76261,1,0,0:0:0:0:
212,90,76458,2,0,P|163:49|119:49,1,100
58,117,77248,2,0,P|66:165|101:199,1,100
201,189,78037,1,0,0:0:0:0:
293,149,78432,1,0,0:0:0:0:
342,139,78630,1,0,0:0:0:0:
391,149,78827,6,0,P|426:183|434:231,1,100
368,308,79616,2,0,P|319:304|282:272,1,100
256,174,80406,1,0,0:0:0:0:
247,124,80603,1,0,0:0:0:0:
228,77,80801,1,0,0:0:0:0:
186,49,80998,1,0,0:0:0:0:
136,49,81195,2,0,L|100:91,2,50
167,144,81985,6,0,P|183:198|239:225,1,100
265,234,82577,2,0,P|303:263|315:311,1,100
296,358,83169,1,0,0:0:0:0:
246,358,83366,2,0,L|186:322,1,50
158,309,83761,2,0,L|115:283,2,50
186,267,84353,1,0,0:0:0:0:
221,231,84551,2,0,L|285:231,1,50
320,224,84945,6,0,P|363:200|391:159,1,100
403,110,85537,1,0,0:0:0:0:
376,67,85735,2,0,L|317:29,1,50
283,39,86130,2,0,L|224:77,1,50
191,66,86524,2,0,P|144:44|84:38,1,100
49,55,87116,1,0,0:0:0:0:
78,150,87511,5,0,0:0:0:0:
148,220,87906,1,0,0:0:0:0:
190,245,88103,1,0,0:0:0:0:
239,238,88301,1,0,0:0:0:0:
