osu file format v14

[General]
AudioFilename: audio.mp3
AudioLeadIn: 0
PreviewTime: 51161
Countdown: 0
SampleSet: Soft
StackLeniency: 0.7
Mode: 0
LetterboxInBreaks: 0
WidescreenStoryboard: 0

[Editor]
DistanceSpacing: 0.6
BeatDivisor: 4
GridSize: 4
TimelineZoom: 2

[Metadata]
Title:Asterism
TitleUnicode:Asterism
Artist:ChouCho
ArtistUnicode:ChouCho
Creator:Kibbleru
Version:Stardesu
Source:Fate/kaleid liner Prisma☆Illya 3rei!!
Tags:loli プリズマ☆イリヤ op opening sotarks karen underforest vick janpai -_G_I_D_Z_- gidz
BeatmapID:1022530
BeatmapSetID:478814

[Difficulty]
HPDrainRate:6
CircleSize:4
OverallDifficulty:7.5
ApproachRate:9
SliderMultiplier:1.7
SliderTickRate:1

[Events]
//Background and Video events
0,0,"asterismbg.jpg",0,0
Video,-225,"optc (2).flv"
//Break Periods
//Storyboard Layer 0 (Background)
//Storyboard Layer 1 (Fail)
//Storyboard Layer 2 (Pass)
//Storyboard Layer 3 (Foreground)
//Storyboard Sound Samples

[TimingPoints]
462,375,4,2,1,30,1,0
1962,292.682926829268,4,2,1,50,1,0
1962,-133.333333333333,4,2,1,50,0,0
3620,394.736842105263,4,2,1,70,1,0
13093,-80,4,2,1,70,0,0
15067,-133.333333333333,4,2,1,40,0,0
16251,-133.333333333333,4,2,1,50,0,0
17830,-100,4,2,1,50,0,0
19409,-133.333333333333,4,2,1,50,0,0
20988,-100,4,2,1,50,0,0
22567,-133.333333333333,4,2,1,50,0,0
26909,-133.333333333333,4,2,1,70,0,0
28883,-100,4,2,1,60,0,0
39738,-80,4,2,1,60,0,0
40725,-133.333333333333,4,2,1,60,0,0
41514,-100,4,2,1,60,0,0
47041,-100,4,2,1,70,0,0
52567,-100,4,2,1,80,0,1
52863,-80,4,2,1,80,0,1
54935,-100,4,2,1,80,0,1
56317,-80,4,2,1,80,0,1
58685,-100,4,2,1,80,0,1
59277,-80,4,2,1,80,0,1
60462,-100,4,2,1,80,0,1
63225,-80,4,2,1,80,0,1
63422,-80,4,2,1,80,0,0
65198,-100,4,2,1,80,0,0
65593,-80,4,2,1,80,0,1
67172,-100,4,2,1,80,0,1
68948,-80,4,2,1,80,0,1
69738,-100,4,2,1,80,0,0
70527,-80,4,2,1,80,0,0
71317,-100,4,2,1,80,0,1
72304,-80,4,2,1,80,0,1
73685,-80,4,2,1,80,0,0
74277,-100,4,2,1,80,0,0
74672,-100,4,2,1,80,0,1
76843,-80,4,2,1,80,0,0
77830,-100,4,2,1,80,0,1
80001,-80,4,2,1,80,0,0
80988,-100,4,2,1,80,0,1
83159,-80,4,2,1,80,0,0
83948,-100,4,2,1,80,0,1
84738,-80,4,2,1,80,0,1
85527,-100,4,2,1,80,0,1
87106,-133.333333333333,4,2,1,100,0,0
88488,-133.333333333333,4,2,1,20,0,0

[Colours]
Combo1 : 170,182,189
Combo2 : 247,155,224
Combo3 : 143,70,225
Combo4 : 255,154,53

[HitObjects]
256,192,462,12,0,1587,0:0:0:0:
117,191,1962,6,0,P|110:211|102:230,2,42.5000016212464,2|0|0,0:0|0:0|0:0,0:0:0:0:
170,80,2254,2,0,P|165:59|160:38,2,42.5000016212464,2|0|0,0:0|0:0|0:0,0:0:0:0:
247,168,2547,2,0,P|262:182|280:196,2,42.5000016212464,2|0|0,0:0|0:0|0:0,0:0:0:0:
312,88,2840,1,2,0:0:0:0:
331,79,2937,1,0,0:0:0:0:
352,81,3035,1,2,0:0:0:0:
329,272,3620,6,0,P|334:229|338:187,1,85,12|0,0:1|0:0,0:0:0:0:
450,240,4014,2,0,P|471:243|492:245,2,42.5,8|0|2,0:0|0:0|0:0,0:0:0:0:
251,341,4410,1,8,0:1:0:0:
404,355,4606,1,2,0:0:0:0:
404,355,4705,1,2,0:0:0:0:
404,355,4804,1,8,0:0:0:0:
248,224,5002,1,2,0:0:0:0:
432,95,5198,6,0,B|377:122|377:122|312:106,1,127.5,10|2,0:1|0:0,0:0:0:0:
312,106,5594,1,8,0:0:0:0:
128,234,5791,1,2,0:0:0:0:
128,234,5890,1,2,0:0:0:0:
128,234,5988,2,0,B|183:207|183:207|247:222,1,127.5,8|2,0:1|0:0,0:0:0:0:
247,222,6384,1,8,0:0:0:0:
346,359,6581,6,0,B|329:276|382:272|361:193,1,170,2|0,0:0|0:0,0:0:0:0:
457,334,7172,1,10,0:0:0:0:
206,231,7370,1,2,0:0:0:0:
227,227,7469,1,2,0:0:0:0:
247,223,7568,1,8,0:1:0:0:
413,105,7764,1,2,0:0:0:0:
291,45,7962,1,8,0:0:0:0:
347,274,8159,2,0,L|353:232,1,42.5,2|0,0:0|0:0,0:0:0:0:
413,105,8356,6,0,B|303:87|303:87|327:104|331:136,1,170,8|8,0:1|0:0,0:0:0:0:
216,216,8949,1,2,0:0:0:0:
209,195,9048,1,2,0:0:0:0:
214,174,9147,1,8,0:1:0:0:
442,241,9344,1,2,0:0:0:0:
208,313,9541,1,8,0:0:0:0:
447,258,9739,1,2,0:0:0:0:
293,114,9936,6,0,L|377:103,1,85,10|0,0:1|0:0,0:0:0:0:
377,103,10232,1,2,0:0:0:0:
377,103,10330,1,8,0:0:0:0:
196,176,10527,1,2,0:0:0:0:
196,176,10627,2,0,B|159:122|159:122|179:62,1,127.5,2|2,0:0|0:0,0:0:0:0:
356,209,11120,5,8,0:0:0:0:
370,249,11218,1,2,0:0:0:0:
359,290,11318,1,2,0:0:0:0:
327,317,11416,2,0,P|307:313|286:309,1,42.5,2|8,0:0|0:1,0:0:0:0:
137,357,11712,5,2,0:0:0:0:
115,322,11811,1,2,0:0:0:0:
115,280,11910,1,10,0:0:0:0:
137,244,12009,1,2,0:0:0:0:
159,208,12107,1,2,0:0:0:0:
158,165,12206,2,0,P|153:144|142:123,1,42.5,2|8,0:0|0:1,0:0:0:0:
275,317,12502,5,0,0:0:0:0:
258,312,12601,1,0,0:0:0:0:
241,307,12699,1,10,0:0:0:0:
0,197,12897,5,0,0:0:0:0:
0,197,12995,1,2,0:0:0:0:
0,197,13094,2,0,P|26:192|52:189,1,53.125,10|0,0:1|0:0,0:0:0:0:
154,43,13291,1,2,0:0:0:0:
154,43,13389,2,0,P|180:47|206:50,1,53.125,2|8,0:0|0:1,0:0:0:0:
346,218,13686,5,0,0:0:0:0:
346,218,13784,1,2,0:0:0:0:
346,218,13883,2,0,B|299:191|299:191|248:207,1,106.25,10|0,0:1|0:0,0:0:0:0:
285,297,14179,2,0,P|281:323|277:350,1,53.125,2|2,0:0|0:0,0:0:0:0:
320,85,14476,1,4,0:0:0:0:
118,206,15068,6,0,L|212:192,1,95.6250036478044
240,172,15462,5,2,0:3:0:0:
237,194,15561,1,2,0:3:0:0:
235,216,15659,2,0,P|233:231|230:247,1,31.8750012159348,8|0,0:3|0:0,0:0:0:0:
369,291,15856,2,0,P|362:259|358:228,1,63.7500024318696,4|0,0:3|0:0,0:0:0:0:
389,101,16252,6,0,P|340:61|278:60,1,127.500004863739,12|8,0:1|0:1,0:0:0:0:
134,165,16843,2,0,P|166:159|197:152,1,63.7500024318696,0|8,0:0|0:1,0:0:0:0:
29,177,17239,1,0,0:0:0:0:
135,321,17436,2,0,P|116:295|97:269,1,63.7500024318696,8|0,0:1|0:0,0:0:0:0:
247,241,17831,5,8,0:1:0:0:
247,241,17929,2,0,L|374:252,1,127.5,2|8,0:0|0:1,0:0:0:0:
463,107,18423,2,0,P|483:102|504:97,2,42.5,0|2|8,0:0|0:0|0:1,0:0:0:0:
464,204,18817,1,2,0:0:0:0:
358,72,19015,1,8,0:1:0:0:
364,171,19212,1,0,0:0:0:0:
261,198,19409,6,0,P|256:261|248:324,1,127.500004863739,10|8,0:1|0:1,0:0:0:0:
308,108,20002,2,0,P|276:101|245:96,1,63.7500024318696,0|8,0:0|0:1,0:0:0:0:
372,261,20397,2,0,P|403:267|434:272,1,63.7500024318696,2|8,0:0|0:1,0:0:0:0:
416,153,20791,1,0,0:0:0:0:
416,153,20890,1,2,0:0:0:0:
416,153,20989,5,8,0:1:0:0:
306,141,21186,1,0,0:0:0:0:
242,232,21384,1,8,0:1:0:0:
299,326,21580,2,0,P|303:346|307:367,2,42.5,0|2|8,0:0|0:0|0:1,0:0:0:0:
372,239,21975,5,2,0:0:0:0:
186,315,22173,1,8,0:1:0:0:
368,259,22370,1,0,0:0:0:0:
227,179,22567,6,0,P|173:146|112:158,1,127.500004863739,10|8,0:1|0:1,0:0:0:0:
76,335,23159,2,0,P|129:367|190:355,1,127.500004863739,2|0,0:0|0:0,0:0:0:0:
337,252,23752,2,0,P|306:261|275:269,1,63.7500024318696,10|0,0:1|0:0,0:0:0:0:
467,297,24147,5,10,0:1:0:0:
440,121,24343,2,0,P|434:152|429:183,1,63.7500024318696,0|8,0:0|0:1,0:0:0:0:
277,269,24738,2,0,P|282:237|287:206,1,63.7500024318696,2|8,0:0|0:1,0:0:0:0:
171,118,25134,1,0,0:0:0:0:
312,74,25330,2,0,P|285:56|251:53,1,63.7500024318696,10|0,0:1|0:0,0:0:0:0:
78,182,25726,5,10,0:1:0:0:
180,230,25923,1,0,0:0:0:0:
171,118,26120,1,8,0:1:0:0:
95,289,26317,2,0,P|99:321|101:353,1,63.7500024318696,2|8,0:0|0:1,0:0:0:0:
245,181,26712,1,0,0:0:0:0:
357,347,26909,1,10,0:1:0:0:
359,325,27009,1,2,0:0:0:0:
362,304,27107,5,12,0:1:0:0:
121,194,27502,1,12,0:1:0:0:
387,109,27897,1,12,0:1:0:0:
387,109,28884,6,10,P|323:100|260:91,1,127.5,10|0,0:1|0:0,0:0:0:0:
174,49,29277,2,0,P|181:90|187:132,1,85,12|0,0:0|0:0,0:0:0:0:
405,270,29673,1,8,0:1:0:0:
264,355,29869,2,0,P|267:334|271:313,2,42.5,0|0|8,0:0|0:0|0:1,0:0:0:0:
312,219,30264,6,0,B|255:210|255:210|212:235|212:235|146:224,1,170,8|2,0:0|0:0,0:0:0:0:
150,224,30759,1,2,0:0:0:0:
150,224,30857,1,8,0:0:0:0:
289,320,31054,2,0,P|330:326|372:334,1,85,2|8,0:0|0:1,0:0:0:0:
184,354,31449,1,0,0:0:0:0:
176,334,31548,1,0,0:0:0:0:
178,312,31647,1,8,0:1:0:0:
334,180,31844,1,8,0:0:0:0:
122,149,32041,6,0,L|248:133,1,127.5,10|0,0:1|0:0,0:0:0:0:
334,180,32436,2,0,B|352:139|352:139|340:100,1,85,8|0,0:0|0:0,0:0:0:0:
120,55,32831,1,8,0:1:0:0:
248,133,33027,2,0,P|226:129|206:126,2,42.5,2|2|8,0:0|0:0|0:1,0:0:0:0:
32,287,33422,6,0,B|119:305|112:247|197:265,1,170,10|0,0:0|0:0,0:0:0:0:
59,190,34015,1,8,0:0:0:0:
293,322,34212,2,0,B|311:281|311:281|299:242,1,85,2|8,0:0|0:1,0:0:0:0:
163,89,34606,2,0,P|159:109|155:130,2,42.5,2|0|8,0:0|0:0|0:1,0:0:0:0:
288,40,35002,1,0,0:0:0:0:
97,192,35198,6,0,P|151:166|215:182,1,127.5,12|0,0:1|0:0,0:0:0:0:
299,242,35594,2,0,L|340:235,2,42.5,8|0|0,0:0|0:0|0:0,0:0:0:0:
416,157,35989,1,8,0:1:0:0:
214,181,36186,1,2,0:0:0:0:
214,181,36285,1,2,0:0:0:0:
214,181,36384,1,8,0:1:0:0:
337,338,36581,1,0,0:0:0:0:
324,126,36777,6,0,P|319:168|316:210,1,85,10|0,0:1|0:0,0:0:0:0:
316,210,37074,1,0,0:0:0:0:
316,210,37173,1,8,0:0:0:0:
102,162,37369,2,0,P|99:119|94:77,1,85,2|8,0:0|0:1,0:0:0:0:
213,135,37765,1,0,0:0:0:0:
213,135,37863,1,2,0:0:0:0:
213,135,37962,1,8,0:1:0:0:
6,231,38160,1,8,0:0:0:0:
250,295,38356,6,0,B|192:266|192:266|131:282,1,127.5,10|0,0:1|0:0,0:0:0:0:
46,360,38752,2,0,P|40:339|34:319,2,42.5,8|0|0,0:0|0:0|0:0,0:0:0:0:
213,135,39147,1,8,0:1:0:0:
7,148,39344,1,2,0:0:0:0:
27,152,39443,1,2,0:0:0:0:
47,156,39541,1,8,0:1:0:0:
232,26,39738,6,0,B|213:135|213:135|233:117|259:112,1,159.375,12|0,0:1|0:0,0:0:0:0:
441,200,40133,2,0,B|376:226|355:176|284:202,1,159.375,12|0,0:1|0:0,0:0:0:0:
308,343,40528,2,0,P|320:319|321:293,1,53.125,12|0,0:1|0:0,0:0:0:0:
171,215,40725,2,2,P|129:257|139:331,1,127.500004863739,12|12,0:1|0:1,0:0:0:0:
226,295,41515,5,10,0:1:0:0:
50,223,41712,2,0,P|70:219|91:216,2,42.5,0|0|8,0:0|0:0|0:1,0:0:0:0:
276,137,42107,1,0,0:0:0:0:
276,137,42206,1,0,0:0:0:0:
276,137,42305,2,0,B|225:131|195:170|195:170|174:128|137:121,1,170,10|8,0:0|0:1,0:0:0:0:
208,50,42897,1,0,0:0:0:0:
280,238,43093,5,8,0:1:0:0:
390,131,43291,2,0,P|384:152|380:173,2,42.5,0|0|8,0:0|0:0|0:1,0:0:0:0:
466,250,43686,1,0,0:0:0:0:
304,345,43883,2,0,P|346:339|388:336,1,85,10|0,0:1|0:0,0:0:0:0:
276,133,44278,2,0,P|233:130|191:124,1,85,10|0,0:1|0:0,0:0:0:0:
100,257,44673,5,12,0:1:0:0:
304,345,44870,2,0,P|307:324|312:303,2,42.5,0|0|8,0:0|0:0|0:1,0:0:0:0:
205,219,45265,1,0,0:0:0:0:
205,219,45364,1,0,0:0:0:0:
205,219,45462,2,0,B|233:292|174:308|200:384,1,170,10|0,0:0|0:0,0:0:0:0:
100,257,46055,1,0,0:0:0:0:
100,257,46153,1,2,0:0:0:0:
100,257,46252,5,8,0:1:0:0:
162,118,46449,2,0,P|183:115|203:110,2,42.5,0|2|10,0:0|0:0|0:1,0:0:0:0:
299,242,46844,2,0,P|278:237|257:234,1,42.5,2|0,0:0|0:0,0:0:0:0:
370,327,47041,5,12,0:0:0:0:
148,257,47239,1,0,0:0:0:0:
339,149,47436,1,8,0:1:0:0:
229,114,47633,6,0,P|309:128|365:69,1,170,12|8,0:1|0:1,0:0:0:0:
482,158,48226,1,8,0:0:0:0:
367,355,48423,6,0,B|384:233|384:233|333:246,1,170,12|8,0:1|0:1,0:0:0:0:
230,330,49015,1,8,0:0:0:0:
175,71,49212,6,0,B|158:193|158:193|209:180,1,170,12|8,0:1|0:1,0:0:0:0:
321,111,49805,1,8,0:0:0:0:
155,307,50001,5,8,0:1:0:0:
155,307,50100,2,0,P|216:289|277:272,1,127.5,2|8,0:3|0:1,0:0:0:0:
462,273,50594,1,2,0:3:0:0:
463,295,50693,1,8,0:3:0:0:
455,315,50791,1,4,0:3:0:0:
230,150,51186,5,2,0:0:0:0:
368,188,51384,1,2,0:0:0:0:
198,250,51581,1,2,0:0:0:0:
423,279,51778,5,2,0:0:0:0:
223,124,51976,1,2,0:0:0:0:
410,60,52173,1,2,0:0:0:0:
410,60,52272,1,2,0:0:0:0:
410,60,52370,1,2,0:0:0:0:
410,60,52469,1,2,0:0:0:0:
410,60,52567,6,0,L|397:146,1,85,12|0,0:1|0:0,0:0:0:0:
380,182,52863,2,0,P|406:176|432:172,1,53.125,2|8,0:0|0:0,0:0:0:0:
207,323,53160,1,2,0:0:0:0:
207,323,53259,1,2,0:0:0:0:
207,323,53356,1,10,0:1:0:0:
416,276,53555,1,0,0:0:0:0:
250,153,53752,1,8,0:0:0:0:
305,357,53949,2,0,P|314:332|313:305,1,53.125,0|2,0:0|0:3,0:0:0:0:
120,376,54147,5,10,0:1:0:0:
307,285,54344,1,0,0:0:0:0:
121,197,54541,2,0,L|173:204,2,53.125,8|0|0,0:0|0:0|0:0,0:0:0:0:
311,84,54936,2,0,P|270:93|228:101,1,85,10|0,0:1|0:0,0:0:0:0:
192,313,55331,2,0,P|233:303|275:295,1,85,8|0,0:0|0:0,0:0:0:0:
378,318,55627,1,2,0:3:0:0:
378,318,55725,6,0,P|415:267|406:205,1,127.5,10|0,0:1|0:0,0:0:0:0:
406,205,56120,1,8,0:0:0:0:
277,73,56317,2,0,P|271:100|266:125,2,53.125,2|2|8,0:0|0:0|0:1,0:0:0:0:
368,15,56712,1,2,0:0:0:0:
165,88,56909,1,8,0:0:0:0:
365,211,57107,1,2,0:0:0:0:
365,211,57206,1,2,0:3:0:0:
365,211,57305,5,8,0:1:0:0:
167,111,57502,1,0,0:0:0:0:
281,115,57699,6,0,P|284:141|289:167,1,53.125,8|2,0:0|0:0,0:0:0:0:
156,279,57897,2,0,P|152:305|147:331,1,53.125,2|2,0:0|0:0,0:0:0:0:
89,185,58094,1,8,0:1:0:0:
273,275,58291,1,0,0:0:0:0:
48,369,58489,1,10,0:0:0:0:
273,275,58686,6,0,B|192:295|189:237|107:260,1,170,4|0,0:0|0:0,0:0:0:0:
248,128,59277,2,0,P|254:153|250:179,2,53.125,10|0|0,0:0|0:0|0:0,0:0:0:0:
141,356,59672,1,10,0:1:0:0:
363,256,59870,1,0,0:0:0:0:
146,333,60068,1,8,0:0:0:0:
367,377,60265,1,2,0:0:0:0:
367,377,60364,1,2,0:3:0:0:
367,377,60462,5,8,0:1:0:0:
92,240,60659,2,0,P|134:235|176:229,1,85,2|8,0:0|0:0,0:0:0:0:
430,277,61054,2,0,P|352:249|285:296,1,170,2|0,0:0|0:0,0:0:0:0:
285,296,61548,1,2,0:0:0:0:
285,296,61646,1,10,0:0:0:0:
423,158,61844,1,0,0:0:0:0:
234,67,62041,5,12,0:1:0:0:
415,136,62239,1,2,0:0:0:0:
415,136,62337,1,2,0:0:0:0:
415,136,62436,1,8,0:0:0:0:
203,218,62634,1,0,0:0:0:0:
330,378,62831,5,8,0:1:0:0:
362,351,62930,1,10,0:1:0:0:
379,312,63028,1,8,0:1:0:0:
376,270,63127,1,10,0:1:0:0:
355,234,63226,2,0,P|328:230|302:225,1,53.125,8|0,0:0|0:0,0:0:0:0:
116,185,63422,6,0,B|171:196|220:170|220:170|204:193|203:219,1,159.375,12|0,0:1|0:0,0:0:0:0:
336,133,63818,2,0,B|357:95|345:43|305:28|305:28|296:73,1,159.375,12|0,0:1|0:0,0:0:0:0:
298,63,64212,5,12,0:1:0:0:
297,253,64508,2,0,L|305:219,2,26.5625,2|2|2,0:3|0:3|0:3,0:0:0:0:
429,182,64805,1,8,0:1:0:0:
147,149,65002,1,2,0:0:0:0:
147,149,65101,1,2,0:0:0:0:
147,149,65198,2,0,P|189:144|231:137,1,85,12|0,0:1|0:0,0:0:0:0:
347,62,65594,6,0,B|370:117|317:159|342:217,1,159.375,12|0,0:0|0:0,0:0:0:0:
343,218,65989,1,10,0:1:0:0:
208,331,66186,1,2,0:0:0:0:
209,315,66284,1,2,0:0:0:0:
211,299,66384,1,8,0:0:0:0:
108,169,66580,2,0,P|114:195|119:221,1,53.125,0|2,0:0|0:3,0:0:0:0:
158,79,66778,5,10,0:1:0:0:
55,306,66976,1,0,0:0:0:0:
321,280,67173,2,0,P|326:238|334:197,1,85,8|2,0:0|0:0,0:0:0:0:
334,197,67469,1,2,0:0:0:0:
334,197,67567,1,10,0:1:0:0:
200,118,67765,1,0,0:0:0:0:
404,81,67962,1,8,0:0:0:0:
256,237,68160,1,0,0:0:0:0:
256,237,68259,1,2,0:3:0:0:
256,237,68356,6,2,P|318:226|381:216,1,127.5,8|0,0:1|0:0,0:0:0:0:
381,216,68752,1,8,0:0:0:0:
150,273,68949,2,0,P|142:247|144:218,1,53.125,2|2,0:0|0:3,0:0:0:0:
238,341,69147,1,8,0:1:0:0:
36,257,69344,1,2,0:0:0:0:
36,257,69443,1,2,0:0:0:0:
36,257,69541,1,8,0:0:0:0:
224,91,69738,6,0,B|141:65|141:127|58:102,1,170,12|0,0:1|0:0,0:0:0:0:
88,5,70331,1,0,0:0:0:0:
192,196,70528,6,0,L|181:248,1,53.125,14|0,0:1|0:0,0:0:0:0:
313,164,70922,2,0,L|302:216,1,53.125,12|0,0:1|0:0,0:0:0:0:
437,129,71317,6,0,B|415:241|415:241|439:222|472:222,1,170,12|0,0:1|0:0,0:0:0:0:
466,222,71810,1,0,0:0:0:0:
466,222,71909,1,8,0:0:0:0:
417,358,72106,1,2,0:0:0:0:
378,360,72205,1,2,0:0:0:0:
345,339,72304,6,0,P|319:331|293:326,1,53.125,10|0,0:1|0:0,0:0:0:0:
217,203,72501,2,0,P|191:210|165:215,1,53.125,2|0,0:0|0:0,0:0:0:0:
94,313,72698,1,8,0:0:0:0:
353,184,72896,5,2,0:0:0:0:
349,204,72994,1,2,0:0:0:0:
345,225,73093,1,8,0:1:0:0:
47,235,73291,1,0,0:0:0:0:
34,194,73389,1,2,0:0:0:0:
43,153,73488,1,8,0:0:0:0:
69,121,73587,1,2,0:0:0:0:
109,104,73685,6,0,B|183:82|197:136|263:114,1,159.375,12|0,0:1|0:0,0:0:0:0:
283,106,74080,2,0,P|276:131|272:157,1,53.125,8|0,0:1|0:0,0:0:0:0:
413,303,74277,2,0,B|409:219|409:219|365:198,1,127.5,8|0,0:0|0:0,0:0:0:0:
280,255,74672,6,0,P|237:257|195:260,1,85,12|0,0:1|0:0,0:0:0:0:
98,351,75067,1,8,0:0:0:0:
2,196,75264,1,2,0:0:0:0:
2,196,75363,1,2,0:0:0:0:
2,196,75462,2,0,B|50:184|91:217|91:217|106:175|148:166,1,170,8|8,0:1|0:0,0:0:0:0:
65,46,76054,1,2,0:0:0:0:
63,62,76152,1,2,0:0:0:0:
61,79,76251,5,8,0:1:0:0:
294,152,76448,1,0,0:0:0:0:
92,254,76646,1,8,0:0:0:0:
158,60,76843,6,0,B|143:167|143:167|160:148|186:140,1,159.375,12|0,0:1|0:0,0:0:0:0:
278,249,77238,2,0,P|249:243|220:241,1,53.125,8|0,0:1|0:0,0:0:0:0:
366,153,77435,1,8,0:0:0:0:
126,279,77633,1,0,0:0:0:0:
365,332,77830,5,12,0:1:0:0:
258,114,78027,1,2,0:0:0:0:
249,135,78126,1,2,0:0:0:0:
251,158,78225,1,8,0:0:0:0:
450,164,78422,2,0,P|407:158|365:152,1,85,2|8,0:0|0:1,0:0:0:0:
213,294,78817,1,2,0:0:0:0:
409,258,79014,1,8,0:0:0:0:
222,182,79212,1,2,0:0:0:0:
222,182,79310,1,2,0:0:0:0:
222,182,79409,5,8,0:1:0:0:
310,244,79606,1,0,0:0:0:0:
106,181,79804,1,8,0:0:0:0:
275,84,80001,6,0,B|354:70|350:124|428:111,1,159.375,12|0,0:1|0:0,0:0:0:0:
281,230,80396,2,0,P|285:203|292:178,1,53.125,8|0,0:1|0:0,0:0:0:0:
401,14,80593,1,10,0:0:0:0:
401,14,80692,1,2,0:0:0:0:
401,14,80791,1,0,0:0:0:0:
502,170,80988,5,12,0:1:0:0:
259,93,81185,2,0,P|280:90|301:86,2,42.5,0|0|8,0:0|0:0|0:0,0:0:0:0:
86,184,81580,2,0,P|127:192|168:203,1,85,2|8,0:0|0:1,0:0:0:0:
174,28,81975,2,0,P|132:19|91:8,1,85,2|8,0:0|0:0,0:0:0:0:
270,124,82369,6,0,P|354:132|407:65,1,170,2|0,0:0|0:0,0:0:0:0:
224,27,82962,1,8,0:0:0:0:
215,225,83159,6,0,B|173:213|154:175|154:175|120:202|75:198,1,159.375,12|0,0:1|0:0,0:0:0:0:
65,309,83554,2,0,P|71:334|75:361,1,53.125,8|0,0:1|0:0,0:0:0:0:
175,327,83751,1,10,0:0:0:0:
175,327,83850,1,2,0:0:0:0:
175,327,83948,6,0,B|247:350|272:297|342:323,1,170,12|8,0:1|0:1,0:0:0:0:
159,218,84541,1,8,0:0:0:0:
347,203,84738,6,0,P|320:197|294:192,1,53.125,12|0,0:1|0:0,0:0:0:0:
435,96,85133,2,0,P|408:90|382:85,1,53.125,12|0,0:1|0:0,0:0:0:0:
183,36,85527,6,0,P|223:82|219:144,1,127.5,12|0,0:1|0:0,0:0:0:0:
159,218,85922,2,0,L|145:279,2,42.5,8|0|8,0:1|0:0|0:0,0:0:0:0:
213,344,86317,1,0,0:0:0:0:
51,219,86514,1,8,0:1:0:0:
245,145,86712,5,2,0:3:0:0:
222,119,86810,1,2,0:3:0:0:
192,104,86909,1,2,0:3:0:0:
158,101,87008,1,2,0:3:0:0:
126,110,87106,2,0,P|95:118|63:112,1,63.7500024318696,8|12,0:1|0:1,0:0:0:0:
256,192,87402,12,0,88488,0:0:0:0:
