osu file format v14

[General]
AudioFilename: audio.mp3
AudioLeadIn: 0
PreviewTime: 51087
Countdown: 0
SampleSet: Soft
StackLeniency: 0.7
Mode: 3
LetterboxInBreaks: 0
SpecialStyle: 0
WidescreenStoryboard: 0

[Editor]
DistanceSpacing: 0.6
BeatDivisor: 4
GridSize: 4
TimelineZoom: 2.6

[Metadata]
Title:Asterism
TitleUnicode:Asterism
Artist:ChouCho
ArtistUnicode:ChouCho
Creator:Illya X Ram Li
Version:7K SHD Asterism
Source:Fate/kaleid liner プリズマ☆イリヤ ドライ!!
Tags:Prisma☆Illya 3rei op opening anime loli etsu angki R e m u r i n g another lie
BeatmapID:1221226
BeatmapSetID:576914

[Difficulty]
HPDrainRate:8
CircleSize:7
OverallDifficulty:8.5
ApproachRate:5
SliderMultiplier:1.4
SliderTickRate:1

[Events]
//Background and Video events
0,0,"asterismbg.jpg",0,0
//Break Periods
//Storyboard Layer 0 (Background)
//Storyboard Layer 1 (Fail)
//Storyboard Layer 2 (Pass)
//Storyboard Layer 3 (Foreground)
//Storyboard Sound Samples

[TimingPoints]
462,375,4,2,1,21,1,0
1962,292.682926829268,4,2,1,21,1,0
2062,-125,4,2,1,21,0,0
3132,-100,4,2,1,21,0,0
3425,-1000,4,2,1,21,0,0
3571,-66.6666666666667,4,2,1,21,0,0
3620,394.736842105263,4,2,1,21,1,0
3620,-100,4,2,1,21,0,0
52567,-100,4,2,1,21,0,1
65198,-100,4,2,1,21,0,0

[HitObjects]
475,192,462,128,0,1774:0:0:0:0:
402,192,462,128,0,1774:0:0:0:0:
256,192,462,128,0,1774:0:0:0:0:
109,192,462,128,0,1774:0:0:0:0:
36,192,462,128,0,1774:0:0:0:0:
182,192,1962,1,0,0:0:0:0:
329,192,1962,1,0,0:0:0:0:
402,192,2035,1,0,0:0:0:0:
109,192,2035,1,0,0:0:0:0:
256,192,2108,1,0,0:0:0:0:
36,192,2181,1,0,0:0:0:0:
475,192,2181,1,0,0:0:0:0:
329,192,2254,1,0,0:0:0:0:
109,192,2254,1,0,0:0:0:0:
256,192,2327,1,0,0:0:0:0:
36,192,2401,1,0,0:0:0:0:
475,192,2401,1,0,0:0:0:0:
402,192,2474,1,0,0:0:0:0:
109,192,2474,1,0,0:0:0:0:
329,192,2547,1,0,0:0:0:0:
182,192,2547,1,0,0:0:0:0:
256,192,2620,1,0,0:0:0:0:
109,192,2693,1,0,0:0:0:0:
402,192,2693,1,0,0:0:0:0:
182,192,2766,1,0,0:0:0:0:
329,192,2766,1,0,0:0:0:0:
402,192,2840,1,0,0:0:0:0:
109,192,2840,1,0,0:0:0:0:
329,192,2913,1,0,0:0:0:0:
182,192,2913,1,0,0:0:0:0:
109,192,2986,1,0,0:0:0:0:
402,192,2986,1,0,0:0:0:0:
36,192,2986,1,0,0:0:0:0:
475,192,2986,1,0,0:0:0:0:
256,192,2986,128,0,3132:0:0:0:0:
109,192,3620,1,0,0:0:0:0:
256,192,3620,1,0,0:0:0:0:
329,192,3620,1,0,0:0:0:0:
182,192,3620,1,0,0:0:0:0:
402,192,3620,1,0,0:0:0:0:
329,192,3817,1,0,0:0:0:0:
402,192,3817,1,0,0:0:0:0:
109,192,3916,1,0,0:0:0:0:
182,192,3916,1,0,0:0:0:0:
329,192,4014,1,0,0:0:0:0:
402,192,4014,1,0,0:0:0:0:
475,192,4014,1,0,0:0:0:0:
182,192,4212,1,0,0:0:0:0:
109,192,4212,1,0,0:0:0:0:
329,192,4310,1,0,0:0:0:0:
402,192,4310,1,0,0:0:0:0:
109,192,4409,1,0,0:0:0:0:
182,192,4409,1,0,0:0:0:0:
36,192,4409,1,0,0:0:0:0:
402,192,4606,1,0,0:0:0:0:
329,192,4606,1,0,0:0:0:0:
256,192,4606,128,0,4804:0:0:0:0:
36,192,4705,1,0,0:0:0:0:
109,192,4705,1,0,0:0:0:0:
402,192,4804,1,0,0:0:0:0:
329,192,4804,1,0,0:0:0:0:
182,192,4804,128,0,5001:0:0:0:0:
109,192,5001,128,0,5198:0:0:0:0:
182,192,5198,1,0,0:0:0:0:
475,192,5198,1,0,0:0:0:0:
256,192,5198,1,0,0:0:0:0:
36,192,5198,128,0,5396:0:0:0:0:
402,192,5198,1,0,0:0:0:0:
475,192,5396,1,0,0:0:0:0:
329,192,5396,128,0,5791:0:0:0:0:
256,192,5396,1,0,0:0:0:0:
36,192,5494,1,0,0:0:0:0:
109,192,5494,1,0,0:0:0:0:
182,192,5593,1,0,0:0:0:0:
402,192,5593,1,0,0:0:0:0:
109,192,5791,1,0,0:0:0:0:
256,192,5791,1,0,0:0:0:0:
182,192,5791,128,0,5988:0:0:0:0:
475,192,5889,1,0,0:0:0:0:
402,192,5889,1,0,0:0:0:0:
109,192,5988,1,0,0:0:0:0:
256,192,5988,128,0,6185:0:0:0:0:
329,192,5988,1,0,0:0:0:0:
109,192,6185,1,0,0:0:0:0:
36,192,6185,1,0,0:0:0:0:
475,192,6185,1,0,0:0:0:0:
109,192,6383,1,0,0:0:0:0:
182,192,6383,128,0,6580:0:0:0:0:
256,192,6383,1,0,0:0:0:0:
329,192,6383,1,0,0:0:0:0:
256,192,6580,1,0,0:0:0:0:
402,192,6580,128,0,6975:0:0:0:0:
329,192,6580,1,0,0:0:0:0:
36,192,6580,1,0,0:0:0:0:
109,192,6777,1,0,0:0:0:0:
182,192,6777,1,0,0:0:0:0:
475,192,6975,1,0,0:0:0:0:
256,192,6975,1,0,0:0:0:0:
329,192,6975,128,0,7172:0:0:0:0:
402,192,7172,1,0,0:0:0:0:
109,192,7172,1,0,0:0:0:0:
182,192,7172,1,0,0:0:0:0:
475,192,7172,128,0,7369:0:0:0:0:
182,192,7369,1,0,0:0:0:0:
256,192,7369,128,0,7567:0:0:0:0:
109,192,7369,1,0,0:0:0:0:
329,192,7468,1,0,0:0:0:0:
402,192,7468,1,0,0:0:0:0:
475,192,7567,1,0,0:0:0:0:
36,192,7567,1,0,0:0:0:0:
182,192,7567,1,0,0:0:0:0:
109,192,7567,128,0,7764:0:0:0:0:
182,192,7764,1,0,0:0:0:0:
329,192,7764,1,0,0:0:0:0:
402,192,7764,128,0,7962:0:0:0:0:
329,192,7962,128,0,8159:0:0:0:0:
182,192,7962,1,0,0:0:0:0:
475,192,7962,1,0,0:0:0:0:
475,192,8159,128,0,8751:0:0:0:0:
182,192,8159,1,0,0:0:0:0:
109,192,8159,1,0,0:0:0:0:
109,192,8356,1,0,0:0:0:0:
402,192,8356,1,0,0:0:0:0:
329,192,8356,1,0,0:0:0:0:
256,192,8356,128,0,8751:0:0:0:0:
329,192,8554,1,0,0:0:0:0:
402,192,8751,1,0,0:0:0:0:
182,192,8751,1,0,0:0:0:0:
109,192,8751,1,0,0:0:0:0:
402,192,8948,1,0,0:0:0:0:
475,192,8948,1,0,0:0:0:0:
182,192,9047,1,0,0:0:0:0:
109,192,9047,1,0,0:0:0:0:
475,192,9146,1,0,0:0:0:0:
402,192,9146,128,0,9935:0:0:0:0:
109,192,9244,1,0,0:0:0:0:
256,192,9244,1,0,0:0:0:0:
182,192,9343,128,0,9541:0:0:0:0:
36,192,9343,1,0,0:0:0:0:
475,192,9343,1,0,0:0:0:0:
36,192,9541,1,0,0:0:0:0:
329,192,9541,1,0,0:0:0:0:
109,192,9541,128,0,9738:0:0:0:0:
475,192,9738,1,0,0:0:0:0:
256,192,9738,128,0,9935:0:0:0:0:
475,192,9935,1,0,0:0:0:0:
109,192,9935,128,0,10922:0:0:0:0:
402,192,10133,128,0,10330:0:0:0:0:
475,192,10133,1,0,0:0:0:0:
182,192,10133,1,0,0:0:0:0:
256,192,10231,1,0,0:0:0:0:
182,192,10330,1,0,0:0:0:0:
329,192,10330,128,0,10527:0:0:0:0:
36,192,10429,1,0,0:0:0:0:
402,192,10527,1,0,0:0:0:0:
182,192,10527,1,0,0:0:0:0:
256,192,10527,128,0,10922:0:0:0:0:
329,192,10725,1,0,0:0:0:0:
402,192,10725,1,0,0:0:0:0:
402,192,10922,128,0,11119:0:0:0:0:
182,192,10922,1,0,0:0:0:0:
329,192,11021,1,0,0:0:0:0:
475,192,11119,1,0,0:0:0:0:
36,192,11119,1,0,0:0:0:0:
109,192,11119,128,0,11317:0:0:0:0:
182,192,11119,1,0,0:0:0:0:
402,192,11317,128,0,11448:0:0:0:0:
329,192,11317,1,0,0:0:0:0:
182,192,11448,128,0,12304:0:0:0:0:
36,192,11448,1,0,0:0:0:0:
109,192,11613,1,0,0:0:0:0:
256,192,11712,128,0,11810:0:0:0:0:
36,192,11712,1,0,0:0:0:0:
109,192,11810,1,0,0:0:0:0:
475,192,11810,128,0,11909:0:0:0:0:
402,192,11909,128,0,12008:0:0:0:0:
256,192,12008,1,0,0:0:0:0:
109,192,12008,128,0,12106:0:0:0:0:
475,192,12106,1,0,0:0:0:0:
36,192,12106,128,0,12304:0:0:0:0:
329,192,12205,1,0,0:0:0:0:
402,192,12304,1,0,0:0:0:0:
256,192,12304,1,0,0:0:0:0:
109,192,12501,1,0,0:0:0:0:
475,192,12501,1,0,0:0:0:0:
329,192,12501,1,0,0:0:0:0:
256,192,12501,128,0,12698:0:0:0:0:
402,192,12698,1,0,0:0:0:0:
109,192,12698,1,0,0:0:0:0:
36,192,12698,1,0,0:0:0:0:
475,192,12698,1,0,0:0:0:0:
182,192,12797,1,0,0:0:0:0:
329,192,12797,1,0,0:0:0:0:
402,192,12896,1,0,0:0:0:0:
109,192,12896,1,0,0:0:0:0:
36,192,12896,1,0,0:0:0:0:
475,192,12896,1,0,0:0:0:0:
182,192,12994,1,0,0:0:0:0:
329,192,12994,1,0,0:0:0:0:
256,192,12994,1,0,0:0:0:0:
402,192,13093,1,0,0:0:0:0:
36,192,13093,1,0,0:0:0:0:
109,192,13093,1,0,0:0:0:0:
475,192,13093,1,0,0:0:0:0:
36,192,13291,1,0,0:0:0:0:
109,192,13291,1,0,0:0:0:0:
402,192,13291,1,0,0:0:0:0:
475,192,13291,1,0,0:0:0:0:
329,192,13389,1,0,0:0:0:0:
182,192,13389,1,0,0:0:0:0:
109,192,13488,1,0,0:0:0:0:
329,192,13488,1,0,0:0:0:0:
402,192,13488,1,0,0:0:0:0:
182,192,13488,1,0,0:0:0:0:
256,192,13587,1,0,0:0:0:0:
475,192,13587,1,0,0:0:0:0:
36,192,13587,1,0,0:0:0:0:
402,192,13685,1,0,0:0:0:0:
109,192,13685,1,0,0:0:0:0:
329,192,13784,1,0,0:0:0:0:
182,192,13784,1,0,0:0:0:0:
109,192,13883,1,0,0:0:0:0:
182,192,13883,1,0,0:0:0:0:
402,192,13883,1,0,0:0:0:0:
329,192,13883,1,0,0:0:0:0:
256,192,13981,1,0,0:0:0:0:
329,192,14080,1,0,0:0:0:0:
475,192,14080,1,0,0:0:0:0:
36,192,14080,1,0,0:0:0:0:
182,192,14080,1,0,0:0:0:0:
402,192,14179,1,0,0:0:0:0:
109,192,14179,1,0,0:0:0:0:
256,192,14179,1,0,0:0:0:0:
109,192,14277,1,0,0:0:0:0:
475,192,14277,1,0,0:0:0:0:
36,192,14277,1,0,0:0:0:0:
402,192,14277,1,0,0:0:0:0:
475,192,14475,128,0,15462:0:0:0:0:
36,192,14475,128,0,15462:0:0:0:0:
182,192,14475,128,0,15462:0:0:0:0:
256,192,14475,128,0,15462:0:0:0:0:
329,192,14475,128,0,15462:0:0:0:0:
109,192,15462,128,0,15659:0:0:0:0:
402,192,15462,128,0,15659:0:0:0:0:
36,192,15659,1,0,0:0:0:0:
182,192,15659,1,0,0:0:0:0:
329,192,15659,1,0,0:0:0:0:
475,192,15659,1,0,0:0:0:0:
402,192,15758,1,0,0:0:0:0:
329,192,15758,1,0,0:0:0:0:
109,192,15856,1,0,0:0:0:0:
182,192,15856,1,0,0:0:0:0:
329,192,15955,1,0,0:0:0:0:
402,192,15955,1,0,0:0:0:0:
109,192,16054,1,0,0:0:0:0:
182,192,16054,1,0,0:0:0:0:
329,192,16152,1,0,0:0:0:0:
402,192,16152,1,0,0:0:0:0:
36,192,16251,1,0,0:0:0:0:
475,192,16251,1,0,0:0:0:0:
256,192,16251,128,0,16448:0:0:0:0:
109,192,16251,1,0,0:0:0:0:
329,192,16448,1,0,0:0:0:0:
402,192,16448,1,0,0:0:0:0:
182,192,16448,128,0,16646:0:0:0:0:
109,192,16646,1,0,0:0:0:0:
36,192,16646,128,0,16843:0:0:0:0:
402,192,16646,1,0,0:0:0:0:
329,192,16646,1,0,0:0:0:0:
475,192,16843,1,0,0:0:0:0:
329,192,16843,1,0,0:0:0:0:
256,192,16843,128,0,17041:0:0:0:0:
109,192,17041,1,0,0:0:0:0:
475,192,17041,1,0,0:0:0:0:
182,192,17041,1,0,0:0:0:0:
36,192,17041,1,0,0:0:0:0:
475,192,17238,1,0,0:0:0:0:
256,192,17238,1,0,0:0:0:0:
109,192,17238,1,0,0:0:0:0:
329,192,17435,1,0,0:0:0:0:
109,192,17435,1,0,0:0:0:0:
182,192,17435,1,0,0:0:0:0:
402,192,17435,1,0,0:0:0:0:
402,192,17633,1,0,0:0:0:0:
182,192,17633,1,0,0:0:0:0:
475,192,17830,1,0,0:0:0:0:
109,192,17830,1,0,0:0:0:0:
182,192,17830,1,0,0:0:0:0:
256,192,17830,1,0,0:0:0:0:
475,192,18027,1,0,0:0:0:0:
329,192,18027,1,0,0:0:0:0:
109,192,18027,1,0,0:0:0:0:
402,192,18225,1,0,0:0:0:0:
36,192,18225,1,0,0:0:0:0:
256,192,18225,1,0,0:0:0:0:
329,192,18225,1,0,0:0:0:0:
402,192,18422,1,0,0:0:0:0:
109,192,18422,1,0,0:0:0:0:
329,192,18619,1,0,0:0:0:0:
36,192,18619,1,0,0:0:0:0:
475,192,18619,1,0,0:0:0:0:
256,192,18619,1,0,0:0:0:0:
329,192,18817,1,0,0:0:0:0:
182,192,18817,1,0,0:0:0:0:
402,192,19014,1,0,0:0:0:0:
109,192,19014,1,0,0:0:0:0:
182,192,19014,1,0,0:0:0:0:
329,192,19014,1,0,0:0:0:0:
329,192,19212,1,0,0:0:0:0:
182,192,19212,1,0,0:0:0:0:
475,192,19212,1,0,0:0:0:0:
402,192,19409,1,0,0:0:0:0:
109,192,19409,1,0,0:0:0:0:
256,192,19409,128,0,19606:0:0:0:0:
402,192,19606,128,0,19804:0:0:0:0:
182,192,19606,1,0,0:0:0:0:
36,192,19804,1,0,0:0:0:0:
475,192,19804,1,0,0:0:0:0:
256,192,19804,1,0,0:0:0:0:
182,192,19804,128,0,20001:0:0:0:0:
402,192,20001,1,0,0:0:0:0:
36,192,20001,1,0,0:0:0:0:
329,192,20001,128,0,20198:0:0:0:0:
109,192,20198,1,0,0:0:0:0:
475,192,20198,1,0,0:0:0:0:
256,192,20198,1,0,0:0:0:0:
36,192,20198,1,0,0:0:0:0:
109,192,20396,1,0,0:0:0:0:
36,192,20396,1,0,0:0:0:0:
256,192,20396,1,0,0:0:0:0:
402,192,20593,1,0,0:0:0:0:
109,192,20593,1,0,0:0:0:0:
256,192,20593,1,0,0:0:0:0:
329,192,20593,1,0,0:0:0:0:
329,192,20791,1,0,0:0:0:0:
475,192,20791,1,0,0:0:0:0:
36,192,20791,1,0,0:0:0:0:
402,192,20988,1,0,0:0:0:0:
256,192,20988,1,0,0:0:0:0:
109,192,20988,128,0,21185:0:0:0:0:
182,192,20988,1,0,0:0:0:0:
402,192,21185,1,0,0:0:0:0:
329,192,21185,1,0,0:0:0:0:
36,192,21185,1,0,0:0:0:0:
182,192,21185,128,0,21383:0:0:0:0:
475,192,21383,1,0,0:0:0:0:
402,192,21383,1,0,0:0:0:0:
109,192,21383,1,0,0:0:0:0:
256,192,21383,128,0,21580:0:0:0:0:
109,192,21580,1,0,0:0:0:0:
402,192,21580,128,0,21777:0:0:0:0:
329,192,21580,1,0,0:0:0:0:
475,192,21777,1,0,0:0:0:0:
182,192,21777,1,0,0:0:0:0:
36,192,21777,1,0,0:0:0:0:
109,192,21777,1,0,0:0:0:0:
182,192,21975,1,0,0:0:0:0:
329,192,21975,1,0,0:0:0:0:
402,192,22172,1,0,0:0:0:0:
109,192,22172,1,0,0:0:0:0:
329,192,22172,1,0,0:0:0:0:
256,192,22172,1,0,0:0:0:0:
402,192,22369,1,0,0:0:0:0:
182,192,22369,1,0,0:0:0:0:
256,192,22369,1,0,0:0:0:0:
329,192,22567,1,0,0:0:0:0:
36,192,22567,1,0,0:0:0:0:
109,192,22567,128,0,22764:0:0:0:0:
256,192,22567,1,0,0:0:0:0:
329,192,22764,128,0,22962:0:0:0:0:
109,192,22962,1,0,0:0:0:0:
402,192,22962,1,0,0:0:0:0:
182,192,22962,128,0,23159:0:0:0:0:
475,192,22962,1,0,0:0:0:0:
402,192,23159,128,0,23356:0:0:0:0:
329,192,23159,1,0,0:0:0:0:
109,192,23356,1,0,0:0:0:0:
256,192,23356,1,0,0:0:0:0:
36,192,23356,1,0,0:0:0:0:
402,192,23554,1,0,0:0:0:0:
256,192,23554,1,0,0:0:0:0:
329,192,23751,1,0,0:0:0:0:
182,192,23751,1,0,0:0:0:0:
109,192,23751,1,0,0:0:0:0:
36,192,23751,1,0,0:0:0:0:
182,192,23948,1,0,0:0:0:0:
329,192,23948,1,0,0:0:0:0:
402,192,24146,1,0,0:0:0:0:
36,192,24146,1,0,0:0:0:0:
475,192,24146,1,0,0:0:0:0:
182,192,24146,1,0,0:0:0:0:
475,192,24343,1,0,0:0:0:0:
329,192,24343,1,0,0:0:0:0:
182,192,24343,1,0,0:0:0:0:
402,192,24541,1,0,0:0:0:0:
182,192,24541,1,0,0:0:0:0:
109,192,24541,1,0,0:0:0:0:
36,192,24541,1,0,0:0:0:0:
402,192,24738,1,0,0:0:0:0:
109,192,24738,1,0,0:0:0:0:
329,192,24738,1,0,0:0:0:0:
182,192,24935,1,0,0:0:0:0:
402,192,24935,1,0,0:0:0:0:
256,192,24935,1,0,0:0:0:0:
475,192,24935,1,0,0:0:0:0:
182,192,25133,1,0,0:0:0:0:
402,192,25133,1,0,0:0:0:0:
256,192,25133,1,0,0:0:0:0:
109,192,25330,1,0,0:0:0:0:
329,192,25330,1,0,0:0:0:0:
36,192,25330,1,0,0:0:0:0:
402,192,25330,1,0,0:0:0:0:
109,192,25527,1,0,0:0:0:0:
402,192,25527,1,0,0:0:0:0:
329,192,25725,1,0,0:0:0:0:
36,192,25725,1,0,0:0:0:0:
182,192,25725,1,0,0:0:0:0:
109,192,25725,128,0,25922:0:0:0:0:
402,192,25922,1,0,0:0:0:0:
256,192,25922,128,0,26119:0:0:0:0:
109,192,26119,1,0,0:0:0:0:
182,192,26119,1,0,0:0:0:0:
402,192,26119,128,0,26317:0:0:0:0:
329,192,26317,1,0,0:0:0:0:
475,192,26317,1,0,0:0:0:0:
109,192,26317,128,0,26514:0:0:0:0:
182,192,26514,1,0,0:0:0:0:
256,192,26514,128,0,26909:0:0:0:0:
36,192,26514,1,0,0:0:0:0:
329,192,26613,1,0,0:0:0:0:
402,192,26613,1,0,0:0:0:0:
109,192,26712,1,0,0:0:0:0:
182,192,26712,1,0,0:0:0:0:
329,192,26810,1,0,0:0:0:0:
402,192,26810,1,0,0:0:0:0:
109,192,26909,1,0,0:0:0:0:
182,192,26909,1,0,0:0:0:0:
109,192,27106,128,0,27402:0:0:0:0:
402,192,27106,128,0,27402:0:0:0:0:
329,192,27106,128,0,27402:0:0:0:0:
256,192,27106,128,0,27402:0:0:0:0:
182,192,27501,128,0,27797:0:0:0:0:
475,192,27501,128,0,27797:0:0:0:0:
36,192,27501,128,0,27797:0:0:0:0:
109,192,27501,128,0,27797:0:0:0:0:
256,192,27896,128,0,28192:0:0:0:0:
329,192,27896,128,0,28192:0:0:0:0:
475,192,27896,128,0,28192:0:0:0:0:
109,192,27896,128,0,28192:0:0:0:0:
402,192,28488,128,0,28587:0:0:0:0:
475,192,28488,1,0,0:0:0:0:
256,192,28488,1,0,0:0:0:0:
329,192,28587,128,0,28685:0:0:0:0:
256,192,28685,128,0,28784:0:0:0:0:
36,192,28685,1,0,0:0:0:0:
182,192,28784,128,0,28883:0:0:0:0:
109,192,28784,1,0,0:0:0:0:
402,192,28883,1,0,0:0:0:0:
256,192,28883,1,0,0:0:0:0:
109,192,28883,1,0,0:0:0:0:
36,192,28883,1,0,0:0:0:0:
329,192,29277,1,0,0:0:0:0:
109,192,29277,1,0,0:0:0:0:
402,192,29277,1,0,0:0:0:0:
256,192,29277,128,0,29475:0:0:0:0:
402,192,29475,1,0,0:0:0:0:
329,192,29475,1,0,0:0:0:0:
36,192,29475,1,0,0:0:0:0:
109,192,29475,1,0,0:0:0:0:
182,192,29573,1,0,0:0:0:0:
256,192,29573,1,0,0:0:0:0:
329,192,29672,1,0,0:0:0:0:
475,192,29672,1,0,0:0:0:0:
109,192,29672,1,0,0:0:0:0:
402,192,29672,1,0,0:0:0:0:
256,192,29771,1,0,0:0:0:0:
329,192,29869,1,0,0:0:0:0:
182,192,29869,1,0,0:0:0:0:
109,192,29869,128,0,30067:0:0:0:0:
402,192,30067,1,0,0:0:0:0:
475,192,30067,1,0,0:0:0:0:
36,192,30067,1,0,0:0:0:0:
182,192,30067,1,0,0:0:0:0:
402,192,30264,1,0,0:0:0:0:
329,192,30264,128,0,30462:0:0:0:0:
256,192,30264,1,0,0:0:0:0:
109,192,30264,1,0,0:0:0:0:
109,192,30462,1,0,0:0:0:0:
182,192,30462,1,0,0:0:0:0:
402,192,30462,1,0,0:0:0:0:
402,192,30659,1,0,0:0:0:0:
109,192,30659,128,0,30758:0:0:0:0:
256,192,30758,128,0,30856:0:0:0:0:
36,192,30856,1,0,0:0:0:0:
109,192,30856,1,0,0:0:0:0:
182,192,30856,1,0,0:0:0:0:
402,192,30856,1,0,0:0:0:0:
329,192,30856,128,0,31054:0:0:0:0:
402,192,31054,1,0,0:0:0:0:
109,192,31054,128,0,31251:0:0:0:0:
182,192,31054,1,0,0:0:0:0:
402,192,31251,1,0,0:0:0:0:
329,192,31251,1,0,0:0:0:0:
109,192,31448,1,0,0:0:0:0:
182,192,31448,128,0,31646:0:0:0:0:
475,192,31448,1,0,0:0:0:0:
402,192,31547,1,0,0:0:0:0:
36,192,31646,1,0,0:0:0:0:
329,192,31646,1,0,0:0:0:0:
109,192,31646,128,0,31843:0:0:0:0:
256,192,31646,1,0,0:0:0:0:
182,192,31744,1,0,0:0:0:0:
329,192,31843,128,0,32041:0:0:0:0:
36,192,31843,1,0,0:0:0:0:
36,192,32041,1,0,0:0:0:0:
182,192,32041,1,0,0:0:0:0:
109,192,32041,1,0,0:0:0:0:
402,192,32041,1,0,0:0:0:0:
256,192,32041,128,0,33619:0:0:0:0:
182,192,32238,1,0,0:0:0:0:
329,192,32238,1,0,0:0:0:0:
36,192,32435,1,0,0:0:0:0:
109,192,32435,1,0,0:0:0:0:
402,192,32435,1,0,0:0:0:0:
329,192,32435,1,0,0:0:0:0:
182,192,32435,128,0,32633:0:0:0:0:
402,192,32633,1,0,0:0:0:0:
109,192,32633,1,0,0:0:0:0:
402,192,32830,1,0,0:0:0:0:
109,192,32830,1,0,0:0:0:0:
182,192,32830,1,0,0:0:0:0:
36,192,32830,1,0,0:0:0:0:
402,192,33027,1,0,0:0:0:0:
36,192,33027,128,0,33225:0:0:0:0:
329,192,33225,1,0,0:0:0:0:
402,192,33225,1,0,0:0:0:0:
109,192,33225,1,0,0:0:0:0:
182,192,33225,1,0,0:0:0:0:
109,192,33422,1,0,0:0:0:0:
182,192,33422,1,0,0:0:0:0:
402,192,33422,128,0,33619:0:0:0:0:
329,192,33619,1,0,0:0:0:0:
182,192,33619,1,0,0:0:0:0:
109,192,33619,128,0,35198:0:0:0:0:
182,192,33817,1,0,0:0:0:0:
329,192,33817,1,0,0:0:0:0:
182,192,34014,1,0,0:0:0:0:
329,192,34014,1,0,0:0:0:0:
402,192,34014,1,0,0:0:0:0:
36,192,34014,1,0,0:0:0:0:
402,192,34212,1,0,0:0:0:0:
256,192,34212,1,0,0:0:0:0:
329,192,34409,1,0,0:0:0:0:
402,192,34409,1,0,0:0:0:0:
182,192,34409,1,0,0:0:0:0:
475,192,34409,1,0,0:0:0:0:
475,192,34606,1,0,0:0:0:0:
256,192,34606,128,0,34804:0:0:0:0:
36,192,34804,1,0,0:0:0:0:
475,192,34804,1,0,0:0:0:0:
182,192,34804,128,0,34902:0:0:0:0:
329,192,34804,1,0,0:0:0:0:
402,192,34902,128,0,35001:0:0:0:0:
475,192,35001,1,0,0:0:0:0:
256,192,35001,128,0,35100:0:0:0:0:
329,192,35100,128,0,35198:0:0:0:0:
182,192,35198,1,0,0:0:0:0:
36,192,35198,1,0,0:0:0:0:
475,192,35198,1,0,0:0:0:0:
402,192,35198,128,0,36777:0:0:0:0:
36,192,35593,1,0,0:0:0:0:
329,192,35593,1,0,0:0:0:0:
475,192,35593,1,0,0:0:0:0:
256,192,35593,128,0,35791:0:0:0:0:
109,192,35593,1,0,0:0:0:0:
329,192,35791,1,0,0:0:0:0:
182,192,35791,1,0,0:0:0:0:
329,192,35988,1,0,0:0:0:0:
109,192,35988,1,0,0:0:0:0:
256,192,35988,1,0,0:0:0:0:
475,192,35988,1,0,0:0:0:0:
329,192,36185,1,0,0:0:0:0:
182,192,36185,128,0,36383:0:0:0:0:
36,192,36185,1,0,0:0:0:0:
36,192,36383,1,0,0:0:0:0:
475,192,36383,1,0,0:0:0:0:
256,192,36383,1,0,0:0:0:0:
329,192,36383,1,0,0:0:0:0:
329,192,36580,1,0,0:0:0:0:
109,192,36580,1,0,0:0:0:0:
475,192,36580,1,0,0:0:0:0:
36,192,36777,1,0,0:0:0:0:
182,192,36777,1,0,0:0:0:0:
475,192,36777,1,0,0:0:0:0:
109,192,36777,1,0,0:0:0:0:
256,192,36777,128,0,38356:0:0:0:0:
329,192,36975,1,0,0:0:0:0:
402,192,36975,1,0,0:0:0:0:
475,192,36975,1,0,0:0:0:0:
402,192,37172,1,0,0:0:0:0:
36,192,37172,1,0,0:0:0:0:
109,192,37172,1,0,0:0:0:0:
182,192,37172,1,0,0:0:0:0:
109,192,37369,1,0,0:0:0:0:
402,192,37369,1,0,0:0:0:0:
109,192,37567,1,0,0:0:0:0:
402,192,37567,1,0,0:0:0:0:
36,192,37567,1,0,0:0:0:0:
182,192,37567,1,0,0:0:0:0:
402,192,37764,1,0,0:0:0:0:
329,192,37764,1,0,0:0:0:0:
182,192,37764,1,0,0:0:0:0:
36,192,37962,1,0,0:0:0:0:
475,192,37962,1,0,0:0:0:0:
329,192,37962,1,0,0:0:0:0:
182,192,37962,1,0,0:0:0:0:
182,192,38159,1,0,0:0:0:0:
109,192,38159,1,0,0:0:0:0:
402,192,38159,1,0,0:0:0:0:
475,192,38356,1,0,0:0:0:0:
36,192,38356,1,0,0:0:0:0:
182,192,38356,1,0,0:0:0:0:
109,192,38356,128,0,39343:0:0:0:0:
256,192,38554,1,0,0:0:0:0:
329,192,38554,1,0,0:0:0:0:
402,192,38554,1,0,0:0:0:0:
36,192,38751,1,0,0:0:0:0:
329,192,38751,1,0,0:0:0:0:
475,192,38751,1,0,0:0:0:0:
402,192,38751,1,0,0:0:0:0:
182,192,38751,128,0,38948:0:0:0:0:
402,192,38948,1,0,0:0:0:0:
256,192,38948,1,0,0:0:0:0:
329,192,38948,1,0,0:0:0:0:
402,192,39146,1,0,0:0:0:0:
329,192,39146,1,0,0:0:0:0:
182,192,39146,1,0,0:0:0:0:
36,192,39146,1,0,0:0:0:0:
182,192,39343,1,0,0:0:0:0:
475,192,39343,1,0,0:0:0:0:
329,192,39343,128,0,39541:0:0:0:0:
182,192,39541,1,0,0:0:0:0:
36,192,39541,1,0,0:0:0:0:
475,192,39541,1,0,0:0:0:0:
402,192,39541,1,0,0:0:0:0:
402,192,39738,128,0,40034:0:0:0:0:
475,192,39738,128,0,40034:0:0:0:0:
36,192,39738,128,0,40034:0:0:0:0:
109,192,39738,128,0,40034:0:0:0:0:
256,192,39738,128,0,40034:0:0:0:0:
329,192,40133,128,0,40429:0:0:0:0:
402,192,40133,128,0,40429:0:0:0:0:
109,192,40133,128,0,40429:0:0:0:0:
256,192,40133,128,0,40429:0:0:0:0:
182,192,40133,128,0,40429:0:0:0:0:
475,192,40527,128,0,40626:0:0:0:0:
329,192,40527,128,0,40626:0:0:0:0:
256,192,40527,128,0,40626:0:0:0:0:
182,192,40527,128,0,40626:0:0:0:0:
36,192,40527,128,0,40626:0:0:0:0:
36,192,40725,128,0,41119:0:0:0:0:
109,192,40725,128,0,41119:0:0:0:0:
402,192,40725,128,0,41119:0:0:0:0:
475,192,40725,128,0,41119:0:0:0:0:
256,192,40725,128,0,41119:0:0:0:0:
329,192,41119,128,0,41218:0:0:0:0:
256,192,41218,128,0,41317:0:0:0:0:
182,192,41317,128,0,41416:0:0:0:0:
109,192,41416,128,0,41514:0:0:0:0:
329,192,41514,1,0,0:0:0:0:
402,192,41514,1,0,0:0:0:0:
36,192,41514,128,0,43093:0:0:0:0:
182,192,41712,1,0,0:0:0:0:
402,192,41712,1,0,0:0:0:0:
256,192,41810,1,0,0:0:0:0:
329,192,41810,1,0,0:0:0:0:
109,192,41909,1,0,0:0:0:0:
182,192,41909,1,0,0:0:0:0:
402,192,41909,1,0,0:0:0:0:
475,192,41909,1,0,0:0:0:0:
329,192,42106,1,0,0:0:0:0:
402,192,42106,1,0,0:0:0:0:
109,192,42205,1,0,0:0:0:0:
182,192,42205,1,0,0:0:0:0:
329,192,42304,1,0,0:0:0:0:
402,192,42304,1,0,0:0:0:0:
256,192,42304,1,0,0:0:0:0:
475,192,42304,1,0,0:0:0:0:
402,192,42698,1,0,0:0:0:0:
109,192,42698,1,0,0:0:0:0:
256,192,42698,1,0,0:0:0:0:
475,192,42698,1,0,0:0:0:0:
329,192,42896,1,0,0:0:0:0:
256,192,42896,1,0,0:0:0:0:
182,192,42896,1,0,0:0:0:0:
402,192,42994,1,0,0:0:0:0:
329,192,42994,1,0,0:0:0:0:
109,192,43093,1,0,0:0:0:0:
182,192,43093,1,0,0:0:0:0:
475,192,43093,1,0,0:0:0:0:
256,192,43093,128,0,43883:0:0:0:0:
402,192,43291,1,0,0:0:0:0:
109,192,43291,1,0,0:0:0:0:
475,192,43291,1,0,0:0:0:0:
182,192,43389,1,0,0:0:0:0:
329,192,43389,1,0,0:0:0:0:
36,192,43488,1,0,0:0:0:0:
109,192,43488,1,0,0:0:0:0:
402,192,43488,1,0,0:0:0:0:
475,192,43488,1,0,0:0:0:0:
475,192,43685,1,0,0:0:0:0:
402,192,43685,1,0,0:0:0:0:
109,192,43784,1,0,0:0:0:0:
329,192,43784,1,0,0:0:0:0:
182,192,43883,1,0,0:0:0:0:
475,192,43883,128,0,44672:0:0:0:0:
402,192,43883,1,0,0:0:0:0:
36,192,43883,1,0,0:0:0:0:
182,192,44080,1,0,0:0:0:0:
109,192,44080,1,0,0:0:0:0:
256,192,44080,1,0,0:0:0:0:
402,192,44277,1,0,0:0:0:0:
329,192,44277,1,0,0:0:0:0:
36,192,44277,1,0,0:0:0:0:
109,192,44277,1,0,0:0:0:0:
402,192,44475,1,0,0:0:0:0:
329,192,44475,1,0,0:0:0:0:
256,192,44573,1,0,0:0:0:0:
36,192,44573,1,0,0:0:0:0:
109,192,44672,1,0,0:0:0:0:
402,192,44672,1,0,0:0:0:0:
182,192,44672,1,0,0:0:0:0:
329,192,44672,128,0,46251:0:0:0:0:
182,192,44869,1,0,0:0:0:0:
402,192,44869,1,0,0:0:0:0:
256,192,44968,1,0,0:0:0:0:
182,192,45067,1,0,0:0:0:0:
36,192,45067,1,0,0:0:0:0:
109,192,45067,1,0,0:0:0:0:
402,192,45067,1,0,0:0:0:0:
182,192,45264,1,0,0:0:0:0:
109,192,45264,1,0,0:0:0:0:
475,192,45264,1,0,0:0:0:0:
256,192,45363,1,0,0:0:0:0:
36,192,45363,1,0,0:0:0:0:
109,192,45462,1,0,0:0:0:0:
182,192,45462,1,0,0:0:0:0:
475,192,45462,1,0,0:0:0:0:
402,192,45462,1,0,0:0:0:0:
36,192,45856,1,0,0:0:0:0:
182,192,45856,1,0,0:0:0:0:
256,192,45856,1,0,0:0:0:0:
475,192,45856,1,0,0:0:0:0:
109,192,46054,1,0,0:0:0:0:
182,192,46054,1,0,0:0:0:0:
475,192,46054,1,0,0:0:0:0:
256,192,46152,1,0,0:0:0:0:
402,192,46152,1,0,0:0:0:0:
109,192,46251,1,0,0:0:0:0:
182,192,46251,1,0,0:0:0:0:
475,192,46251,1,0,0:0:0:0:
36,192,46251,128,0,47633:0:0:0:0:
256,192,46448,128,0,46646:0:0:0:0:
475,192,46448,1,0,0:0:0:0:
109,192,46448,1,0,0:0:0:0:
329,192,46448,1,0,0:0:0:0:
182,192,46547,1,0,0:0:0:0:
402,192,46547,1,0,0:0:0:0:
109,192,46646,1,0,0:0:0:0:
182,192,46646,128,0,46843:0:0:0:0:
475,192,46646,1,0,0:0:0:0:
329,192,46646,1,0,0:0:0:0:
475,192,46843,1,0,0:0:0:0:
402,192,46843,128,0,47041:0:0:0:0:
329,192,46843,1,0,0:0:0:0:
109,192,46942,1,0,0:0:0:0:
182,192,46942,1,0,0:0:0:0:
475,192,47041,1,0,0:0:0:0:
256,192,47041,128,0,47633:0:0:0:0:
329,192,47041,1,0,0:0:0:0:
329,192,47238,1,0,0:0:0:0:
475,192,47238,1,0,0:0:0:0:
109,192,47238,1,0,0:0:0:0:
182,192,47238,1,0,0:0:0:0:
402,192,47435,1,0,0:0:0:0:
475,192,47435,1,0,0:0:0:0:
182,192,47435,1,0,0:0:0:0:
109,192,47435,1,0,0:0:0:0:
402,192,47633,1,0,0:0:0:0:
329,192,47633,128,0,48027:0:0:0:0:
475,192,47633,1,0,0:0:0:0:
182,192,47633,1,0,0:0:0:0:
475,192,48027,1,0,0:0:0:0:
109,192,48027,1,0,0:0:0:0:
182,192,48027,1,0,0:0:0:0:
402,192,48027,128,0,48225:0:0:0:0:
256,192,48225,128,0,48422:0:0:0:0:
329,192,48225,1,0,0:0:0:0:
109,192,48225,1,0,0:0:0:0:
182,192,48225,1,0,0:0:0:0:
475,192,48225,1,0,0:0:0:0:
475,192,48422,1,0,0:0:0:0:
402,192,48422,1,0,0:0:0:0:
36,192,48422,1,0,0:0:0:0:
182,192,48422,1,0,0:0:0:0:
109,192,48422,128,0,48817:0:0:0:0:
402,192,48817,1,0,0:0:0:0:
329,192,48817,1,0,0:0:0:0:
182,192,48817,128,0,49014:0:0:0:0:
36,192,49014,1,0,0:0:0:0:
475,192,49014,128,0,49212:0:0:0:0:
256,192,49014,1,0,0:0:0:0:
109,192,49014,1,0,0:0:0:0:
36,192,49212,1,0,0:0:0:0:
109,192,49212,1,0,0:0:0:0:
182,192,49212,1,0,0:0:0:0:
402,192,49212,1,0,0:0:0:0:
329,192,49212,128,0,49606:0:0:0:0:
475,192,49606,1,0,0:0:0:0:
36,192,49606,1,0,0:0:0:0:
109,192,49606,1,0,0:0:0:0:
182,192,49606,1,0,0:0:0:0:
402,192,49606,1,0,0:0:0:0:
256,192,49606,128,0,49804:0:0:0:0:
475,192,49804,1,0,0:0:0:0:
36,192,49804,1,0,0:0:0:0:
182,192,49804,1,0,0:0:0:0:
402,192,49804,1,0,0:0:0:0:
109,192,49804,128,0,50001:0:0:0:0:
402,192,50001,1,0,0:0:0:0:
36,192,50001,1,0,0:0:0:0:
475,192,50001,1,0,0:0:0:0:
182,192,50001,128,0,50791:0:0:0:0:
36,192,50396,1,0,0:0:0:0:
109,192,50396,1,0,0:0:0:0:
256,192,50396,1,0,0:0:0:0:
329,192,50396,1,0,0:0:0:0:
36,192,50593,1,0,0:0:0:0:
109,192,50593,1,0,0:0:0:0:
329,192,50593,1,0,0:0:0:0:
402,192,50593,1,0,0:0:0:0:
475,192,50593,1,0,0:0:0:0:
109,192,50791,1,0,0:0:0:0:
475,192,50791,1,0,0:0:0:0:
36,192,50791,1,0,0:0:0:0:
256,192,50791,1,0,0:0:0:0:
402,192,50791,1,0,0:0:0:0:
475,192,51185,128,0,52369:0:0:0:0:
329,192,51185,1,0,0:0:0:0:
402,192,51383,128,0,52369:0:0:0:0:
256,192,51383,1,0,0:0:0:0:
36,192,51580,128,0,52369:0:0:0:0:
182,192,51580,1,0,0:0:0:0:
109,192,51777,128,0,52369:0:0:0:0:
329,192,51777,1,0,0:0:0:0:
182,192,51876,128,0,52271:0:0:0:0:
256,192,51975,1,0,0:0:0:0:
329,192,52172,128,0,52369:0:0:0:0:
256,192,52271,128,0,52369:0:0:0:0:
182,192,52369,128,0,52468:0:0:0:0:
109,192,52468,128,0,52567:0:0:0:0:
402,192,52567,1,0,0:0:0:0:
36,192,52567,1,0,0:0:0:0:
256,192,52567,128,0,52764:0:0:0:0:
475,192,52567,128,0,54146:0:0:0:0:
329,192,52567,1,0,0:0:0:0:
109,192,52764,128,0,52962:0:0:0:0:
182,192,52764,1,0,0:0:0:0:
36,192,52764,1,0,0:0:0:0:
182,192,52962,1,0,0:0:0:0:
36,192,52962,1,0,0:0:0:0:
329,192,52962,1,0,0:0:0:0:
402,192,52962,1,0,0:0:0:0:
402,192,53159,1,0,0:0:0:0:
329,192,53159,1,0,0:0:0:0:
256,192,53159,128,0,53356:0:0:0:0:
109,192,53258,1,0,0:0:0:0:
182,192,53258,1,0,0:0:0:0:
329,192,53356,1,0,0:0:0:0:
402,192,53356,1,0,0:0:0:0:
109,192,53455,1,0,0:0:0:0:
182,192,53455,1,0,0:0:0:0:
329,192,53554,1,0,0:0:0:0:
402,192,53554,1,0,0:0:0:0:
109,192,53652,1,0,0:0:0:0:
182,192,53652,1,0,0:0:0:0:
36,192,53751,1,0,0:0:0:0:
402,192,53751,1,0,0:0:0:0:
256,192,53751,1,0,0:0:0:0:
329,192,53751,1,0,0:0:0:0:
402,192,53948,1,0,0:0:0:0:
182,192,53948,1,0,0:0:0:0:
402,192,54146,1,0,0:0:0:0:
109,192,54146,128,0,55725:0:0:0:0:
329,192,54146,128,0,54343:0:0:0:0:
256,192,54146,1,0,0:0:0:0:
36,192,54244,1,0,0:0:0:0:
182,192,54244,1,0,0:0:0:0:
402,192,54343,1,0,0:0:0:0:
475,192,54343,1,0,0:0:0:0:
256,192,54343,128,0,54541:0:0:0:0:
182,192,54541,1,0,0:0:0:0:
36,192,54541,1,0,0:0:0:0:
329,192,54541,1,0,0:0:0:0:
402,192,54541,1,0,0:0:0:0:
329,192,54738,1,0,0:0:0:0:
402,192,54738,1,0,0:0:0:0:
475,192,54738,128,0,54935:0:0:0:0:
182,192,54837,1,0,0:0:0:0:
256,192,54837,1,0,0:0:0:0:
329,192,54935,1,0,0:0:0:0:
402,192,54935,1,0,0:0:0:0:
182,192,55034,1,0,0:0:0:0:
256,192,55034,1,0,0:0:0:0:
36,192,55133,1,0,0:0:0:0:
329,192,55133,1,0,0:0:0:0:
402,192,55133,1,0,0:0:0:0:
182,192,55231,1,0,0:0:0:0:
256,192,55231,1,0,0:0:0:0:
475,192,55330,1,0,0:0:0:0:
36,192,55330,1,0,0:0:0:0:
329,192,55330,1,0,0:0:0:0:
402,192,55330,1,0,0:0:0:0:
402,192,55527,1,0,0:0:0:0:
256,192,55527,1,0,0:0:0:0:
182,192,55527,1,0,0:0:0:0:
182,192,55725,1,0,0:0:0:0:
36,192,55725,1,0,0:0:0:0:
402,192,55725,128,0,57304:0:0:0:0:
475,192,55922,1,0,0:0:0:0:
256,192,55922,1,0,0:0:0:0:
182,192,55922,1,0,0:0:0:0:
329,192,56021,1,0,0:0:0:0:
109,192,56021,1,0,0:0:0:0:
36,192,56119,1,0,0:0:0:0:
182,192,56119,1,0,0:0:0:0:
475,192,56119,1,0,0:0:0:0:
256,192,56119,1,0,0:0:0:0:
475,192,56317,1,0,0:0:0:0:
329,192,56317,1,0,0:0:0:0:
36,192,56416,1,0,0:0:0:0:
109,192,56416,1,0,0:0:0:0:
475,192,56514,1,0,0:0:0:0:
329,192,56514,1,0,0:0:0:0:
36,192,56613,1,0,0:0:0:0:
109,192,56613,1,0,0:0:0:0:
475,192,56712,1,0,0:0:0:0:
329,192,56712,1,0,0:0:0:0:
36,192,56810,1,0,0:0:0:0:
109,192,56810,1,0,0:0:0:0:
182,192,56909,1,0,0:0:0:0:
256,192,56909,1,0,0:0:0:0:
329,192,56909,1,0,0:0:0:0:
475,192,56909,1,0,0:0:0:0:
109,192,57106,1,0,0:0:0:0:
329,192,57106,1,0,0:0:0:0:
256,192,57106,1,0,0:0:0:0:
475,192,57304,1,0,0:0:0:0:
36,192,57304,1,0,0:0:0:0:
109,192,57304,1,0,0:0:0:0:
182,192,57304,128,0,58883:0:0:0:0:
329,192,57501,1,0,0:0:0:0:
402,192,57501,1,0,0:0:0:0:
109,192,57501,1,0,0:0:0:0:
109,192,57698,1,0,0:0:0:0:
329,192,57698,1,0,0:0:0:0:
402,192,57698,1,0,0:0:0:0:
256,192,57698,1,0,0:0:0:0:
109,192,57896,1,0,0:0:0:0:
402,192,57896,1,0,0:0:0:0:
329,192,57896,128,0,57994:0:0:0:0:
256,192,57994,128,0,58093:0:0:0:0:
36,192,57994,1,0,0:0:0:0:
329,192,58093,1,0,0:0:0:0:
109,192,58093,128,0,58192:0:0:0:0:
402,192,58093,1,0,0:0:0:0:
36,192,58192,128,0,58291:0:0:0:0:
475,192,58192,1,0,0:0:0:0:
402,192,58291,128,0,58389:0:0:0:0:
109,192,58291,1,0,0:0:0:0:
329,192,58389,128,0,58488:0:0:0:0:
256,192,58389,1,0,0:0:0:0:
36,192,58488,1,0,0:0:0:0:
402,192,58488,1,0,0:0:0:0:
475,192,58488,1,0,0:0:0:0:
109,192,58488,128,0,58587:0:0:0:0:
256,192,58587,128,0,58685:0:0:0:0:
402,192,58587,1,0,0:0:0:0:
329,192,58685,1,0,0:0:0:0:
475,192,58685,1,0,0:0:0:0:
36,192,58685,1,0,0:0:0:0:
402,192,58784,1,0,0:0:0:0:
109,192,58784,1,0,0:0:0:0:
475,192,58883,1,0,0:0:0:0:
256,192,58883,128,0,60462:0:0:0:0:
36,192,58883,1,0,0:0:0:0:
329,192,58883,1,0,0:0:0:0:
329,192,59080,1,0,0:0:0:0:
402,192,59080,1,0,0:0:0:0:
109,192,59080,1,0,0:0:0:0:
182,192,59277,1,0,0:0:0:0:
36,192,59277,1,0,0:0:0:0:
109,192,59277,1,0,0:0:0:0:
402,192,59277,1,0,0:0:0:0:
329,192,59277,1,0,0:0:0:0:
329,192,59475,1,0,0:0:0:0:
402,192,59475,1,0,0:0:0:0:
182,192,59573,1,0,0:0:0:0:
109,192,59573,1,0,0:0:0:0:
402,192,59672,1,0,0:0:0:0:
329,192,59672,1,0,0:0:0:0:
109,192,59771,1,0,0:0:0:0:
182,192,59771,1,0,0:0:0:0:
329,192,59869,1,0,0:0:0:0:
402,192,59869,1,0,0:0:0:0:
109,192,59968,1,0,0:0:0:0:
182,192,59968,1,0,0:0:0:0:
475,192,60067,1,0,0:0:0:0:
36,192,60067,1,0,0:0:0:0:
402,192,60067,1,0,0:0:0:0:
329,192,60067,1,0,0:0:0:0:
402,192,60264,1,0,0:0:0:0:
36,192,60264,1,0,0:0:0:0:
109,192,60264,1,0,0:0:0:0:
402,192,60462,1,0,0:0:0:0:
182,192,60462,1,0,0:0:0:0:
109,192,60462,128,0,62041:0:0:0:0:
36,192,60462,1,0,0:0:0:0:
256,192,60659,1,0,0:0:0:0:
329,192,60659,1,0,0:0:0:0:
402,192,60758,1,0,0:0:0:0:
475,192,60758,1,0,0:0:0:0:
36,192,60856,1,0,0:0:0:0:
182,192,60856,1,0,0:0:0:0:
402,192,61054,128,0,61448:0:0:0:0:
256,192,61054,1,0,0:0:0:0:
475,192,61054,1,0,0:0:0:0:
182,192,61152,1,0,0:0:0:0:
329,192,61152,1,0,0:0:0:0:
475,192,61251,1,0,0:0:0:0:
256,192,61251,1,0,0:0:0:0:
182,192,61448,128,0,61646:0:0:0:0:
475,192,61448,1,0,0:0:0:0:
329,192,61448,1,0,0:0:0:0:
256,192,61547,1,0,0:0:0:0:
36,192,61547,1,0,0:0:0:0:
329,192,61646,128,0,62041:0:0:0:0:
475,192,61646,1,0,0:0:0:0:
402,192,61646,1,0,0:0:0:0:
182,192,61843,1,0,0:0:0:0:
256,192,61843,1,0,0:0:0:0:
36,192,61843,1,0,0:0:0:0:
402,192,62041,1,0,0:0:0:0:
256,192,62041,128,0,63422:0:0:0:0:
182,192,62041,1,0,0:0:0:0:
475,192,62041,1,0,0:0:0:0:
109,192,62238,1,0,0:0:0:0:
475,192,62238,1,0,0:0:0:0:
182,192,62337,1,0,0:0:0:0:
36,192,62337,1,0,0:0:0:0:
402,192,62337,1,0,0:0:0:0:
475,192,62435,1,0,0:0:0:0:
109,192,62435,1,0,0:0:0:0:
329,192,62435,1,0,0:0:0:0:
182,192,62534,1,0,0:0:0:0:
402,192,62633,1,0,0:0:0:0:
109,192,62633,1,0,0:0:0:0:
475,192,62633,1,0,0:0:0:0:
182,192,62731,1,0,0:0:0:0:
36,192,62731,1,0,0:0:0:0:
402,192,62830,1,0,0:0:0:0:
329,192,62830,1,0,0:0:0:0:
109,192,62830,1,0,0:0:0:0:
182,192,62929,1,0,0:0:0:0:
475,192,62929,1,0,0:0:0:0:
329,192,63027,1,0,0:0:0:0:
109,192,63027,1,0,0:0:0:0:
402,192,63126,1,0,0:0:0:0:
182,192,63126,1,0,0:0:0:0:
475,192,63225,1,0,0:0:0:0:
36,192,63225,1,0,0:0:0:0:
329,192,63225,1,0,0:0:0:0:
109,192,63225,1,0,0:0:0:0:
182,192,63422,128,0,63619:0:0:0:0:
109,192,63422,128,0,63619:0:0:0:0:
36,192,63422,128,0,63619:0:0:0:0:
402,192,63422,128,0,63619:0:0:0:0:
475,192,63422,128,0,63619:0:0:0:0:
329,192,63422,128,0,63619:0:0:0:0:
329,192,63817,128,0,64014:0:0:0:0:
256,192,63817,128,0,64014:0:0:0:0:
182,192,63817,128,0,64014:0:0:0:0:
109,192,63817,128,0,64014:0:0:0:0:
402,192,63817,128,0,64014:0:0:0:0:
109,192,64212,128,0,64804:0:0:0:0:
402,192,64212,128,0,64804:0:0:0:0:
475,192,64212,128,0,64804:0:0:0:0:
256,192,64212,128,0,64606:0:0:0:0:
36,192,64212,128,0,64804:0:0:0:0:
182,192,64606,128,0,64705:0:0:0:0:
329,192,64705,128,0,65001:0:0:0:0:
109,192,65001,1,0,0:0:0:0:
256,192,65001,128,0,65100:0:0:0:0:
182,192,65100,128,0,65198:0:0:0:0:
109,192,65198,128,0,66777:0:0:0:0:
329,192,65198,1,0,0:0:0:0:
475,192,65198,1,0,0:0:0:0:
36,192,65198,1,0,0:0:0:0:
402,192,65198,1,0,0:0:0:0:
256,192,65396,1,0,0:0:0:0:
329,192,65396,1,0,0:0:0:0:
36,192,65494,1,0,0:0:0:0:
182,192,65494,1,0,0:0:0:0:
329,192,65593,1,0,0:0:0:0:
402,192,65593,1,0,0:0:0:0:
256,192,65593,128,0,65791:0:0:0:0:
475,192,65791,1,0,0:0:0:0:
36,192,65791,1,0,0:0:0:0:
182,192,65791,1,0,0:0:0:0:
402,192,65889,1,0,0:0:0:0:
329,192,65889,1,0,0:0:0:0:
182,192,65988,1,0,0:0:0:0:
256,192,65988,1,0,0:0:0:0:
182,192,66185,1,0,0:0:0:0:
329,192,66185,128,0,66284:0:0:0:0:
475,192,66185,1,0,0:0:0:0:
402,192,66284,128,0,66383:0:0:0:0:
36,192,66284,1,0,0:0:0:0:
256,192,66284,1,0,0:0:0:0:
475,192,66383,1,0,0:0:0:0:
182,192,66383,1,0,0:0:0:0:
329,192,66383,1,0,0:0:0:0:
182,192,66580,1,0,0:0:0:0:
329,192,66580,1,0,0:0:0:0:
402,192,66580,1,0,0:0:0:0:
256,192,66679,1,0,0:0:0:0:
475,192,66679,1,0,0:0:0:0:
402,192,66777,1,0,0:0:0:0:
329,192,66777,1,0,0:0:0:0:
36,192,66777,1,0,0:0:0:0:
182,192,66777,128,0,68356:0:0:0:0:
109,192,66975,1,0,0:0:0:0:
402,192,66975,1,0,0:0:0:0:
475,192,66975,1,0,0:0:0:0:
256,192,67073,1,0,0:0:0:0:
329,192,67073,1,0,0:0:0:0:
475,192,67172,1,0,0:0:0:0:
36,192,67172,1,0,0:0:0:0:
109,192,67172,1,0,0:0:0:0:
402,192,67172,1,0,0:0:0:0:
402,192,67369,1,0,0:0:0:0:
475,192,67369,1,0,0:0:0:0:
36,192,67468,1,0,0:0:0:0:
109,192,67468,1,0,0:0:0:0:
402,192,67567,1,0,0:0:0:0:
475,192,67567,1,0,0:0:0:0:
36,192,67666,1,0,0:0:0:0:
109,192,67666,1,0,0:0:0:0:
402,192,67764,1,0,0:0:0:0:
475,192,67764,1,0,0:0:0:0:
36,192,67863,1,0,0:0:0:0:
109,192,67863,1,0,0:0:0:0:
402,192,67962,128,0,68060:0:0:0:0:
475,192,67962,1,0,0:0:0:0:
36,192,68060,1,0,0:0:0:0:
109,192,68060,1,0,0:0:0:0:
329,192,68060,128,0,68356:0:0:0:0:
256,192,68159,1,0,0:0:0:0:
402,192,68159,1,0,0:0:0:0:
109,192,68258,1,0,0:0:0:0:
36,192,68356,1,0,0:0:0:0:
475,192,68356,1,0,0:0:0:0:
402,192,68356,128,0,69541:0:0:0:0:
256,192,68356,1,0,0:0:0:0:
182,192,68554,1,0,0:0:0:0:
475,192,68554,1,0,0:0:0:0:
109,192,68554,1,0,0:0:0:0:
256,192,68652,1,0,0:0:0:0:
36,192,68652,1,0,0:0:0:0:
109,192,68751,1,0,0:0:0:0:
329,192,68751,1,0,0:0:0:0:
182,192,68751,1,0,0:0:0:0:
329,192,68948,1,0,0:0:0:0:
36,192,68948,1,0,0:0:0:0:
109,192,68948,1,0,0:0:0:0:
256,192,68948,128,0,69146:0:0:0:0:
182,192,69047,1,0,0:0:0:0:
329,192,69146,128,0,69244:0:0:0:0:
109,192,69146,1,0,0:0:0:0:
475,192,69146,1,0,0:0:0:0:
256,192,69244,128,0,69343:0:0:0:0:
36,192,69244,1,0,0:0:0:0:
329,192,69343,1,0,0:0:0:0:
182,192,69343,128,0,69442:0:0:0:0:
109,192,69442,128,0,69541:0:0:0:0:
36,192,69541,1,0,0:0:0:0:
256,192,69541,1,0,0:0:0:0:
475,192,69541,1,0,0:0:0:0:
36,192,69738,1,0,0:0:0:0:
182,192,69738,1,0,0:0:0:0:
475,192,69738,1,0,0:0:0:0:
256,192,69738,128,0,70527:0:0:0:0:
402,192,69738,1,0,0:0:0:0:
329,192,70133,1,0,0:0:0:0:
402,192,70133,1,0,0:0:0:0:
475,192,70133,1,0,0:0:0:0:
36,192,70330,1,0,0:0:0:0:
109,192,70330,1,0,0:0:0:0:
182,192,70330,1,0,0:0:0:0:
36,192,70527,1,0,0:0:0:0:
109,192,70527,1,0,0:0:0:0:
329,192,70527,1,0,0:0:0:0:
402,192,70527,1,0,0:0:0:0:
182,192,70527,128,0,70922:0:0:0:0:
36,192,70922,1,0,0:0:0:0:
109,192,70922,1,0,0:0:0:0:
402,192,70922,1,0,0:0:0:0:
475,192,70922,1,0,0:0:0:0:
329,192,70922,128,0,71317:0:0:0:0:
36,192,71317,1,0,0:0:0:0:
182,192,71317,1,0,0:0:0:0:
109,192,71317,1,0,0:0:0:0:
402,192,71317,1,0,0:0:0:0:
475,192,71317,1,0,0:0:0:0:
256,192,71317,128,0,73685:0:0:0:0:
36,192,71712,1,0,0:0:0:0:
109,192,71712,128,0,71810:0:0:0:0:
329,192,71712,1,0,0:0:0:0:
182,192,71810,128,0,71909:0:0:0:0:
475,192,71810,1,0,0:0:0:0:
329,192,71909,128,0,72008:0:0:0:0:
36,192,71909,1,0,0:0:0:0:
402,192,71909,1,0,0:0:0:0:
475,192,72008,128,0,72106:0:0:0:0:
182,192,72008,1,0,0:0:0:0:
329,192,72106,1,0,0:0:0:0:
402,192,72106,128,0,72205:0:0:0:0:
182,192,72205,128,0,72304:0:0:0:0:
109,192,72205,1,0,0:0:0:0:
36,192,72304,128,0,72402:0:0:0:0:
329,192,72304,1,0,0:0:0:0:
402,192,72304,1,0,0:0:0:0:
182,192,72402,1,0,0:0:0:0:
475,192,72402,128,0,72501:0:0:0:0:
329,192,72501,128,0,72600:0:0:0:0:
402,192,72501,1,0,0:0:0:0:
36,192,72600,1,0,0:0:0:0:
109,192,72600,128,0,72698:0:0:0:0:
402,192,72698,128,0,72797:0:0:0:0:
182,192,72698,1,0,0:0:0:0:
329,192,72698,1,0,0:0:0:0:
475,192,72797,128,0,72896:0:0:0:0:
36,192,72797,1,0,0:0:0:0:
329,192,72896,1,0,0:0:0:0:
182,192,72896,128,0,72994:0:0:0:0:
109,192,72994,128,0,73093:0:0:0:0:
402,192,72994,1,0,0:0:0:0:
36,192,73093,128,0,73291:0:0:0:0:
182,192,73093,1,0,0:0:0:0:
329,192,73093,1,0,0:0:0:0:
475,192,73093,1,0,0:0:0:0:
329,192,73291,128,0,73389:0:0:0:0:
182,192,73291,1,0,0:0:0:0:
402,192,73389,128,0,73488:0:0:0:0:
109,192,73389,1,0,0:0:0:0:
182,192,73488,1,0,0:0:0:0:
475,192,73488,128,0,73587:0:0:0:0:
36,192,73488,1,0,0:0:0:0:
329,192,73488,1,0,0:0:0:0:
402,192,73587,128,0,73685:0:0:0:0:
329,192,73685,128,0,74277:0:0:0:0:
109,192,73685,1,0,0:0:0:0:
182,192,73685,1,0,0:0:0:0:
36,192,73685,1,0,0:0:0:0:
402,192,73784,1,0,0:0:0:0:
475,192,73784,1,0,0:0:0:0:
109,192,73883,1,0,0:0:0:0:
182,192,73883,1,0,0:0:0:0:
402,192,73981,1,0,0:0:0:0:
475,192,73981,1,0,0:0:0:0:
109,192,74080,1,0,0:0:0:0:
182,192,74080,1,0,0:0:0:0:
402,192,74179,1,0,0:0:0:0:
475,192,74179,1,0,0:0:0:0:
36,192,74277,1,0,0:0:0:0:
402,192,74277,128,0,74672:0:0:0:0:
109,192,74277,128,0,74376:0:0:0:0:
256,192,74277,1,0,0:0:0:0:
182,192,74376,128,0,74475:0:0:0:0:
329,192,74475,128,0,74573:0:0:0:0:
256,192,74573,128,0,74672:0:0:0:0:
36,192,74672,1,0,0:0:0:0:
182,192,74672,128,0,77830:0:0:0:0:
475,192,74672,1,0,0:0:0:0:
109,192,74672,1,0,0:0:0:0:
256,192,74869,1,0,0:0:0:0:
475,192,74869,1,0,0:0:0:0:
402,192,74968,1,0,0:0:0:0:
329,192,74968,1,0,0:0:0:0:
36,192,75067,1,0,0:0:0:0:
109,192,75067,1,0,0:0:0:0:
256,192,75067,1,0,0:0:0:0:
329,192,75264,1,0,0:0:0:0:
256,192,75264,1,0,0:0:0:0:
36,192,75363,1,0,0:0:0:0:
109,192,75363,1,0,0:0:0:0:
329,192,75462,128,0,76251:0:0:0:0:
402,192,75462,1,0,0:0:0:0:
475,192,75462,1,0,0:0:0:0:
36,192,75659,1,0,0:0:0:0:
109,192,75659,1,0,0:0:0:0:
256,192,75758,1,0,0:0:0:0:
402,192,75758,1,0,0:0:0:0:
475,192,75856,1,0,0:0:0:0:
109,192,75856,1,0,0:0:0:0:
36,192,75856,1,0,0:0:0:0:
256,192,76054,1,0,0:0:0:0:
109,192,76054,1,0,0:0:0:0:
402,192,76152,1,0,0:0:0:0:
475,192,76152,1,0,0:0:0:0:
109,192,76251,1,0,0:0:0:0:
256,192,76251,128,0,77041:0:0:0:0:
36,192,76251,1,0,0:0:0:0:
109,192,76646,1,0,0:0:0:0:
402,192,76646,1,0,0:0:0:0:
329,192,76646,1,0,0:0:0:0:
475,192,76646,1,0,0:0:0:0:
402,192,76843,1,0,0:0:0:0:
109,192,76843,1,0,0:0:0:0:
36,192,76843,1,0,0:0:0:0:
475,192,76843,1,0,0:0:0:0:
402,192,77041,1,0,0:0:0:0:
475,192,77041,128,0,77830:0:0:0:0:
36,192,77041,1,0,0:0:0:0:
109,192,77041,1,0,0:0:0:0:
402,192,77238,1,0,0:0:0:0:
109,192,77238,1,0,0:0:0:0:
329,192,77238,1,0,0:0:0:0:
36,192,77238,1,0,0:0:0:0:
329,192,77435,1,0,0:0:0:0:
402,192,77435,1,0,0:0:0:0:
109,192,77435,1,0,0:0:0:0:
402,192,77633,1,0,0:0:0:0:
329,192,77633,1,0,0:0:0:0:
256,192,77731,1,0,0:0:0:0:
109,192,77731,1,0,0:0:0:0:
36,192,77830,1,0,0:0:0:0:
329,192,77830,128,0,80988:0:0:0:0:
402,192,77830,1,0,0:0:0:0:
256,192,78027,1,0,0:0:0:0:
182,192,78027,1,0,0:0:0:0:
109,192,78126,1,0,0:0:0:0:
475,192,78126,1,0,0:0:0:0:
36,192,78225,1,0,0:0:0:0:
402,192,78225,1,0,0:0:0:0:
256,192,78225,128,0,78422:0:0:0:0:
182,192,78225,1,0,0:0:0:0:
402,192,78422,1,0,0:0:0:0:
182,192,78422,128,0,78817:0:0:0:0:
36,192,78422,1,0,0:0:0:0:
109,192,78521,1,0,0:0:0:0:
402,192,78619,1,0,0:0:0:0:
256,192,78619,1,0,0:0:0:0:
475,192,78619,1,0,0:0:0:0:
402,192,78817,1,0,0:0:0:0:
109,192,78817,1,0,0:0:0:0:
475,192,78817,128,0,79014:0:0:0:0:
182,192,78916,1,0,0:0:0:0:
256,192,78916,1,0,0:0:0:0:
36,192,79014,1,0,0:0:0:0:
109,192,79014,1,0,0:0:0:0:
402,192,79014,128,0,79212:0:0:0:0:
36,192,79212,1,0,0:0:0:0:
182,192,79212,1,0,0:0:0:0:
109,192,79212,128,0,79606:0:0:0:0:
256,192,79310,1,0,0:0:0:0:
182,192,79409,1,0,0:0:0:0:
402,192,79409,1,0,0:0:0:0:
475,192,79409,1,0,0:0:0:0:
36,192,79606,1,0,0:0:0:0:
402,192,79606,1,0,0:0:0:0:
256,192,79606,128,0,79804:0:0:0:0:
475,192,79606,1,0,0:0:0:0:
182,192,79705,1,0,0:0:0:0:
109,192,79705,1,0,0:0:0:0:
36,192,79804,1,0,0:0:0:0:
402,192,79804,1,0,0:0:0:0:
109,192,80001,1,0,0:0:0:0:
402,192,80001,1,0,0:0:0:0:
475,192,80001,1,0,0:0:0:0:
182,192,80001,128,0,80396:0:0:0:0:
36,192,80001,1,0,0:0:0:0:
36,192,80396,1,0,0:0:0:0:
402,192,80396,1,0,0:0:0:0:
475,192,80396,1,0,0:0:0:0:
109,192,80396,128,0,80791:0:0:0:0:
256,192,80593,1,0,0:0:0:0:
36,192,80593,128,0,80692:0:0:0:0:
182,192,80692,128,0,80791:0:0:0:0:
475,192,80791,128,0,80889:0:0:0:0:
36,192,80889,1,0,0:0:0:0:
256,192,80889,1,0,0:0:0:0:
109,192,80889,1,0,0:0:0:0:
402,192,80889,128,0,80988:0:0:0:0:
475,192,80988,1,0,0:0:0:0:
36,192,80988,1,0,0:0:0:0:
182,192,80988,1,0,0:0:0:0:
256,192,80988,128,0,83948:0:0:0:0:
329,192,81185,1,0,0:0:0:0:
109,192,81185,1,0,0:0:0:0:
475,192,81284,1,0,0:0:0:0:
182,192,81284,1,0,0:0:0:0:
36,192,81383,1,0,0:0:0:0:
329,192,81383,1,0,0:0:0:0:
402,192,81383,1,0,0:0:0:0:
109,192,81383,128,0,81580:0:0:0:0:
402,192,81580,1,0,0:0:0:0:
329,192,81580,128,0,81777:0:0:0:0:
109,192,81679,1,0,0:0:0:0:
182,192,81679,1,0,0:0:0:0:
402,192,81777,1,0,0:0:0:0:
36,192,81777,1,0,0:0:0:0:
475,192,81777,1,0,0:0:0:0:
402,192,81975,1,0,0:0:0:0:
475,192,81975,128,0,82172:0:0:0:0:
182,192,81975,1,0,0:0:0:0:
36,192,82073,1,0,0:0:0:0:
109,192,82073,1,0,0:0:0:0:
329,192,82172,1,0,0:0:0:0:
402,192,82172,128,0,82369:0:0:0:0:
182,192,82172,1,0,0:0:0:0:
109,192,82369,1,0,0:0:0:0:
182,192,82369,1,0,0:0:0:0:
329,192,82369,128,0,82567:0:0:0:0:
36,192,82468,1,0,0:0:0:0:
475,192,82468,1,0,0:0:0:0:
109,192,82567,1,0,0:0:0:0:
182,192,82567,1,0,0:0:0:0:
402,192,82567,1,0,0:0:0:0:
109,192,82764,1,0,0:0:0:0:
182,192,82764,1,0,0:0:0:0:
475,192,82764,1,0,0:0:0:0:
402,192,82863,1,0,0:0:0:0:
36,192,82863,1,0,0:0:0:0:
182,192,82962,1,0,0:0:0:0:
475,192,82962,1,0,0:0:0:0:
109,192,82962,1,0,0:0:0:0:
36,192,83060,1,0,0:0:0:0:
109,192,83159,1,0,0:0:0:0:
182,192,83159,1,0,0:0:0:0:
329,192,83159,1,0,0:0:0:0:
402,192,83159,128,0,83554:0:0:0:0:
36,192,83554,1,0,0:0:0:0:
182,192,83554,1,0,0:0:0:0:
329,192,83554,1,0,0:0:0:0:
475,192,83554,128,0,83948:0:0:0:0:
329,192,83751,1,0,0:0:0:0:
109,192,83751,128,0,83850:0:0:0:0:
182,192,83850,128,0,83948:0:0:0:0:
402,192,83948,1,0,0:0:0:0:
36,192,83948,1,0,0:0:0:0:
109,192,83948,1,0,0:0:0:0:
329,192,83948,128,0,85527:0:0:0:0:
402,192,84343,1,0,0:0:0:0:
109,192,84343,1,0,0:0:0:0:
182,192,84343,1,0,0:0:0:0:
36,192,84541,1,0,0:0:0:0:
109,192,84541,1,0,0:0:0:0:
402,192,84541,1,0,0:0:0:0:
182,192,84541,128,0,84738:0:0:0:0:
475,192,84738,1,0,0:0:0:0:
36,192,84738,1,0,0:0:0:0:
402,192,84738,128,0,84935:0:0:0:0:
256,192,84738,1,0,0:0:0:0:
36,192,85133,1,0,0:0:0:0:
475,192,85133,128,0,85330:0:0:0:0:
256,192,85133,1,0,0:0:0:0:
402,192,85133,1,0,0:0:0:0:
109,192,85133,1,0,0:0:0:0:
36,192,85527,1,0,0:0:0:0:
109,192,85527,1,0,0:0:0:0:
402,192,85527,1,0,0:0:0:0:
182,192,85527,128,0,86514:0:0:0:0:
402,192,85922,1,0,0:0:0:0:
329,192,85922,1,0,0:0:0:0:
36,192,86021,1,0,0:0:0:0:
109,192,86021,1,0,0:0:0:0:
256,192,86021,1,0,0:0:0:0:
329,192,86119,1,0,0:0:0:0:
402,192,86119,1,0,0:0:0:0:
109,192,86317,1,0,0:0:0:0:
36,192,86317,1,0,0:0:0:0:
402,192,86416,1,0,0:0:0:0:
475,192,86416,1,0,0:0:0:0:
329,192,86416,1,0,0:0:0:0:
256,192,86514,128,0,86712:0:0:0:0:
109,192,86514,1,0,0:0:0:0:
36,192,86514,1,0,0:0:0:0:
109,192,86712,1,0,0:0:0:0:
182,192,86712,1,0,0:0:0:0:
329,192,86810,1,0,0:0:0:0:
402,192,86810,1,0,0:0:0:0:
475,192,86810,1,0,0:0:0:0:
109,192,86909,1,0,0:0:0:0:
182,192,86909,1,0,0:0:0:0:
256,192,86909,1,0,0:0:0:0:
329,192,87008,1,0,0:0:0:0:
402,192,87008,1,0,0:0:0:0:
475,192,87008,1,0,0:0:0:0:
256,192,87106,1,0,0:0:0:0:
182,192,87106,1,0,0:0:0:0:
109,192,87106,1,0,0:0:0:0:
329,192,87205,1,0,0:0:0:0:
36,192,87304,128,0,88291:0:0:0:0:
402,192,87304,128,0,88291:0:0:0:0:
475,192,87304,128,0,88291:0:0:0:0:
109,192,87304,128,0,88291:0:0:0:0:
