osu file format v14

[General]
AudioFilename: audio.mp3
AudioLeadIn: 0
PreviewTime: 51087
Countdown: 0
SampleSet: Soft
StackLeniency: 0.7
Mode: 3
LetterboxInBreaks: 0
SpecialStyle: 0
WidescreenStoryboard: 1

[Editor]
DistanceSpacing: 0.6
BeatDivisor: 4
GridSize: 4
TimelineZoom: 2.6

[Metadata]
Title:Asterism
TitleUnicode:Asterism
Artist:ChouCho
ArtistUnicode:ChouCho
Creator:Illya X Ram Li
Version:7K EZ
Source:Fate/kaleid liner プリズマ☆イリヤ ドライ!!
Tags:Prisma☆Illya 3rei op opening anime loli etsu angki R e m u r i n g another lie
BeatmapID:1225223
BeatmapSetID:576914

[Difficulty]
HPDrainRate:7
CircleSize:7
OverallDifficulty:7
ApproachRate:5
SliderMultiplier:1.4
SliderTickRate:1

[Events]
//Background and Video events
0,0,"asterismbg.jpg",0,0
//Break Periods
//Storyboard Layer 0 (Background)
//Storyboard Layer 1 (Fail)
//Storyboard Layer 2 (Pass)
//Storyboard Layer 3 (Foreground)
//Storyboard Sound Samples

[TimingPoints]
462,375,4,2,1,20,1,0
1962,292.682926829268,4,2,1,20,1,0
1962,-125,4,2,1,20,0,0
3620,394.736842105263,4,2,1,20,1,0
52567,-100,4,2,1,20,0,1
65198,-100,4,2,1,20,0,0

[HitObjects]
36,192,462,128,0,1962:0:0:0:0:
475,192,1962,128,0,3132:0:0:0:0:
109,192,3620,1,0,0:0:0:0:
36,192,4014,1,0,0:0:0:0:
182,192,4409,1,0,0:0:0:0:
402,192,4606,1,0,0:0:0:0:
329,192,4804,1,0,0:0:0:0:
109,192,5198,1,0,0:0:0:0:
182,192,5593,1,0,0:0:0:0:
329,192,5988,1,0,0:0:0:0:
402,192,6383,1,0,0:0:0:0:
182,192,6777,1,0,0:0:0:0:
109,192,7172,1,0,0:0:0:0:
329,192,7172,1,0,0:0:0:0:
36,192,7567,1,0,0:0:0:0:
475,192,7567,1,0,0:0:0:0:
402,192,7962,1,0,0:0:0:0:
182,192,8356,1,0,0:0:0:0:
109,192,8751,1,0,0:0:0:0:
182,192,9146,1,0,0:0:0:0:
402,192,9146,1,0,0:0:0:0:
329,192,9541,1,0,0:0:0:0:
182,192,9935,1,0,0:0:0:0:
36,192,10330,1,0,0:0:0:0:
402,192,10725,1,0,0:0:0:0:
329,192,11119,1,0,0:0:0:0:
402,192,11416,128,0,12698:0:0:0:0:
182,192,13093,1,0,0:0:0:0:
109,192,13389,1,0,0:0:0:0:
36,192,13685,1,0,0:0:0:0:
109,192,13883,1,0,0:0:0:0:
402,192,14080,1,0,0:0:0:0:
182,192,14277,1,0,0:0:0:0:
256,192,14475,128,0,15856:0:0:0:0:
36,192,16251,1,0,0:0:0:0:
475,192,16251,1,0,0:0:0:0:
402,192,16646,1,0,0:0:0:0:
329,192,17041,1,0,0:0:0:0:
182,192,17435,1,0,0:0:0:0:
36,192,17830,1,0,0:0:0:0:
475,192,17830,1,0,0:0:0:0:
109,192,18225,1,0,0:0:0:0:
182,192,18619,1,0,0:0:0:0:
402,192,19014,1,0,0:0:0:0:
36,192,19409,1,0,0:0:0:0:
475,192,19409,1,0,0:0:0:0:
329,192,19804,1,0,0:0:0:0:
182,192,20198,1,0,0:0:0:0:
36,192,20593,1,0,0:0:0:0:
256,192,20988,1,0,0:0:0:0:
36,192,20988,1,0,0:0:0:0:
402,192,21383,1,0,0:0:0:0:
109,192,21777,1,0,0:0:0:0:
182,192,22172,1,0,0:0:0:0:
256,192,22567,1,0,0:0:0:0:
475,192,22567,1,0,0:0:0:0:
402,192,22962,1,0,0:0:0:0:
109,192,23356,1,0,0:0:0:0:
36,192,23751,1,0,0:0:0:0:
256,192,24146,1,0,0:0:0:0:
402,192,24146,1,0,0:0:0:0:
329,192,24541,1,0,0:0:0:0:
109,192,24935,1,0,0:0:0:0:
36,192,25330,1,0,0:0:0:0:
402,192,25725,1,0,0:0:0:0:
256,192,25725,1,0,0:0:0:0:
329,192,26119,1,0,0:0:0:0:
109,192,26514,1,0,0:0:0:0:
402,192,26712,1,0,0:0:0:0:
256,192,26909,1,0,0:0:0:0:
475,192,27106,1,0,0:0:0:0:
182,192,27106,1,0,0:0:0:0:
402,192,27501,1,0,0:0:0:0:
109,192,27501,1,0,0:0:0:0:
182,192,27896,1,0,0:0:0:0:
329,192,27896,1,0,0:0:0:0:
36,192,28883,1,0,0:0:0:0:
475,192,28883,1,0,0:0:0:0:
256,192,29277,1,0,0:0:0:0:
182,192,29277,1,0,0:0:0:0:
329,192,29672,1,0,0:0:0:0:
109,192,30067,1,0,0:0:0:0:
402,192,30067,1,0,0:0:0:0:
182,192,30462,1,0,0:0:0:0:
329,192,30659,1,0,0:0:0:0:
402,192,30856,1,0,0:0:0:0:
36,192,31054,1,0,0:0:0:0:
109,192,31646,1,0,0:0:0:0:
402,192,32041,1,0,0:0:0:0:
36,192,32435,1,0,0:0:0:0:
475,192,32435,1,0,0:0:0:0:
402,192,32830,1,0,0:0:0:0:
182,192,33225,1,0,0:0:0:0:
36,192,33619,1,0,0:0:0:0:
475,192,34014,1,0,0:0:0:0:
109,192,34014,1,0,0:0:0:0:
402,192,34409,1,0,0:0:0:0:
182,192,34606,1,0,0:0:0:0:
329,192,34804,1,0,0:0:0:0:
402,192,35198,1,0,0:0:0:0:
256,192,35593,1,0,0:0:0:0:
109,192,35593,1,0,0:0:0:0:
329,192,35988,1,0,0:0:0:0:
182,192,36383,1,0,0:0:0:0:
402,192,36777,1,0,0:0:0:0:
36,192,37172,1,0,0:0:0:0:
475,192,37172,1,0,0:0:0:0:
402,192,37567,1,0,0:0:0:0:
109,192,37962,1,0,0:0:0:0:
182,192,38356,1,0,0:0:0:0:
36,192,38751,1,0,0:0:0:0:
402,192,38751,1,0,0:0:0:0:
329,192,39146,1,0,0:0:0:0:
182,192,39343,1,0,0:0:0:0:
475,192,39541,1,0,0:0:0:0:
36,192,39738,1,0,0:0:0:0:
402,192,39738,1,0,0:0:0:0:
109,192,40133,1,0,0:0:0:0:
329,192,40133,1,0,0:0:0:0:
182,192,40527,1,0,0:0:0:0:
329,192,40527,1,0,0:0:0:0:
109,192,40725,1,0,0:0:0:0:
256,192,40725,1,0,0:0:0:0:
402,192,41119,1,0,0:0:0:0:
256,192,41514,128,0,43093:0:0:0:0:
182,192,43093,128,0,43883:0:0:0:0:
36,192,43883,128,0,44672:0:0:0:0:
109,192,44672,128,0,47238:0:0:0:0:
36,192,47633,1,0,0:0:0:0:
475,192,47633,1,0,0:0:0:0:
402,192,48225,1,0,0:0:0:0:
256,192,48422,1,0,0:0:0:0:
109,192,48422,1,0,0:0:0:0:
329,192,49014,1,0,0:0:0:0:
256,192,49212,1,0,0:0:0:0:
402,192,49212,1,0,0:0:0:0:
329,192,49804,1,0,0:0:0:0:
256,192,50001,1,0,0:0:0:0:
36,192,50001,1,0,0:0:0:0:
475,192,50791,128,0,52271:0:0:0:0:
36,192,52567,1,0,0:0:0:0:
402,192,52567,1,0,0:0:0:0:
109,192,52962,1,0,0:0:0:0:
182,192,53356,1,0,0:0:0:0:
329,192,53751,1,0,0:0:0:0:
36,192,54146,1,0,0:0:0:0:
402,192,54146,1,0,0:0:0:0:
329,192,54541,1,0,0:0:0:0:
182,192,54935,1,0,0:0:0:0:
109,192,55330,1,0,0:0:0:0:
36,192,55725,1,0,0:0:0:0:
402,192,55725,1,0,0:0:0:0:
182,192,56119,1,0,0:0:0:0:
475,192,56514,1,0,0:0:0:0:
402,192,56909,1,0,0:0:0:0:
256,192,57304,1,0,0:0:0:0:
36,192,57304,1,0,0:0:0:0:
329,192,57698,1,0,0:0:0:0:
109,192,58093,1,0,0:0:0:0:
36,192,58488,1,0,0:0:0:0:
256,192,58883,1,0,0:0:0:0:
182,192,58883,1,0,0:0:0:0:
329,192,59277,1,0,0:0:0:0:
182,192,59672,1,0,0:0:0:0:
36,192,60067,1,0,0:0:0:0:
109,192,60462,1,0,0:0:0:0:
475,192,60462,1,0,0:0:0:0:
402,192,60856,1,0,0:0:0:0:
329,192,61251,1,0,0:0:0:0:
182,192,61646,1,0,0:0:0:0:
36,192,62041,1,0,0:0:0:0:
402,192,62041,1,0,0:0:0:0:
329,192,62238,1,0,0:0:0:0:
109,192,62435,1,0,0:0:0:0:
182,192,62633,1,0,0:0:0:0:
36,192,62830,1,0,0:0:0:0:
182,192,63027,1,0,0:0:0:0:
402,192,63225,1,0,0:0:0:0:
109,192,63422,1,0,0:0:0:0:
256,192,63422,1,0,0:0:0:0:
256,192,63817,1,0,0:0:0:0:
402,192,63817,1,0,0:0:0:0:
402,192,64212,1,0,0:0:0:0:
109,192,64212,1,0,0:0:0:0:
182,192,64804,1,0,0:0:0:0:
329,192,64804,1,0,0:0:0:0:
36,192,65198,1,0,0:0:0:0:
475,192,65198,1,0,0:0:0:0:
329,192,65593,1,0,0:0:0:0:
182,192,65988,1,0,0:0:0:0:
36,192,66383,1,0,0:0:0:0:
109,192,66777,1,0,0:0:0:0:
402,192,66777,1,0,0:0:0:0:
329,192,67172,1,0,0:0:0:0:
182,192,67567,1,0,0:0:0:0:
36,192,67962,1,0,0:0:0:0:
256,192,68356,1,0,0:0:0:0:
182,192,68356,1,0,0:0:0:0:
329,192,68751,1,0,0:0:0:0:
109,192,69146,1,0,0:0:0:0:
402,192,69541,1,0,0:0:0:0:
36,192,69738,1,0,0:0:0:0:
256,192,69738,1,0,0:0:0:0:
182,192,70527,1,0,0:0:0:0:
475,192,70527,1,0,0:0:0:0:
36,192,70922,1,0,0:0:0:0:
329,192,70922,1,0,0:0:0:0:
402,192,71317,128,0,73488:0:0:0:0:
182,192,73488,1,0,0:0:0:0:
36,192,73685,1,0,0:0:0:0:
475,192,73685,1,0,0:0:0:0:
109,192,74672,128,0,77534:0:0:0:0:
36,192,77830,1,0,0:0:0:0:
475,192,77830,1,0,0:0:0:0:
402,192,78225,1,0,0:0:0:0:
109,192,78225,1,0,0:0:0:0:
182,192,78619,1,0,0:0:0:0:
36,192,79014,1,0,0:0:0:0:
402,192,79409,1,0,0:0:0:0:
329,192,79804,1,0,0:0:0:0:
182,192,80198,1,0,0:0:0:0:
109,192,80593,128,0,80988:0:0:0:0:
475,192,80988,1,0,0:0:0:0:
402,192,80988,1,0,0:0:0:0:
402,192,81383,1,0,0:0:0:0:
109,192,81777,1,0,0:0:0:0:
36,192,82172,1,0,0:0:0:0:
182,192,82567,1,0,0:0:0:0:
402,192,82764,1,0,0:0:0:0:
329,192,82962,1,0,0:0:0:0:
182,192,83356,1,0,0:0:0:0:
475,192,83554,1,0,0:0:0:0:
402,192,83948,128,0,84738:0:0:0:0:
109,192,83948,128,0,84738:0:0:0:0:
475,192,85133,1,0,0:0:0:0:
256,192,85527,128,0,87304:0:0:0:0:
182,192,87304,128,0,88291:0:0:0:0:
