osu file format v14

[General]
AudioFilename: audio.mp3
AudioLeadIn: 0
PreviewTime: 51087
Countdown: 0
SampleSet: Soft
StackLeniency: 0.7
Mode: 3
LetterboxInBreaks: 0
SpecialStyle: 0
WidescreenStoryboard: 0

[Editor]
DistanceSpacing: 0.6
BeatDivisor: 4
GridSize: 4
TimelineZoom: 2.9

[Metadata]
Title:Asterism
TitleUnicode:Asterism
Artist:ChouCho
ArtistUnicode:ChouCho
Creator:Illya X Ram Li
Version:4K MX Asterism
Source:Fate/kaleid liner プリズマ☆イリヤ ドライ!!
Tags:Prisma☆Illya 3rei op opening anime loli etsu angki R e m u r i n g another lie
BeatmapID:1221225
BeatmapSetID:576914

[Difficulty]
HPDrainRate:8
CircleSize:4
OverallDifficulty:8
ApproachRate:5
SliderMultiplier:1.4
SliderTickRate:1

[Events]
//Background and Video events
0,0,"asterismbg.jpg",0,0
//Break Periods
//Storyboard Layer 0 (Background)
//Storyboard Layer 1 (Fail)
//Storyboard Layer 2 (Pass)
//Storyboard Layer 3 (Foreground)
//Storyboard Sound Samples

[TimingPoints]
462,375,4,2,1,20,1,0
1962,292.682926829268,4,2,1,20,1,0
1962,-125,4,2,1,20,0,0
3132,-100,4,2,1,20,0,0
3279,-1000,4,2,1,20,0,0
3425,-66.6666666666667,4,2,1,20,0,0
3620,394.736842105263,4,2,1,20,1,0
3620,-100,4,2,1,20,0,0
52567,-100,4,2,1,20,0,1
65198,-100,4,2,1,20,0,0

[HitObjects]
192,192,462,128,0,1587:0:0:0:0:
448,192,1962,1,0,0:0:0:0:
320,192,2010,1,0,0:0:0:0:
192,192,2059,1,0,0:0:0:0:
64,192,2108,1,0,0:0:0:0:
448,192,2157,1,0,0:0:0:0:
320,192,2205,1,0,0:0:0:0:
192,192,2254,1,0,0:0:0:0:
64,192,2303,1,0,0:0:0:0:
448,192,2352,1,0,0:0:0:0:
320,192,2401,1,0,0:0:0:0:
192,192,2449,1,0,0:0:0:0:
64,192,2498,1,0,0:0:0:0:
448,192,2547,1,0,0:0:0:0:
320,192,2596,1,0,0:0:0:0:
192,192,2644,1,0,0:0:0:0:
64,192,2693,1,0,0:0:0:0:
448,192,2742,1,0,0:0:0:0:
320,192,2791,1,0,0:0:0:0:
192,192,2840,1,0,0:0:0:0:
64,192,2888,1,0,0:0:0:0:
448,192,2937,1,0,0:0:0:0:
320,192,2986,1,0,0:0:0:0:
192,192,3035,1,0,0:0:0:0:
64,192,3083,1,0,0:0:0:0:
192,192,3620,1,0,0:0:0:0:
320,192,3620,1,0,0:0:0:0:
448,192,3620,1,0,0:0:0:0:
320,192,3817,1,0,0:0:0:0:
448,192,3817,1,0,0:0:0:0:
64,192,3916,1,0,0:0:0:0:
192,192,3916,1,0,0:0:0:0:
448,192,4014,1,0,0:0:0:0:
320,192,4014,1,0,0:0:0:0:
320,192,4212,1,0,0:0:0:0:
448,192,4212,1,0,0:0:0:0:
64,192,4310,1,0,0:0:0:0:
192,192,4310,1,0,0:0:0:0:
448,192,4409,1,0,0:0:0:0:
320,192,4409,1,0,0:0:0:0:
448,192,4606,1,0,0:0:0:0:
64,192,4606,128,0,4804:0:0:0:0:
192,192,4804,1,0,0:0:0:0:
320,192,4804,128,0,5001:0:0:0:0:
64,192,5001,1,0,0:0:0:0:
448,192,5001,128,0,5198:0:0:0:0:
64,192,5198,1,0,0:0:0:0:
320,192,5198,1,0,0:0:0:0:
192,192,5198,128,0,5396:0:0:0:0:
448,192,5396,1,0,0:0:0:0:
320,192,5396,1,0,0:0:0:0:
192,192,5494,1,0,0:0:0:0:
64,192,5494,1,0,0:0:0:0:
320,192,5593,1,0,0:0:0:0:
448,192,5593,1,0,0:0:0:0:
192,192,5692,1,0,0:0:0:0:
64,192,5692,1,0,0:0:0:0:
320,192,5791,1,0,0:0:0:0:
448,192,5791,1,0,0:0:0:0:
192,192,5889,1,0,0:0:0:0:
64,192,5889,1,0,0:0:0:0:
448,192,5988,1,0,0:0:0:0:
320,192,5988,128,0,6185:0:0:0:0:
448,192,6185,1,0,0:0:0:0:
192,192,6185,1,0,0:0:0:0:
320,192,6383,1,0,0:0:0:0:
64,192,6383,1,0,0:0:0:0:
192,192,6383,128,0,6580:0:0:0:0:
448,192,6580,1,0,0:0:0:0:
320,192,6580,1,0,0:0:0:0:
64,192,6580,1,0,0:0:0:0:
320,192,6777,1,0,0:0:0:0:
64,192,6777,1,0,0:0:0:0:
192,192,6777,1,0,0:0:0:0:
448,192,6975,1,0,0:0:0:0:
320,192,6975,128,0,7172:0:0:0:0:
64,192,7172,1,0,0:0:0:0:
448,192,7172,1,0,0:0:0:0:
192,192,7172,128,0,7271:0:0:0:0:
64,192,7369,1,0,0:0:0:0:
192,192,7419,1,0,0:0:0:0:
320,192,7468,1,0,0:0:0:0:
448,192,7518,1,0,0:0:0:0:
64,192,7567,1,0,0:0:0:0:
192,192,7567,128,0,7764:0:0:0:0:
448,192,7764,1,0,0:0:0:0:
320,192,7764,128,0,7962:0:0:0:0:
448,192,7962,1,0,0:0:0:0:
192,192,7962,1,0,0:0:0:0:
64,192,7962,1,0,0:0:0:0:
192,192,8159,1,0,0:0:0:0:
320,192,8159,128,0,8356:0:0:0:0:
448,192,8356,1,0,0:0:0:0:
64,192,8356,1,0,0:0:0:0:
192,192,8356,1,0,0:0:0:0:
320,192,8554,1,0,0:0:0:0:
448,192,8554,1,0,0:0:0:0:
320,192,8751,1,0,0:0:0:0:
448,192,8751,1,0,0:0:0:0:
64,192,8751,1,0,0:0:0:0:
192,192,8751,1,0,0:0:0:0:
192,192,8948,1,0,0:0:0:0:
64,192,8948,1,0,0:0:0:0:
320,192,9047,1,0,0:0:0:0:
448,192,9047,1,0,0:0:0:0:
64,192,9146,1,0,0:0:0:0:
192,192,9146,1,0,0:0:0:0:
192,192,9343,1,0,0:0:0:0:
320,192,9343,128,0,9541:0:0:0:0:
192,192,9541,1,0,0:0:0:0:
448,192,9541,1,0,0:0:0:0:
64,192,9541,128,0,9738:0:0:0:0:
192,192,9738,1,0,0:0:0:0:
320,192,9738,128,0,9935:0:0:0:0:
448,192,9935,1,0,0:0:0:0:
64,192,9935,1,0,0:0:0:0:
192,192,9935,1,0,0:0:0:0:
320,192,10133,128,0,10330:0:0:0:0:
192,192,10330,1,0,0:0:0:0:
448,192,10330,1,0,0:0:0:0:
64,192,10330,128,0,10527:0:0:0:0:
320,192,10527,1,0,0:0:0:0:
448,192,10527,1,0,0:0:0:0:
192,192,10626,1,0,0:0:0:0:
64,192,10626,1,0,0:0:0:0:
320,192,10725,1,0,0:0:0:0:
448,192,10725,1,0,0:0:0:0:
64,192,10922,1,0,0:0:0:0:
192,192,10922,1,0,0:0:0:0:
448,192,10922,128,0,11119:0:0:0:0:
64,192,11119,1,0,0:0:0:0:
192,192,11119,128,0,11317:0:0:0:0:
320,192,11317,1,0,0:0:0:0:
64,192,11317,128,0,11416:0:0:0:0:
448,192,11481,1,0,0:0:0:0:
320,192,11547,1,0,0:0:0:0:
192,192,11613,1,0,0:0:0:0:
64,192,11679,1,0,0:0:0:0:
448,192,11744,1,0,0:0:0:0:
320,192,11810,1,0,0:0:0:0:
192,192,11876,1,0,0:0:0:0:
64,192,11942,1,0,0:0:0:0:
448,192,12008,1,0,0:0:0:0:
320,192,12073,1,0,0:0:0:0:
192,192,12139,1,0,0:0:0:0:
64,192,12205,1,0,0:0:0:0:
192,192,12304,1,0,0:0:0:0:
320,192,12304,1,0,0:0:0:0:
64,192,12501,1,0,0:0:0:0:
192,192,12501,1,0,0:0:0:0:
320,192,12600,1,0,0:0:0:0:
448,192,12600,1,0,0:0:0:0:
64,192,12698,1,0,0:0:0:0:
192,192,12698,1,0,0:0:0:0:
448,192,12896,1,0,0:0:0:0:
320,192,12896,128,0,12994:0:0:0:0:
64,192,12994,1,0,0:0:0:0:
192,192,12994,128,0,13093:0:0:0:0:
448,192,13093,1,0,0:0:0:0:
320,192,13093,128,0,13192:0:0:0:0:
64,192,13192,1,0,0:0:0:0:
192,192,13192,128,0,13291:0:0:0:0:
448,192,13291,1,0,0:0:0:0:
320,192,13291,128,0,13488:0:0:0:0:
64,192,13488,1,0,0:0:0:0:
192,192,13488,1,0,0:0:0:0:
320,192,13587,1,0,0:0:0:0:
448,192,13587,1,0,0:0:0:0:
64,192,13685,1,0,0:0:0:0:
192,192,13685,128,0,13784:0:0:0:0:
448,192,13784,1,0,0:0:0:0:
320,192,13784,128,0,13883:0:0:0:0:
64,192,13883,1,0,0:0:0:0:
192,192,13883,1,0,0:0:0:0:
320,192,13981,1,0,0:0:0:0:
448,192,13981,1,0,0:0:0:0:
64,192,14080,1,0,0:0:0:0:
192,192,14080,128,0,14179:0:0:0:0:
448,192,14179,1,0,0:0:0:0:
320,192,14179,1,0,0:0:0:0:
64,192,14277,1,0,0:0:0:0:
192,192,14277,1,0,0:0:0:0:
448,192,14376,1,0,0:0:0:0:
320,192,14376,128,0,14475:0:0:0:0:
64,192,14475,128,0,15264:0:0:0:0:
192,192,14475,128,0,14869:0:0:0:0:
320,192,15462,1,0,0:0:0:0:
448,192,15462,1,0,0:0:0:0:
192,192,15560,1,0,0:0:0:0:
64,192,15560,1,0,0:0:0:0:
320,192,15659,1,0,0:0:0:0:
448,192,15659,1,0,0:0:0:0:
64,192,15758,1,0,0:0:0:0:
192,192,15758,1,0,0:0:0:0:
320,192,15856,1,0,0:0:0:0:
448,192,15856,1,0,0:0:0:0:
64,192,15955,1,0,0:0:0:0:
192,192,15955,1,0,0:0:0:0:
320,192,16054,1,0,0:0:0:0:
448,192,16054,1,0,0:0:0:0:
192,192,16152,1,0,0:0:0:0:
64,192,16152,1,0,0:0:0:0:
64,192,16251,1,0,0:0:0:0:
320,192,16251,1,0,0:0:0:0:
448,192,16251,128,0,16448:0:0:0:0:
192,192,16448,1,0,0:0:0:0:
320,192,16448,128,0,16547:0:0:0:0:
448,192,16646,1,0,0:0:0:0:
64,192,16646,1,0,0:0:0:0:
192,192,16646,128,0,16744:0:0:0:0:
64,192,16843,1,0,0:0:0:0:
448,192,16843,1,0,0:0:0:0:
320,192,16843,128,0,16942:0:0:0:0:
448,192,17041,1,0,0:0:0:0:
64,192,17041,1,0,0:0:0:0:
192,192,17041,1,0,0:0:0:0:
320,192,17238,1,0,0:0:0:0:
448,192,17238,1,0,0:0:0:0:
448,192,17435,1,0,0:0:0:0:
192,192,17435,1,0,0:0:0:0:
64,192,17435,1,0,0:0:0:0:
320,192,17633,1,0,0:0:0:0:
192,192,17633,1,0,0:0:0:0:
448,192,17830,1,0,0:0:0:0:
64,192,17830,1,0,0:0:0:0:
192,192,17830,1,0,0:0:0:0:
64,192,18027,1,0,0:0:0:0:
192,192,18027,1,0,0:0:0:0:
64,192,18225,1,0,0:0:0:0:
320,192,18225,1,0,0:0:0:0:
448,192,18225,1,0,0:0:0:0:
320,192,18422,1,0,0:0:0:0:
448,192,18422,1,0,0:0:0:0:
448,192,18619,1,0,0:0:0:0:
192,192,18619,1,0,0:0:0:0:
64,192,18619,1,0,0:0:0:0:
320,192,18817,1,0,0:0:0:0:
192,192,18817,1,0,0:0:0:0:
448,192,19014,1,0,0:0:0:0:
64,192,19014,1,0,0:0:0:0:
320,192,19014,1,0,0:0:0:0:
320,192,19212,1,0,0:0:0:0:
64,192,19212,1,0,0:0:0:0:
192,192,19409,1,0,0:0:0:0:
320,192,19409,1,0,0:0:0:0:
448,192,19409,128,0,19508:0:0:0:0:
64,192,19606,1,0,0:0:0:0:
320,192,19606,128,0,19705:0:0:0:0:
320,192,19804,1,0,0:0:0:0:
448,192,19804,1,0,0:0:0:0:
64,192,19804,128,0,19902:0:0:0:0:
448,192,20001,1,0,0:0:0:0:
192,192,20001,1,0,0:0:0:0:
320,192,20001,128,0,20100:0:0:0:0:
320,192,20198,1,0,0:0:0:0:
192,192,20198,1,0,0:0:0:0:
64,192,20198,1,0,0:0:0:0:
448,192,20396,1,0,0:0:0:0:
192,192,20396,1,0,0:0:0:0:
320,192,20593,1,0,0:0:0:0:
64,192,20593,1,0,0:0:0:0:
192,192,20593,1,0,0:0:0:0:
320,192,20791,1,0,0:0:0:0:
64,192,20791,1,0,0:0:0:0:
192,192,20988,1,0,0:0:0:0:
448,192,20988,1,0,0:0:0:0:
320,192,20988,128,0,21087:0:0:0:0:
320,192,21185,1,0,0:0:0:0:
64,192,21185,128,0,21284:0:0:0:0:
64,192,21383,1,0,0:0:0:0:
192,192,21383,1,0,0:0:0:0:
448,192,21383,1,0,0:0:0:0:
320,192,21383,128,0,21481:0:0:0:0:
448,192,21580,1,0,0:0:0:0:
64,192,21580,1,0,0:0:0:0:
192,192,21580,128,0,21679:0:0:0:0:
320,192,21777,1,0,0:0:0:0:
192,192,21777,1,0,0:0:0:0:
320,192,21975,1,0,0:0:0:0:
64,192,21975,1,0,0:0:0:0:
448,192,22172,1,0,0:0:0:0:
192,192,22172,1,0,0:0:0:0:
320,192,22172,1,0,0:0:0:0:
320,192,22369,1,0,0:0:0:0:
192,192,22369,1,0,0:0:0:0:
64,192,22567,1,0,0:0:0:0:
448,192,22567,1,0,0:0:0:0:
192,192,22567,128,0,22666:0:0:0:0:
448,192,22764,1,0,0:0:0:0:
320,192,22764,128,0,22863:0:0:0:0:
320,192,22962,1,0,0:0:0:0:
192,192,22962,128,0,23060:0:0:0:0:
448,192,23159,1,0,0:0:0:0:
64,192,23159,1,0,0:0:0:0:
320,192,23159,128,0,23258:0:0:0:0:
64,192,23356,1,0,0:0:0:0:
448,192,23356,1,0,0:0:0:0:
192,192,23356,1,0,0:0:0:0:
320,192,23554,1,0,0:0:0:0:
192,192,23554,1,0,0:0:0:0:
448,192,23751,1,0,0:0:0:0:
64,192,23751,1,0,0:0:0:0:
320,192,23751,1,0,0:0:0:0:
64,192,23948,1,0,0:0:0:0:
192,192,23948,1,0,0:0:0:0:
448,192,24146,1,0,0:0:0:0:
64,192,24146,1,0,0:0:0:0:
192,192,24146,1,0,0:0:0:0:
320,192,24343,1,0,0:0:0:0:
448,192,24343,1,0,0:0:0:0:
192,192,24541,1,0,0:0:0:0:
320,192,24541,1,0,0:0:0:0:
64,192,24541,1,0,0:0:0:0:
320,192,24738,1,0,0:0:0:0:
192,192,24738,1,0,0:0:0:0:
192,192,24935,1,0,0:0:0:0:
448,192,24935,1,0,0:0:0:0:
64,192,24935,1,0,0:0:0:0:
320,192,25133,1,0,0:0:0:0:
448,192,25133,1,0,0:0:0:0:
448,192,25330,1,0,0:0:0:0:
64,192,25330,1,0,0:0:0:0:
192,192,25330,1,0,0:0:0:0:
192,192,25527,1,0,0:0:0:0:
448,192,25527,1,0,0:0:0:0:
192,192,25725,1,0,0:0:0:0:
320,192,25725,1,0,0:0:0:0:
448,192,25725,128,0,25823:0:0:0:0:
64,192,25922,1,0,0:0:0:0:
320,192,25922,128,0,26021:0:0:0:0:
192,192,26119,1,0,0:0:0:0:
448,192,26119,1,0,0:0:0:0:
64,192,26119,128,0,26218:0:0:0:0:
320,192,26317,1,0,0:0:0:0:
64,192,26317,1,0,0:0:0:0:
192,192,26317,128,0,26416:0:0:0:0:
448,192,26514,128,0,26909:0:0:0:0:
64,192,26712,1,0,0:0:0:0:
192,192,26712,1,0,0:0:0:0:
192,192,26909,1,0,0:0:0:0:
320,192,26909,1,0,0:0:0:0:
64,192,27106,1,0,0:0:0:0:
320,192,27106,1,0,0:0:0:0:
192,192,27106,128,0,27402:0:0:0:0:
448,192,27106,1,0,0:0:0:0:
448,192,27501,1,0,0:0:0:0:
192,192,27501,1,0,0:0:0:0:
64,192,27501,1,0,0:0:0:0:
320,192,27501,128,0,27797:0:0:0:0:
192,192,27896,1,0,0:0:0:0:
448,192,27896,1,0,0:0:0:0:
320,192,27896,1,0,0:0:0:0:
64,192,27896,128,0,28389:0:0:0:0:
448,192,28488,1,0,0:0:0:0:
320,192,28521,1,0,0:0:0:0:
192,192,28554,1,0,0:0:0:0:
64,192,28587,1,0,0:0:0:0:
448,192,28619,1,0,0:0:0:0:
320,192,28652,1,0,0:0:0:0:
192,192,28685,1,0,0:0:0:0:
64,192,28718,1,0,0:0:0:0:
448,192,28751,1,0,0:0:0:0:
320,192,28784,1,0,0:0:0:0:
192,192,28817,1,0,0:0:0:0:
64,192,28850,1,0,0:0:0:0:
448,192,28883,1,0,0:0:0:0:
320,192,28883,1,0,0:0:0:0:
320,192,29080,1,0,0:0:0:0:
192,192,29080,1,0,0:0:0:0:
64,192,29277,1,0,0:0:0:0:
448,192,29277,1,0,0:0:0:0:
192,192,29277,128,0,29475:0:0:0:0:
320,192,29475,1,0,0:0:0:0:
64,192,29475,1,0,0:0:0:0:
64,192,29672,1,0,0:0:0:0:
320,192,29672,1,0,0:0:0:0:
448,192,29672,1,0,0:0:0:0:
192,192,29869,1,0,0:0:0:0:
320,192,29869,128,0,30067:0:0:0:0:
448,192,30067,1,0,0:0:0:0:
64,192,30067,1,0,0:0:0:0:
192,192,30067,1,0,0:0:0:0:
448,192,30264,1,0,0:0:0:0:
320,192,30462,1,0,0:0:0:0:
448,192,30462,1,0,0:0:0:0:
64,192,30462,1,0,0:0:0:0:
192,192,30462,1,0,0:0:0:0:
448,192,30659,1,0,0:0:0:0:
320,192,30708,1,0,0:0:0:0:
192,192,30758,1,0,0:0:0:0:
64,192,30807,1,0,0:0:0:0:
448,192,30856,1,0,0:0:0:0:
320,192,30856,1,0,0:0:0:0:
448,192,31054,1,0,0:0:0:0:
64,192,31054,1,0,0:0:0:0:
320,192,31054,1,0,0:0:0:0:
320,192,31251,1,0,0:0:0:0:
192,192,31251,1,0,0:0:0:0:
448,192,31251,1,0,0:0:0:0:
64,192,31448,1,0,0:0:0:0:
320,192,31448,1,0,0:0:0:0:
64,192,31646,1,0,0:0:0:0:
320,192,31646,1,0,0:0:0:0:
448,192,31646,1,0,0:0:0:0:
448,192,31843,1,0,0:0:0:0:
192,192,31843,1,0,0:0:0:0:
64,192,32041,1,0,0:0:0:0:
448,192,32041,1,0,0:0:0:0:
192,192,32041,1,0,0:0:0:0:
192,192,32238,1,0,0:0:0:0:
320,192,32238,1,0,0:0:0:0:
64,192,32435,1,0,0:0:0:0:
448,192,32435,1,0,0:0:0:0:
320,192,32435,128,0,32633:0:0:0:0:
448,192,32633,1,0,0:0:0:0:
192,192,32633,1,0,0:0:0:0:
320,192,32830,1,0,0:0:0:0:
64,192,32830,1,0,0:0:0:0:
448,192,32830,1,0,0:0:0:0:
448,192,33027,1,0,0:0:0:0:
192,192,33027,128,0,33225:0:0:0:0:
64,192,33225,1,0,0:0:0:0:
320,192,33225,1,0,0:0:0:0:
448,192,33225,1,0,0:0:0:0:
192,192,33422,1,0,0:0:0:0:
448,192,33422,1,0,0:0:0:0:
320,192,33619,1,0,0:0:0:0:
64,192,33619,1,0,0:0:0:0:
448,192,33619,1,0,0:0:0:0:
320,192,33817,1,0,0:0:0:0:
64,192,33817,1,0,0:0:0:0:
64,192,34014,1,0,0:0:0:0:
320,192,34014,1,0,0:0:0:0:
448,192,34014,1,0,0:0:0:0:
192,192,34212,1,0,0:0:0:0:
448,192,34212,1,0,0:0:0:0:
64,192,34409,1,0,0:0:0:0:
320,192,34409,1,0,0:0:0:0:
448,192,34409,1,0,0:0:0:0:
64,192,34606,1,0,0:0:0:0:
448,192,34606,1,0,0:0:0:0:
192,192,34606,1,0,0:0:0:0:
448,192,34804,1,0,0:0:0:0:
320,192,34837,1,0,0:0:0:0:
192,192,34869,1,0,0:0:0:0:
64,192,34902,1,0,0:0:0:0:
448,192,34935,1,0,0:0:0:0:
320,192,34968,1,0,0:0:0:0:
192,192,35001,1,0,0:0:0:0:
64,192,35034,1,0,0:0:0:0:
448,192,35067,1,0,0:0:0:0:
320,192,35100,1,0,0:0:0:0:
192,192,35133,1,0,0:0:0:0:
64,192,35166,1,0,0:0:0:0:
320,192,35198,1,0,0:0:0:0:
448,192,35198,1,0,0:0:0:0:
64,192,35396,1,0,0:0:0:0:
320,192,35396,1,0,0:0:0:0:
64,192,35593,1,0,0:0:0:0:
192,192,35593,1,0,0:0:0:0:
448,192,35593,128,0,35791:0:0:0:0:
64,192,35791,1,0,0:0:0:0:
320,192,35791,1,0,0:0:0:0:
64,192,35988,1,0,0:0:0:0:
448,192,35988,1,0,0:0:0:0:
192,192,35988,1,0,0:0:0:0:
320,192,36185,1,0,0:0:0:0:
192,192,36185,128,0,36383:0:0:0:0:
448,192,36383,1,0,0:0:0:0:
64,192,36383,1,0,0:0:0:0:
320,192,36383,1,0,0:0:0:0:
64,192,36580,1,0,0:0:0:0:
192,192,36580,1,0,0:0:0:0:
64,192,36777,1,0,0:0:0:0:
448,192,36777,1,0,0:0:0:0:
320,192,36777,1,0,0:0:0:0:
320,192,36975,1,0,0:0:0:0:
448,192,36975,1,0,0:0:0:0:
64,192,37172,1,0,0:0:0:0:
192,192,37172,1,0,0:0:0:0:
448,192,37172,1,0,0:0:0:0:
448,192,37369,1,0,0:0:0:0:
64,192,37369,1,0,0:0:0:0:
320,192,37567,1,0,0:0:0:0:
192,192,37567,1,0,0:0:0:0:
448,192,37567,1,0,0:0:0:0:
320,192,37764,1,0,0:0:0:0:
64,192,37764,1,0,0:0:0:0:
64,192,37962,1,0,0:0:0:0:
448,192,37962,1,0,0:0:0:0:
320,192,37962,1,0,0:0:0:0:
448,192,38159,1,0,0:0:0:0:
192,192,38159,1,0,0:0:0:0:
64,192,38356,1,0,0:0:0:0:
448,192,38356,1,0,0:0:0:0:
192,192,38356,1,0,0:0:0:0:
448,192,38554,1,0,0:0:0:0:
320,192,38554,1,0,0:0:0:0:
64,192,38751,1,0,0:0:0:0:
448,192,38751,1,0,0:0:0:0:
192,192,38751,128,0,38948:0:0:0:0:
320,192,38948,1,0,0:0:0:0:
448,192,38948,1,0,0:0:0:0:
320,192,39146,1,0,0:0:0:0:
192,192,39146,1,0,0:0:0:0:
64,192,39146,1,0,0:0:0:0:
192,192,39343,1,0,0:0:0:0:
320,192,39343,128,0,39541:0:0:0:0:
64,192,39541,1,0,0:0:0:0:
192,192,39541,1,0,0:0:0:0:
448,192,39541,1,0,0:0:0:0:
320,192,39738,1,0,0:0:0:0:
448,192,39738,1,0,0:0:0:0:
64,192,39738,1,0,0:0:0:0:
192,192,39738,128,0,40034:0:0:0:0:
192,192,40133,1,0,0:0:0:0:
64,192,40133,1,0,0:0:0:0:
448,192,40133,1,0,0:0:0:0:
320,192,40133,128,0,40429:0:0:0:0:
64,192,40527,1,0,0:0:0:0:
192,192,40527,1,0,0:0:0:0:
448,192,40527,1,0,0:0:0:0:
320,192,40527,1,0,0:0:0:0:
448,192,40725,1,0,0:0:0:0:
64,192,40725,1,0,0:0:0:0:
320,192,40725,1,0,0:0:0:0:
192,192,40725,128,0,40922:0:0:0:0:
448,192,41119,1,0,0:0:0:0:
320,192,41152,1,0,0:0:0:0:
192,192,41185,1,0,0:0:0:0:
64,192,41218,1,0,0:0:0:0:
448,192,41251,1,0,0:0:0:0:
320,192,41284,1,0,0:0:0:0:
192,192,41317,1,0,0:0:0:0:
64,192,41350,1,0,0:0:0:0:
448,192,41383,1,0,0:0:0:0:
320,192,41416,1,0,0:0:0:0:
192,192,41448,1,0,0:0:0:0:
64,192,41481,1,0,0:0:0:0:
448,192,41514,1,0,0:0:0:0:
320,192,41514,128,0,41712:0:0:0:0:
192,192,41712,1,0,0:0:0:0:
448,192,41712,1,0,0:0:0:0:
320,192,41810,1,0,0:0:0:0:
448,192,41909,1,0,0:0:0:0:
64,192,41909,1,0,0:0:0:0:
192,192,41909,1,0,0:0:0:0:
64,192,42106,1,0,0:0:0:0:
320,192,42106,1,0,0:0:0:0:
192,192,42205,1,0,0:0:0:0:
448,192,42304,1,0,0:0:0:0:
64,192,42304,1,0,0:0:0:0:
320,192,42304,1,0,0:0:0:0:
448,192,42501,1,0,0:0:0:0:
192,192,42501,1,0,0:0:0:0:
448,192,42698,1,0,0:0:0:0:
64,192,42698,1,0,0:0:0:0:
192,192,42698,1,0,0:0:0:0:
192,192,42896,1,0,0:0:0:0:
320,192,42896,1,0,0:0:0:0:
320,192,43093,1,0,0:0:0:0:
64,192,43093,1,0,0:0:0:0:
192,192,43291,1,0,0:0:0:0:
64,192,43291,1,0,0:0:0:0:
320,192,43389,1,0,0:0:0:0:
448,192,43488,1,0,0:0:0:0:
64,192,43488,1,0,0:0:0:0:
192,192,43488,1,0,0:0:0:0:
192,192,43685,1,0,0:0:0:0:
320,192,43685,1,0,0:0:0:0:
448,192,43883,1,0,0:0:0:0:
64,192,43883,1,0,0:0:0:0:
192,192,43883,1,0,0:0:0:0:
448,192,44080,1,0,0:0:0:0:
320,192,44080,1,0,0:0:0:0:
448,192,44277,1,0,0:0:0:0:
320,192,44277,1,0,0:0:0:0:
64,192,44277,1,0,0:0:0:0:
448,192,44475,1,0,0:0:0:0:
320,192,44475,1,0,0:0:0:0:
64,192,44672,1,0,0:0:0:0:
192,192,44672,1,0,0:0:0:0:
448,192,44672,128,0,44869:0:0:0:0:
320,192,44869,1,0,0:0:0:0:
64,192,44869,1,0,0:0:0:0:
192,192,44968,1,0,0:0:0:0:
320,192,45067,1,0,0:0:0:0:
64,192,45067,1,0,0:0:0:0:
448,192,45067,1,0,0:0:0:0:
192,192,45264,1,0,0:0:0:0:
448,192,45264,1,0,0:0:0:0:
320,192,45363,1,0,0:0:0:0:
64,192,45462,1,0,0:0:0:0:
448,192,45462,1,0,0:0:0:0:
192,192,45462,1,0,0:0:0:0:
320,192,45659,1,0,0:0:0:0:
64,192,45659,1,0,0:0:0:0:
448,192,45856,1,0,0:0:0:0:
64,192,45856,1,0,0:0:0:0:
192,192,45856,1,0,0:0:0:0:
320,192,46054,1,0,0:0:0:0:
448,192,46054,1,0,0:0:0:0:
448,192,46251,1,0,0:0:0:0:
64,192,46251,1,0,0:0:0:0:
192,192,46251,1,0,0:0:0:0:
192,192,46448,1,0,0:0:0:0:
320,192,46448,128,0,46646:0:0:0:0:
64,192,46646,1,0,0:0:0:0:
448,192,46646,1,0,0:0:0:0:
192,192,46646,128,0,46843:0:0:0:0:
448,192,46843,1,0,0:0:0:0:
320,192,46843,128,0,47041:0:0:0:0:
448,192,47041,1,0,0:0:0:0:
192,192,47041,1,0,0:0:0:0:
64,192,47041,1,0,0:0:0:0:
448,192,47238,1,0,0:0:0:0:
320,192,47238,1,0,0:0:0:0:
64,192,47238,1,0,0:0:0:0:
64,192,47435,1,0,0:0:0:0:
192,192,47435,1,0,0:0:0:0:
448,192,47435,1,0,0:0:0:0:
64,192,47633,1,0,0:0:0:0:
192,192,47633,1,0,0:0:0:0:
448,192,47633,1,0,0:0:0:0:
320,192,47633,128,0,47929:0:0:0:0:
192,192,48027,1,0,0:0:0:0:
320,192,48027,1,0,0:0:0:0:
64,192,48027,1,0,0:0:0:0:
192,192,48225,1,0,0:0:0:0:
448,192,48225,1,0,0:0:0:0:
320,192,48225,1,0,0:0:0:0:
64,192,48422,1,0,0:0:0:0:
448,192,48422,1,0,0:0:0:0:
320,192,48422,1,0,0:0:0:0:
192,192,48422,128,0,48718:0:0:0:0:
448,192,48817,1,0,0:0:0:0:
64,192,48817,1,0,0:0:0:0:
320,192,48817,1,0,0:0:0:0:
64,192,49014,1,0,0:0:0:0:
192,192,49014,1,0,0:0:0:0:
448,192,49014,1,0,0:0:0:0:
448,192,49212,1,0,0:0:0:0:
64,192,49212,1,0,0:0:0:0:
320,192,49212,1,0,0:0:0:0:
192,192,49212,128,0,49508:0:0:0:0:
448,192,49606,1,0,0:0:0:0:
64,192,49606,1,0,0:0:0:0:
192,192,49606,1,0,0:0:0:0:
64,192,49804,1,0,0:0:0:0:
448,192,49804,1,0,0:0:0:0:
320,192,49804,1,0,0:0:0:0:
448,192,50001,1,0,0:0:0:0:
64,192,50001,1,0,0:0:0:0:
192,192,50001,1,0,0:0:0:0:
320,192,50001,128,0,50297:0:0:0:0:
448,192,50396,1,0,0:0:0:0:
320,192,50462,1,0,0:0:0:0:
64,192,50527,1,0,0:0:0:0:
192,192,50593,1,0,0:0:0:0:
320,192,50659,1,0,0:0:0:0:
448,192,50725,1,0,0:0:0:0:
64,192,50791,128,0,51185:0:0:0:0:
192,192,50791,128,0,51185:0:0:0:0:
320,192,50791,128,0,51185:0:0:0:0:
448,192,51185,1,0,0:0:0:0:
448,192,51383,1,0,0:0:0:0:
192,192,51580,1,0,0:0:0:0:
192,192,51777,1,0,0:0:0:0:
320,192,51975,1,0,0:0:0:0:
64,192,52172,1,0,0:0:0:0:
192,192,52205,1,0,0:0:0:0:
320,192,52238,1,0,0:0:0:0:
448,192,52271,1,0,0:0:0:0:
64,192,52304,1,0,0:0:0:0:
192,192,52337,1,0,0:0:0:0:
320,192,52369,1,0,0:0:0:0:
448,192,52402,1,0,0:0:0:0:
64,192,52435,1,0,0:0:0:0:
192,192,52468,1,0,0:0:0:0:
320,192,52501,1,0,0:0:0:0:
448,192,52534,1,0,0:0:0:0:
64,192,52567,1,0,0:0:0:0:
192,192,52567,128,0,52962:0:0:0:0:
320,192,52764,1,0,0:0:0:0:
448,192,52764,1,0,0:0:0:0:
64,192,52962,1,0,0:0:0:0:
448,192,52962,1,0,0:0:0:0:
320,192,52962,1,0,0:0:0:0:
448,192,53159,1,0,0:0:0:0:
64,192,53159,1,0,0:0:0:0:
192,192,53258,1,0,0:0:0:0:
320,192,53258,1,0,0:0:0:0:
64,192,53356,1,0,0:0:0:0:
448,192,53356,1,0,0:0:0:0:
320,192,53455,1,0,0:0:0:0:
192,192,53455,1,0,0:0:0:0:
64,192,53554,1,0,0:0:0:0:
448,192,53554,1,0,0:0:0:0:
320,192,53751,1,0,0:0:0:0:
448,192,53751,1,0,0:0:0:0:
64,192,53751,1,0,0:0:0:0:
448,192,53948,1,0,0:0:0:0:
320,192,53948,1,0,0:0:0:0:
448,192,54146,1,0,0:0:0:0:
64,192,54146,1,0,0:0:0:0:
192,192,54146,128,0,54541:0:0:0:0:
448,192,54343,1,0,0:0:0:0:
320,192,54343,1,0,0:0:0:0:
448,192,54541,1,0,0:0:0:0:
64,192,54541,1,0,0:0:0:0:
320,192,54541,1,0,0:0:0:0:
448,192,54738,1,0,0:0:0:0:
320,192,54738,1,0,0:0:0:0:
192,192,54837,1,0,0:0:0:0:
64,192,54837,1,0,0:0:0:0:
448,192,54935,1,0,0:0:0:0:
320,192,54935,1,0,0:0:0:0:
192,192,55034,1,0,0:0:0:0:
64,192,55034,1,0,0:0:0:0:
448,192,55133,1,0,0:0:0:0:
320,192,55133,1,0,0:0:0:0:
192,192,55231,1,0,0:0:0:0:
64,192,55231,1,0,0:0:0:0:
448,192,55330,1,0,0:0:0:0:
64,192,55330,1,0,0:0:0:0:
320,192,55330,1,0,0:0:0:0:
320,192,55527,1,0,0:0:0:0:
448,192,55527,1,0,0:0:0:0:
448,192,55725,1,0,0:0:0:0:
64,192,55725,1,0,0:0:0:0:
320,192,55725,128,0,56119:0:0:0:0:
448,192,55922,1,0,0:0:0:0:
192,192,55922,1,0,0:0:0:0:
64,192,56119,1,0,0:0:0:0:
448,192,56119,1,0,0:0:0:0:
192,192,56119,1,0,0:0:0:0:
64,192,56317,1,0,0:0:0:0:
192,192,56317,1,0,0:0:0:0:
448,192,56416,1,0,0:0:0:0:
320,192,56416,1,0,0:0:0:0:
192,192,56514,1,0,0:0:0:0:
64,192,56514,1,0,0:0:0:0:
448,192,56613,1,0,0:0:0:0:
320,192,56613,1,0,0:0:0:0:
192,192,56712,1,0,0:0:0:0:
64,192,56712,1,0,0:0:0:0:
320,192,56810,1,0,0:0:0:0:
448,192,56810,1,0,0:0:0:0:
448,192,56909,1,0,0:0:0:0:
192,192,56909,1,0,0:0:0:0:
64,192,56909,1,0,0:0:0:0:
320,192,57106,1,0,0:0:0:0:
192,192,57106,1,0,0:0:0:0:
448,192,57304,1,0,0:0:0:0:
64,192,57304,1,0,0:0:0:0:
192,192,57304,128,0,57698:0:0:0:0:
320,192,57501,1,0,0:0:0:0:
448,192,57501,1,0,0:0:0:0:
448,192,57698,1,0,0:0:0:0:
64,192,57698,1,0,0:0:0:0:
320,192,57698,1,0,0:0:0:0:
448,192,57896,1,0,0:0:0:0:
64,192,57896,1,0,0:0:0:0:
192,192,57994,1,0,0:0:0:0:
320,192,57994,1,0,0:0:0:0:
448,192,58093,1,0,0:0:0:0:
64,192,58093,1,0,0:0:0:0:
192,192,58192,1,0,0:0:0:0:
320,192,58192,1,0,0:0:0:0:
448,192,58291,1,0,0:0:0:0:
64,192,58291,1,0,0:0:0:0:
192,192,58389,1,0,0:0:0:0:
320,192,58389,1,0,0:0:0:0:
448,192,58488,1,0,0:0:0:0:
64,192,58488,1,0,0:0:0:0:
192,192,58685,1,0,0:0:0:0:
320,192,58685,1,0,0:0:0:0:
64,192,58883,1,0,0:0:0:0:
192,192,58883,1,0,0:0:0:0:
448,192,58883,128,0,59080:0:0:0:0:
192,192,59080,1,0,0:0:0:0:
320,192,59080,1,0,0:0:0:0:
320,192,59277,1,0,0:0:0:0:
448,192,59277,1,0,0:0:0:0:
64,192,59277,1,0,0:0:0:0:
320,192,59475,1,0,0:0:0:0:
192,192,59475,1,0,0:0:0:0:
64,192,59573,1,0,0:0:0:0:
448,192,59573,1,0,0:0:0:0:
192,192,59672,1,0,0:0:0:0:
320,192,59672,1,0,0:0:0:0:
64,192,59771,1,0,0:0:0:0:
448,192,59771,1,0,0:0:0:0:
192,192,59869,1,0,0:0:0:0:
320,192,59869,1,0,0:0:0:0:
448,192,60067,1,0,0:0:0:0:
64,192,60067,1,0,0:0:0:0:
320,192,60067,1,0,0:0:0:0:
448,192,60264,1,0,0:0:0:0:
192,192,60264,1,0,0:0:0:0:
448,192,60462,1,0,0:0:0:0:
64,192,60462,1,0,0:0:0:0:
192,192,60462,128,0,60659:0:0:0:0:
64,192,60659,1,0,0:0:0:0:
320,192,60659,1,0,0:0:0:0:
448,192,60856,1,0,0:0:0:0:
64,192,60856,1,0,0:0:0:0:
192,192,60856,1,0,0:0:0:0:
448,192,61054,1,0,0:0:0:0:
320,192,61054,1,0,0:0:0:0:
192,192,61152,1,0,0:0:0:0:
64,192,61152,1,0,0:0:0:0:
448,192,61251,1,0,0:0:0:0:
320,192,61251,1,0,0:0:0:0:
64,192,61350,1,0,0:0:0:0:
192,192,61350,1,0,0:0:0:0:
448,192,61448,1,0,0:0:0:0:
320,192,61448,1,0,0:0:0:0:
64,192,61448,1,0,0:0:0:0:
64,192,61646,1,0,0:0:0:0:
448,192,61646,1,0,0:0:0:0:
192,192,61646,1,0,0:0:0:0:
64,192,61843,1,0,0:0:0:0:
448,192,61843,1,0,0:0:0:0:
320,192,61843,1,0,0:0:0:0:
64,192,62041,1,0,0:0:0:0:
192,192,62041,1,0,0:0:0:0:
448,192,62139,1,0,0:0:0:0:
320,192,62139,1,0,0:0:0:0:
192,192,62238,1,0,0:0:0:0:
64,192,62238,1,0,0:0:0:0:
320,192,62337,1,0,0:0:0:0:
448,192,62337,1,0,0:0:0:0:
192,192,62435,1,0,0:0:0:0:
64,192,62435,1,0,0:0:0:0:
320,192,62534,1,0,0:0:0:0:
448,192,62534,1,0,0:0:0:0:
64,192,62633,1,0,0:0:0:0:
192,192,62633,1,0,0:0:0:0:
320,192,62731,1,0,0:0:0:0:
448,192,62731,1,0,0:0:0:0:
64,192,62830,1,0,0:0:0:0:
192,192,62830,1,0,0:0:0:0:
320,192,62929,1,0,0:0:0:0:
448,192,62929,1,0,0:0:0:0:
64,192,63027,1,0,0:0:0:0:
192,192,63027,1,0,0:0:0:0:
320,192,63126,1,0,0:0:0:0:
448,192,63126,1,0,0:0:0:0:
192,192,63225,1,0,0:0:0:0:
64,192,63225,1,0,0:0:0:0:
448,192,63422,1,0,0:0:0:0:
320,192,63422,1,0,0:0:0:0:
192,192,63422,1,0,0:0:0:0:
64,192,63422,128,0,63718:0:0:0:0:
448,192,63817,1,0,0:0:0:0:
64,192,63817,1,0,0:0:0:0:
192,192,63817,1,0,0:0:0:0:
320,192,63817,128,0,64113:0:0:0:0:
320,192,64212,1,0,0:0:0:0:
448,192,64212,1,0,0:0:0:0:
64,192,64212,1,0,0:0:0:0:
192,192,64212,128,0,64508:0:0:0:0:
448,192,64606,1,0,0:0:0:0:
320,192,64639,1,0,0:0:0:0:
192,192,64672,1,0,0:0:0:0:
64,192,64705,1,0,0:0:0:0:
448,192,64738,1,0,0:0:0:0:
320,192,64771,1,0,0:0:0:0:
192,192,64804,1,0,0:0:0:0:
64,192,64837,1,0,0:0:0:0:
448,192,64869,1,0,0:0:0:0:
320,192,64902,1,0,0:0:0:0:
192,192,64935,1,0,0:0:0:0:
64,192,64968,1,0,0:0:0:0:
448,192,65001,1,0,0:0:0:0:
320,192,65034,1,0,0:0:0:0:
192,192,65067,1,0,0:0:0:0:
64,192,65100,1,0,0:0:0:0:
64,192,65198,1,0,0:0:0:0:
192,192,65198,128,0,65593:0:0:0:0:
448,192,65198,1,0,0:0:0:0:
320,192,65396,1,0,0:0:0:0:
448,192,65396,1,0,0:0:0:0:
64,192,65593,1,0,0:0:0:0:
320,192,65593,1,0,0:0:0:0:
448,192,65593,1,0,0:0:0:0:
448,192,65791,1,0,0:0:0:0:
64,192,65791,1,0,0:0:0:0:
192,192,65889,1,0,0:0:0:0:
320,192,65889,1,0,0:0:0:0:
64,192,65988,1,0,0:0:0:0:
448,192,65988,1,0,0:0:0:0:
192,192,66087,1,0,0:0:0:0:
320,192,66087,1,0,0:0:0:0:
64,192,66185,1,0,0:0:0:0:
448,192,66185,1,0,0:0:0:0:
64,192,66383,1,0,0:0:0:0:
192,192,66383,1,0,0:0:0:0:
448,192,66383,1,0,0:0:0:0:
448,192,66580,1,0,0:0:0:0:
320,192,66580,1,0,0:0:0:0:
448,192,66777,1,0,0:0:0:0:
64,192,66777,1,0,0:0:0:0:
192,192,66777,128,0,66975:0:0:0:0:
320,192,66975,1,0,0:0:0:0:
448,192,66975,1,0,0:0:0:0:
448,192,67172,1,0,0:0:0:0:
320,192,67172,1,0,0:0:0:0:
64,192,67172,1,0,0:0:0:0:
192,192,67172,1,0,0:0:0:0:
64,192,67369,1,0,0:0:0:0:
192,192,67369,1,0,0:0:0:0:
320,192,67468,1,0,0:0:0:0:
448,192,67468,1,0,0:0:0:0:
192,192,67567,1,0,0:0:0:0:
64,192,67567,1,0,0:0:0:0:
448,192,67666,1,0,0:0:0:0:
320,192,67666,1,0,0:0:0:0:
64,192,67764,1,0,0:0:0:0:
192,192,67764,1,0,0:0:0:0:
448,192,67863,1,0,0:0:0:0:
320,192,67863,1,0,0:0:0:0:
64,192,67962,1,0,0:0:0:0:
192,192,67962,1,0,0:0:0:0:
448,192,67962,1,0,0:0:0:0:
448,192,68159,1,0,0:0:0:0:
192,192,68159,1,0,0:0:0:0:
448,192,68356,1,0,0:0:0:0:
64,192,68356,1,0,0:0:0:0:
320,192,68356,128,0,68751:0:0:0:0:
192,192,68554,1,0,0:0:0:0:
448,192,68554,1,0,0:0:0:0:
64,192,68751,1,0,0:0:0:0:
448,192,68751,1,0,0:0:0:0:
192,192,68751,1,0,0:0:0:0:
448,192,68948,1,0,0:0:0:0:
320,192,68948,1,0,0:0:0:0:
64,192,69047,1,0,0:0:0:0:
192,192,69047,1,0,0:0:0:0:
320,192,69146,1,0,0:0:0:0:
448,192,69146,1,0,0:0:0:0:
192,192,69244,1,0,0:0:0:0:
64,192,69244,1,0,0:0:0:0:
448,192,69343,1,0,0:0:0:0:
320,192,69343,1,0,0:0:0:0:
64,192,69442,1,0,0:0:0:0:
192,192,69442,1,0,0:0:0:0:
448,192,69541,1,0,0:0:0:0:
320,192,69541,1,0,0:0:0:0:
192,192,69639,1,0,0:0:0:0:
64,192,69639,1,0,0:0:0:0:
64,192,69738,1,0,0:0:0:0:
448,192,69738,1,0,0:0:0:0:
192,192,69738,1,0,0:0:0:0:
320,192,69738,128,0,70231:0:0:0:0:
64,192,70330,1,0,0:0:0:0:
320,192,70330,1,0,0:0:0:0:
448,192,70330,1,0,0:0:0:0:
64,192,70527,1,0,0:0:0:0:
320,192,70527,1,0,0:0:0:0:
448,192,70527,1,0,0:0:0:0:
192,192,70527,128,0,70823:0:0:0:0:
448,192,70922,1,0,0:0:0:0:
192,192,70922,1,0,0:0:0:0:
64,192,70922,1,0,0:0:0:0:
320,192,70922,128,0,71218:0:0:0:0:
64,192,71317,1,0,0:0:0:0:
320,192,71317,1,0,0:0:0:0:
448,192,71317,1,0,0:0:0:0:
192,192,71317,128,0,71514:0:0:0:0:
320,192,71514,1,0,0:0:0:0:
448,192,71712,1,0,0:0:0:0:
192,192,71712,1,0,0:0:0:0:
320,192,71810,1,0,0:0:0:0:
192,192,71909,1,0,0:0:0:0:
448,192,71909,1,0,0:0:0:0:
64,192,71909,1,0,0:0:0:0:
448,192,72106,1,0,0:0:0:0:
320,192,72106,1,0,0:0:0:0:
192,192,72205,1,0,0:0:0:0:
64,192,72304,1,0,0:0:0:0:
448,192,72304,1,0,0:0:0:0:
320,192,72304,1,0,0:0:0:0:
192,192,72501,1,0,0:0:0:0:
64,192,72501,1,0,0:0:0:0:
320,192,72600,1,0,0:0:0:0:
192,192,72698,1,0,0:0:0:0:
448,192,72698,1,0,0:0:0:0:
64,192,72698,1,0,0:0:0:0:
64,192,72896,1,0,0:0:0:0:
320,192,72896,1,0,0:0:0:0:
192,192,72994,1,0,0:0:0:0:
448,192,73093,1,0,0:0:0:0:
320,192,73093,1,0,0:0:0:0:
64,192,73093,1,0,0:0:0:0:
64,192,73291,1,0,0:0:0:0:
192,192,73291,1,0,0:0:0:0:
320,192,73389,1,0,0:0:0:0:
448,192,73488,1,0,0:0:0:0:
192,192,73488,1,0,0:0:0:0:
64,192,73488,1,0,0:0:0:0:
64,192,73685,1,0,0:0:0:0:
448,192,73685,1,0,0:0:0:0:
192,192,73685,1,0,0:0:0:0:
320,192,73685,128,0,74080:0:0:0:0:
64,192,74080,1,0,0:0:0:0:
192,192,74080,1,0,0:0:0:0:
448,192,74080,1,0,0:0:0:0:
64,192,74277,1,0,0:0:0:0:
192,192,74277,1,0,0:0:0:0:
448,192,74277,1,0,0:0:0:0:
448,192,74475,1,0,0:0:0:0:
192,192,74475,1,0,0:0:0:0:
320,192,74573,1,0,0:0:0:0:
64,192,74672,1,0,0:0:0:0:
192,192,74672,1,0,0:0:0:0:
448,192,74672,1,0,0:0:0:0:
192,192,74869,1,0,0:0:0:0:
64,192,74869,1,0,0:0:0:0:
320,192,74968,1,0,0:0:0:0:
448,192,75067,1,0,0:0:0:0:
192,192,75067,1,0,0:0:0:0:
64,192,75067,1,0,0:0:0:0:
448,192,75264,1,0,0:0:0:0:
192,192,75264,1,0,0:0:0:0:
320,192,75363,1,0,0:0:0:0:
448,192,75462,1,0,0:0:0:0:
192,192,75462,1,0,0:0:0:0:
64,192,75462,1,0,0:0:0:0:
64,192,75659,1,0,0:0:0:0:
320,192,75659,1,0,0:0:0:0:
192,192,75758,1,0,0:0:0:0:
64,192,75856,1,0,0:0:0:0:
448,192,75856,1,0,0:0:0:0:
320,192,75856,1,0,0:0:0:0:
192,192,76054,1,0,0:0:0:0:
448,192,76054,1,0,0:0:0:0:
64,192,76152,1,0,0:0:0:0:
192,192,76251,1,0,0:0:0:0:
448,192,76251,1,0,0:0:0:0:
320,192,76251,1,0,0:0:0:0:
320,192,76448,1,0,0:0:0:0:
64,192,76448,1,0,0:0:0:0:
192,192,76547,1,0,0:0:0:0:
448,192,76646,1,0,0:0:0:0:
320,192,76646,1,0,0:0:0:0:
64,192,76646,1,0,0:0:0:0:
320,192,76843,1,0,0:0:0:0:
64,192,76843,1,0,0:0:0:0:
448,192,76843,1,0,0:0:0:0:
192,192,76843,128,0,77041:0:0:0:0:
64,192,77238,1,0,0:0:0:0:
448,192,77238,1,0,0:0:0:0:
192,192,77238,1,0,0:0:0:0:
320,192,77238,128,0,77435:0:0:0:0:
448,192,77435,1,0,0:0:0:0:
64,192,77435,1,0,0:0:0:0:
192,192,77435,128,0,77830:0:0:0:0:
448,192,77830,1,0,0:0:0:0:
64,192,77830,1,0,0:0:0:0:
320,192,77830,1,0,0:0:0:0:
64,192,78027,1,0,0:0:0:0:
448,192,78027,1,0,0:0:0:0:
320,192,78126,1,0,0:0:0:0:
64,192,78225,1,0,0:0:0:0:
192,192,78225,1,0,0:0:0:0:
448,192,78225,1,0,0:0:0:0:
320,192,78323,1,0,0:0:0:0:
192,192,78422,1,0,0:0:0:0:
64,192,78422,1,0,0:0:0:0:
320,192,78521,1,0,0:0:0:0:
448,192,78619,1,0,0:0:0:0:
192,192,78619,1,0,0:0:0:0:
64,192,78619,1,0,0:0:0:0:
320,192,78718,1,0,0:0:0:0:
448,192,78817,1,0,0:0:0:0:
64,192,78817,1,0,0:0:0:0:
192,192,78916,1,0,0:0:0:0:
448,192,79014,1,0,0:0:0:0:
64,192,79014,1,0,0:0:0:0:
320,192,79014,1,0,0:0:0:0:
192,192,79113,1,0,0:0:0:0:
448,192,79212,1,0,0:0:0:0:
64,192,79212,1,0,0:0:0:0:
320,192,79310,1,0,0:0:0:0:
448,192,79409,1,0,0:0:0:0:
192,192,79409,1,0,0:0:0:0:
64,192,79409,1,0,0:0:0:0:
320,192,79508,1,0,0:0:0:0:
192,192,79606,1,0,0:0:0:0:
64,192,79606,1,0,0:0:0:0:
320,192,79705,1,0,0:0:0:0:
192,192,79804,1,0,0:0:0:0:
448,192,79804,1,0,0:0:0:0:
64,192,79804,1,0,0:0:0:0:
320,192,79902,1,0,0:0:0:0:
64,192,80001,1,0,0:0:0:0:
448,192,80001,1,0,0:0:0:0:
320,192,80100,1,0,0:0:0:0:
192,192,80198,1,0,0:0:0:0:
64,192,80198,1,0,0:0:0:0:
448,192,80198,1,0,0:0:0:0:
320,192,80297,1,0,0:0:0:0:
64,192,80396,1,0,0:0:0:0:
448,192,80396,1,0,0:0:0:0:
192,192,80494,1,0,0:0:0:0:
320,192,80494,1,0,0:0:0:0:
64,192,80593,1,0,0:0:0:0:
192,192,80626,1,0,0:0:0:0:
320,192,80659,1,0,0:0:0:0:
448,192,80692,1,0,0:0:0:0:
64,192,80725,1,0,0:0:0:0:
192,192,80758,1,0,0:0:0:0:
320,192,80791,1,0,0:0:0:0:
448,192,80823,1,0,0:0:0:0:
64,192,80856,1,0,0:0:0:0:
192,192,80889,1,0,0:0:0:0:
320,192,80922,1,0,0:0:0:0:
448,192,80955,1,0,0:0:0:0:
64,192,80988,1,0,0:0:0:0:
192,192,80988,1,0,0:0:0:0:
448,192,81087,1,0,0:0:0:0:
320,192,81185,1,0,0:0:0:0:
64,192,81185,1,0,0:0:0:0:
192,192,81284,1,0,0:0:0:0:
64,192,81383,1,0,0:0:0:0:
448,192,81383,1,0,0:0:0:0:
320,192,81383,1,0,0:0:0:0:
192,192,81481,1,0,0:0:0:0:
320,192,81580,1,0,0:0:0:0:
448,192,81580,1,0,0:0:0:0:
192,192,81679,1,0,0:0:0:0:
320,192,81777,1,0,0:0:0:0:
64,192,81777,1,0,0:0:0:0:
448,192,81777,1,0,0:0:0:0:
192,192,81876,1,0,0:0:0:0:
64,192,81975,1,0,0:0:0:0:
320,192,81975,1,0,0:0:0:0:
192,192,82073,1,0,0:0:0:0:
64,192,82172,1,0,0:0:0:0:
320,192,82172,1,0,0:0:0:0:
448,192,82172,1,0,0:0:0:0:
192,192,82271,1,0,0:0:0:0:
448,192,82369,1,0,0:0:0:0:
64,192,82369,1,0,0:0:0:0:
320,192,82468,1,0,0:0:0:0:
64,192,82567,1,0,0:0:0:0:
448,192,82567,1,0,0:0:0:0:
192,192,82567,1,0,0:0:0:0:
320,192,82666,1,0,0:0:0:0:
64,192,82764,1,0,0:0:0:0:
448,192,82764,1,0,0:0:0:0:
192,192,82863,1,0,0:0:0:0:
64,192,82962,1,0,0:0:0:0:
320,192,82962,1,0,0:0:0:0:
448,192,82962,1,0,0:0:0:0:
64,192,83159,1,0,0:0:0:0:
320,192,83159,1,0,0:0:0:0:
192,192,83159,128,0,83554:0:0:0:0:
448,192,83159,1,0,0:0:0:0:
64,192,83554,1,0,0:0:0:0:
320,192,83554,1,0,0:0:0:0:
448,192,83554,1,0,0:0:0:0:
64,192,83751,1,0,0:0:0:0:
320,192,83751,1,0,0:0:0:0:
448,192,83751,1,0,0:0:0:0:
64,192,83948,1,0,0:0:0:0:
320,192,83948,1,0,0:0:0:0:
448,192,83948,1,0,0:0:0:0:
192,192,83948,128,0,84244:0:0:0:0:
64,192,84343,1,0,0:0:0:0:
448,192,84343,1,0,0:0:0:0:
320,192,84343,1,0,0:0:0:0:
448,192,84541,1,0,0:0:0:0:
64,192,84541,1,0,0:0:0:0:
192,192,84541,1,0,0:0:0:0:
448,192,84738,1,0,0:0:0:0:
64,192,84738,1,0,0:0:0:0:
192,192,84738,1,0,0:0:0:0:
320,192,84738,128,0,85034:0:0:0:0:
192,192,85133,1,0,0:0:0:0:
448,192,85133,1,0,0:0:0:0:
320,192,85133,1,0,0:0:0:0:
64,192,85133,128,0,85429:0:0:0:0:
64,192,85527,1,0,0:0:0:0:
192,192,85527,1,0,0:0:0:0:
320,192,85527,1,0,0:0:0:0:
448,192,85527,128,0,85922:0:0:0:0:
64,192,85922,1,0,0:0:0:0:
320,192,85922,1,0,0:0:0:0:
192,192,86021,1,0,0:0:0:0:
320,192,86119,1,0,0:0:0:0:
64,192,86119,1,0,0:0:0:0:
448,192,86119,1,0,0:0:0:0:
448,192,86317,1,0,0:0:0:0:
192,192,86317,1,0,0:0:0:0:
320,192,86416,1,0,0:0:0:0:
64,192,86514,1,0,0:0:0:0:
448,192,86514,1,0,0:0:0:0:
192,192,86514,1,0,0:0:0:0:
320,192,86613,1,0,0:0:0:0:
192,192,86712,1,0,0:0:0:0:
448,192,86810,1,0,0:0:0:0:
320,192,86909,1,0,0:0:0:0:
192,192,86909,1,0,0:0:0:0:
64,192,87008,1,0,0:0:0:0:
192,192,87041,1,0,0:0:0:0:
320,192,87073,1,0,0:0:0:0:
448,192,87106,1,0,0:0:0:0:
64,192,87139,1,0,0:0:0:0:
192,192,87172,1,0,0:0:0:0:
320,192,87205,1,0,0:0:0:0:
448,192,87238,1,0,0:0:0:0:
64,192,87304,128,0,88291:0:0:0:0:
192,192,87304,1,0,0:0:0:0:
