osu file format v14

[General]
AudioFilename: audio.mp3
AudioLeadIn: 0
PreviewTime: 51087
Countdown: 0
SampleSet: Soft
StackLeniency: 0.7
Mode: 3
LetterboxInBreaks: 0
SpecialStyle: 0
WidescreenStoryboard: 1

[Editor]
DistanceSpacing: 0.6
BeatDivisor: 4
GridSize: 4
TimelineZoom: 2.6

[Metadata]
Title:Asterism
TitleUnicode:Asterism
Artist:ChouCho
ArtistUnicode:ChouCho
Creator:Illya X Ram Li
Version:4K HD
Source:Fate/kaleid liner プリズマ☆イリヤ ドライ!!
Tags:Prisma☆Illya 3rei op opening anime loli etsu angki R e m u r i n g another lie
BeatmapID:1226974
BeatmapSetID:576914

[Difficulty]
HPDrainRate:8
CircleSize:4
OverallDifficulty:7.5
ApproachRate:5
SliderMultiplier:1.4
SliderTickRate:1

[Events]
//Background and Video events
0,0,"asterismbg.jpg",0,0
//Break Periods
//Storyboard Layer 0 (Background)
//Storyboard Layer 1 (Fail)
//Storyboard Layer 2 (Pass)
//Storyboard Layer 3 (Foreground)
//Storyboard Sound Samples

[TimingPoints]
462,375,4,2,1,20,1,0
1962,292.682926829268,4,2,1,20,1,0
1962,-125,4,2,1,20,0,0
3132,-100,4,2,1,20,0,0
3279,-1000,4,2,1,20,0,0
3425,-66.6666666666667,4,2,1,20,0,0
3620,394.736842105263,4,2,1,20,1,0
3620,-100,4,2,1,20,0,0
52567,-100,4,2,1,20,0,1
65198,-100,4,2,1,20,0,0

[HitObjects]
64,192,462,128,0,1774:0:0:0:0:
448,192,1962,1,0,0:0:0:0:
320,192,2035,1,0,0:0:0:0:
64,192,2108,1,0,0:0:0:0:
192,192,2181,1,0,0:0:0:0:
448,192,2254,1,0,0:0:0:0:
320,192,2327,1,0,0:0:0:0:
64,192,2401,1,0,0:0:0:0:
192,192,2474,1,0,0:0:0:0:
448,192,2547,1,0,0:0:0:0:
320,192,2620,1,0,0:0:0:0:
64,192,2693,1,0,0:0:0:0:
192,192,2766,1,0,0:0:0:0:
448,192,2840,1,0,0:0:0:0:
320,192,2913,1,0,0:0:0:0:
64,192,2986,1,0,0:0:0:0:
192,192,2986,1,0,0:0:0:0:
448,192,3620,1,0,0:0:0:0:
192,192,3620,1,0,0:0:0:0:
64,192,3620,1,0,0:0:0:0:
320,192,3817,1,0,0:0:0:0:
192,192,3916,1,0,0:0:0:0:
448,192,4014,1,0,0:0:0:0:
64,192,4014,1,0,0:0:0:0:
320,192,4014,1,0,0:0:0:0:
448,192,4212,1,0,0:0:0:0:
192,192,4310,1,0,0:0:0:0:
448,192,4409,1,0,0:0:0:0:
64,192,4409,1,0,0:0:0:0:
320,192,4409,1,0,0:0:0:0:
64,192,4606,1,0,0:0:0:0:
320,192,4705,1,0,0:0:0:0:
448,192,4804,1,0,0:0:0:0:
64,192,4804,1,0,0:0:0:0:
192,192,4804,1,0,0:0:0:0:
320,192,5001,1,0,0:0:0:0:
192,192,5100,1,0,0:0:0:0:
448,192,5198,1,0,0:0:0:0:
64,192,5198,1,0,0:0:0:0:
320,192,5198,1,0,0:0:0:0:
192,192,5396,1,0,0:0:0:0:
320,192,5494,1,0,0:0:0:0:
448,192,5593,1,0,0:0:0:0:
64,192,5593,1,0,0:0:0:0:
192,192,5593,1,0,0:0:0:0:
448,192,5791,1,0,0:0:0:0:
320,192,5791,1,0,0:0:0:0:
192,192,5889,1,0,0:0:0:0:
320,192,5988,1,0,0:0:0:0:
64,192,5988,1,0,0:0:0:0:
448,192,5988,1,0,0:0:0:0:
192,192,6185,1,0,0:0:0:0:
448,192,6185,1,0,0:0:0:0:
320,192,6284,1,0,0:0:0:0:
192,192,6383,1,0,0:0:0:0:
448,192,6383,1,0,0:0:0:0:
64,192,6383,1,0,0:0:0:0:
64,192,6580,1,0,0:0:0:0:
192,192,6580,1,0,0:0:0:0:
320,192,6679,1,0,0:0:0:0:
64,192,6777,1,0,0:0:0:0:
448,192,6777,1,0,0:0:0:0:
192,192,6777,1,0,0:0:0:0:
448,192,6975,1,0,0:0:0:0:
320,192,6975,1,0,0:0:0:0:
64,192,6975,1,0,0:0:0:0:
192,192,7172,1,0,0:0:0:0:
64,192,7172,1,0,0:0:0:0:
448,192,7172,1,0,0:0:0:0:
448,192,7369,1,0,0:0:0:0:
320,192,7468,1,0,0:0:0:0:
192,192,7468,1,0,0:0:0:0:
64,192,7567,1,0,0:0:0:0:
448,192,7567,1,0,0:0:0:0:
192,192,7764,1,0,0:0:0:0:
320,192,7863,1,0,0:0:0:0:
448,192,7962,1,0,0:0:0:0:
192,192,7962,1,0,0:0:0:0:
64,192,7962,1,0,0:0:0:0:
320,192,8159,1,0,0:0:0:0:
192,192,8258,1,0,0:0:0:0:
64,192,8356,1,0,0:0:0:0:
448,192,8356,1,0,0:0:0:0:
320,192,8356,1,0,0:0:0:0:
192,192,8554,1,0,0:0:0:0:
320,192,8652,1,0,0:0:0:0:
64,192,8751,1,0,0:0:0:0:
192,192,8751,1,0,0:0:0:0:
448,192,8751,1,0,0:0:0:0:
320,192,8948,1,0,0:0:0:0:
192,192,9047,1,0,0:0:0:0:
320,192,9146,1,0,0:0:0:0:
64,192,9146,1,0,0:0:0:0:
448,192,9146,1,0,0:0:0:0:
448,192,9343,1,0,0:0:0:0:
192,192,9343,1,0,0:0:0:0:
320,192,9541,1,0,0:0:0:0:
64,192,9541,1,0,0:0:0:0:
448,192,9738,1,0,0:0:0:0:
192,192,9738,1,0,0:0:0:0:
64,192,9738,1,0,0:0:0:0:
320,192,10133,1,0,0:0:0:0:
448,192,10133,1,0,0:0:0:0:
64,192,10330,1,0,0:0:0:0:
192,192,10330,1,0,0:0:0:0:
320,192,10527,1,0,0:0:0:0:
448,192,10527,1,0,0:0:0:0:
64,192,10527,1,0,0:0:0:0:
64,192,10922,1,0,0:0:0:0:
192,192,10922,1,0,0:0:0:0:
320,192,11119,1,0,0:0:0:0:
448,192,11119,1,0,0:0:0:0:
192,192,11218,1,0,0:0:0:0:
64,192,11317,1,0,0:0:0:0:
320,192,11317,1,0,0:0:0:0:
448,192,11317,1,0,0:0:0:0:
320,192,11514,1,0,0:0:0:0:
64,192,11514,128,0,11712:0:0:0:0:
192,192,11712,1,0,0:0:0:0:
320,192,11810,1,0,0:0:0:0:
448,192,11909,1,0,0:0:0:0:
320,192,12008,1,0,0:0:0:0:
448,192,12106,1,0,0:0:0:0:
64,192,12106,1,0,0:0:0:0:
192,192,12106,1,0,0:0:0:0:
192,192,12304,1,0,0:0:0:0:
320,192,12402,1,0,0:0:0:0:
64,192,12501,1,0,0:0:0:0:
448,192,12501,1,0,0:0:0:0:
192,192,12698,1,0,0:0:0:0:
320,192,12698,1,0,0:0:0:0:
320,192,12896,1,0,0:0:0:0:
448,192,12896,1,0,0:0:0:0:
192,192,12994,1,0,0:0:0:0:
64,192,12994,1,0,0:0:0:0:
320,192,13093,1,0,0:0:0:0:
448,192,13093,1,0,0:0:0:0:
448,192,13291,1,0,0:0:0:0:
320,192,13389,1,0,0:0:0:0:
192,192,13488,1,0,0:0:0:0:
64,192,13587,1,0,0:0:0:0:
192,192,13685,1,0,0:0:0:0:
320,192,13784,1,0,0:0:0:0:
448,192,13883,1,0,0:0:0:0:
320,192,13981,1,0,0:0:0:0:
192,192,14080,1,0,0:0:0:0:
64,192,14179,1,0,0:0:0:0:
192,192,14277,1,0,0:0:0:0:
320,192,14376,1,0,0:0:0:0:
448,192,14475,128,0,15462:0:0:0:0:
64,192,14475,128,0,15462:0:0:0:0:
320,192,15462,1,0,0:0:0:0:
64,192,15659,1,0,0:0:0:0:
192,192,15758,1,0,0:0:0:0:
320,192,15856,1,0,0:0:0:0:
448,192,15955,1,0,0:0:0:0:
320,192,16054,1,0,0:0:0:0:
192,192,16054,128,0,16251:0:0:0:0:
64,192,16251,1,0,0:0:0:0:
448,192,16251,128,0,16448:0:0:0:0:
320,192,16448,128,0,16646:0:0:0:0:
192,192,16448,1,0,0:0:0:0:
64,192,16646,128,0,16843:0:0:0:0:
448,192,16646,1,0,0:0:0:0:
192,192,16843,128,0,17041:0:0:0:0:
320,192,16843,1,0,0:0:0:0:
320,192,17041,1,0,0:0:0:0:
64,192,17041,1,0,0:0:0:0:
64,192,17435,1,0,0:0:0:0:
192,192,17435,1,0,0:0:0:0:
448,192,17435,1,0,0:0:0:0:
320,192,17830,1,0,0:0:0:0:
448,192,17830,1,0,0:0:0:0:
192,192,18027,1,0,0:0:0:0:
64,192,18027,1,0,0:0:0:0:
64,192,18225,1,0,0:0:0:0:
448,192,18225,1,0,0:0:0:0:
320,192,18422,1,0,0:0:0:0:
192,192,18619,1,0,0:0:0:0:
64,192,18619,1,0,0:0:0:0:
448,192,18619,1,0,0:0:0:0:
192,192,18817,1,0,0:0:0:0:
448,192,19014,1,0,0:0:0:0:
320,192,19014,1,0,0:0:0:0:
64,192,19014,1,0,0:0:0:0:
320,192,19212,1,0,0:0:0:0:
192,192,19409,1,0,0:0:0:0:
448,192,19409,128,0,19606:0:0:0:0:
64,192,19606,128,0,19804:0:0:0:0:
320,192,19804,128,0,20001:0:0:0:0:
192,192,19804,1,0,0:0:0:0:
448,192,20001,1,0,0:0:0:0:
192,192,20001,128,0,20198:0:0:0:0:
320,192,20198,1,0,0:0:0:0:
64,192,20198,1,0,0:0:0:0:
64,192,20593,1,0,0:0:0:0:
320,192,20593,1,0,0:0:0:0:
448,192,20593,1,0,0:0:0:0:
448,192,20988,1,0,0:0:0:0:
320,192,20988,128,0,21185:0:0:0:0:
64,192,21185,128,0,21383:0:0:0:0:
192,192,21185,1,0,0:0:0:0:
448,192,21383,128,0,21580:0:0:0:0:
320,192,21383,1,0,0:0:0:0:
64,192,21580,1,0,0:0:0:0:
192,192,21580,128,0,21777:0:0:0:0:
320,192,21777,1,0,0:0:0:0:
448,192,21777,1,0,0:0:0:0:
64,192,22172,1,0,0:0:0:0:
448,192,22172,1,0,0:0:0:0:
192,192,22172,1,0,0:0:0:0:
64,192,22567,128,0,22764:0:0:0:0:
192,192,22567,1,0,0:0:0:0:
320,192,22567,1,0,0:0:0:0:
448,192,22764,1,0,0:0:0:0:
320,192,22764,128,0,22962:0:0:0:0:
64,192,22962,1,0,0:0:0:0:
192,192,22962,128,0,23159:0:0:0:0:
448,192,23159,128,0,23356:0:0:0:0:
320,192,23159,1,0,0:0:0:0:
320,192,23356,1,0,0:0:0:0:
64,192,23356,1,0,0:0:0:0:
320,192,23751,1,0,0:0:0:0:
192,192,23751,1,0,0:0:0:0:
64,192,23751,1,0,0:0:0:0:
64,192,24146,1,0,0:0:0:0:
448,192,24146,1,0,0:0:0:0:
192,192,24343,1,0,0:0:0:0:
448,192,24541,1,0,0:0:0:0:
320,192,24541,1,0,0:0:0:0:
64,192,24541,1,0,0:0:0:0:
320,192,24738,1,0,0:0:0:0:
448,192,24935,1,0,0:0:0:0:
64,192,24935,1,0,0:0:0:0:
192,192,25133,1,0,0:0:0:0:
448,192,25330,1,0,0:0:0:0:
64,192,25330,1,0,0:0:0:0:
192,192,25330,1,0,0:0:0:0:
320,192,25527,1,0,0:0:0:0:
64,192,25725,1,0,0:0:0:0:
192,192,25725,128,0,25922:0:0:0:0:
448,192,25922,128,0,26119:0:0:0:0:
192,192,26119,1,0,0:0:0:0:
320,192,26119,128,0,26317:0:0:0:0:
64,192,26317,128,0,26514:0:0:0:0:
448,192,26514,1,0,0:0:0:0:
320,192,26514,128,0,26909:0:0:0:0:
192,192,26909,1,0,0:0:0:0:
448,192,26909,1,0,0:0:0:0:
64,192,26909,1,0,0:0:0:0:
448,192,27106,1,0,0:0:0:0:
64,192,27106,1,0,0:0:0:0:
320,192,27106,1,0,0:0:0:0:
192,192,27501,1,0,0:0:0:0:
320,192,27501,1,0,0:0:0:0:
64,192,27501,1,0,0:0:0:0:
64,192,27896,1,0,0:0:0:0:
448,192,27896,1,0,0:0:0:0:
192,192,27896,128,0,28291:0:0:0:0:
448,192,28488,1,0,0:0:0:0:
320,192,28554,1,0,0:0:0:0:
192,192,28619,1,0,0:0:0:0:
64,192,28685,1,0,0:0:0:0:
192,192,28751,1,0,0:0:0:0:
320,192,28817,1,0,0:0:0:0:
448,192,28883,1,0,0:0:0:0:
192,192,28883,1,0,0:0:0:0:
64,192,28883,1,0,0:0:0:0:
320,192,29080,1,0,0:0:0:0:
448,192,29277,1,0,0:0:0:0:
64,192,29277,1,0,0:0:0:0:
192,192,29277,1,0,0:0:0:0:
320,192,29475,1,0,0:0:0:0:
64,192,29672,1,0,0:0:0:0:
192,192,29869,1,0,0:0:0:0:
64,192,30067,1,0,0:0:0:0:
320,192,30067,1,0,0:0:0:0:
192,192,30264,1,0,0:0:0:0:
448,192,30264,1,0,0:0:0:0:
448,192,30659,1,0,0:0:0:0:
320,192,30758,1,0,0:0:0:0:
192,192,30856,1,0,0:0:0:0:
64,192,30856,1,0,0:0:0:0:
320,192,31054,1,0,0:0:0:0:
192,192,31054,1,0,0:0:0:0:
320,192,31251,1,0,0:0:0:0:
64,192,31251,1,0,0:0:0:0:
448,192,31251,1,0,0:0:0:0:
192,192,31448,1,0,0:0:0:0:
320,192,31646,1,0,0:0:0:0:
64,192,31646,1,0,0:0:0:0:
448,192,31843,1,0,0:0:0:0:
192,192,31843,1,0,0:0:0:0:
320,192,32041,1,0,0:0:0:0:
192,192,32041,1,0,0:0:0:0:
64,192,32435,1,0,0:0:0:0:
448,192,32435,1,0,0:0:0:0:
192,192,32435,1,0,0:0:0:0:
320,192,32633,1,0,0:0:0:0:
192,192,32830,1,0,0:0:0:0:
448,192,32830,1,0,0:0:0:0:
320,192,33027,1,0,0:0:0:0:
64,192,33027,1,0,0:0:0:0:
192,192,33225,1,0,0:0:0:0:
320,192,33225,1,0,0:0:0:0:
320,192,33422,1,0,0:0:0:0:
448,192,33422,1,0,0:0:0:0:
192,192,33619,1,0,0:0:0:0:
64,192,33619,1,0,0:0:0:0:
64,192,33817,1,0,0:0:0:0:
448,192,33817,1,0,0:0:0:0:
192,192,34014,1,0,0:0:0:0:
320,192,34014,1,0,0:0:0:0:
64,192,34212,1,0,0:0:0:0:
192,192,34212,1,0,0:0:0:0:
64,192,34409,1,0,0:0:0:0:
320,192,34409,1,0,0:0:0:0:
320,192,34606,1,0,0:0:0:0:
192,192,34606,1,0,0:0:0:0:
448,192,34804,1,0,0:0:0:0:
320,192,34902,1,0,0:0:0:0:
192,192,35001,1,0,0:0:0:0:
64,192,35100,1,0,0:0:0:0:
320,192,35198,1,0,0:0:0:0:
448,192,35198,1,0,0:0:0:0:
64,192,35593,1,0,0:0:0:0:
448,192,35593,1,0,0:0:0:0:
192,192,35593,1,0,0:0:0:0:
320,192,35791,1,0,0:0:0:0:
64,192,35988,1,0,0:0:0:0:
448,192,35988,1,0,0:0:0:0:
192,192,36185,1,0,0:0:0:0:
320,192,36383,1,0,0:0:0:0:
64,192,36383,1,0,0:0:0:0:
448,192,36383,1,0,0:0:0:0:
192,192,36580,1,0,0:0:0:0:
320,192,36580,1,0,0:0:0:0:
64,192,36777,1,0,0:0:0:0:
448,192,36777,1,0,0:0:0:0:
320,192,36975,1,0,0:0:0:0:
192,192,36975,1,0,0:0:0:0:
448,192,37172,1,0,0:0:0:0:
320,192,37172,1,0,0:0:0:0:
320,192,37369,1,0,0:0:0:0:
192,192,37567,1,0,0:0:0:0:
448,192,37567,1,0,0:0:0:0:
192,192,37764,1,0,0:0:0:0:
64,192,37962,1,0,0:0:0:0:
448,192,37962,1,0,0:0:0:0:
320,192,38159,1,0,0:0:0:0:
192,192,38356,1,0,0:0:0:0:
64,192,38356,1,0,0:0:0:0:
448,192,38554,1,0,0:0:0:0:
64,192,38751,1,0,0:0:0:0:
320,192,38751,1,0,0:0:0:0:
320,192,39146,1,0,0:0:0:0:
192,192,39146,1,0,0:0:0:0:
448,192,39343,1,0,0:0:0:0:
64,192,39343,1,0,0:0:0:0:
320,192,39541,1,0,0:0:0:0:
192,192,39541,1,0,0:0:0:0:
448,192,39738,1,0,0:0:0:0:
64,192,39738,1,0,0:0:0:0:
192,192,39738,1,0,0:0:0:0:
448,192,40133,1,0,0:0:0:0:
192,192,40133,1,0,0:0:0:0:
320,192,40133,1,0,0:0:0:0:
64,192,40527,1,0,0:0:0:0:
320,192,40527,1,0,0:0:0:0:
192,192,40527,1,0,0:0:0:0:
320,192,40725,1,0,0:0:0:0:
192,192,40725,1,0,0:0:0:0:
320,192,41514,1,0,0:0:0:0:
64,192,41514,1,0,0:0:0:0:
320,192,41712,1,0,0:0:0:0:
192,192,41810,1,0,0:0:0:0:
448,192,41909,1,0,0:0:0:0:
64,192,41909,1,0,0:0:0:0:
192,192,42106,1,0,0:0:0:0:
320,192,42205,1,0,0:0:0:0:
448,192,42304,1,0,0:0:0:0:
64,192,42304,1,0,0:0:0:0:
64,192,42698,1,0,0:0:0:0:
320,192,42698,1,0,0:0:0:0:
448,192,42698,1,0,0:0:0:0:
448,192,43093,1,0,0:0:0:0:
64,192,43093,1,0,0:0:0:0:
192,192,43291,1,0,0:0:0:0:
320,192,43389,1,0,0:0:0:0:
192,192,43488,1,0,0:0:0:0:
448,192,43488,1,0,0:0:0:0:
320,192,43685,1,0,0:0:0:0:
192,192,43784,1,0,0:0:0:0:
64,192,43883,1,0,0:0:0:0:
448,192,43883,1,0,0:0:0:0:
192,192,44080,1,0,0:0:0:0:
320,192,44179,1,0,0:0:0:0:
64,192,44277,1,0,0:0:0:0:
192,192,44277,1,0,0:0:0:0:
320,192,44475,1,0,0:0:0:0:
192,192,44573,1,0,0:0:0:0:
320,192,44672,1,0,0:0:0:0:
448,192,44672,1,0,0:0:0:0:
192,192,44869,1,0,0:0:0:0:
448,192,44968,1,0,0:0:0:0:
64,192,45067,1,0,0:0:0:0:
192,192,45067,1,0,0:0:0:0:
320,192,45264,1,0,0:0:0:0:
64,192,45363,1,0,0:0:0:0:
320,192,45462,1,0,0:0:0:0:
448,192,45462,1,0,0:0:0:0:
64,192,45856,1,0,0:0:0:0:
192,192,45856,1,0,0:0:0:0:
448,192,45856,1,0,0:0:0:0:
320,192,46054,1,0,0:0:0:0:
192,192,46152,1,0,0:0:0:0:
64,192,46251,1,0,0:0:0:0:
320,192,46251,1,0,0:0:0:0:
192,192,46448,1,0,0:0:0:0:
320,192,46547,1,0,0:0:0:0:
64,192,46646,1,0,0:0:0:0:
448,192,46646,1,0,0:0:0:0:
192,192,46843,1,0,0:0:0:0:
320,192,46942,1,0,0:0:0:0:
64,192,47041,1,0,0:0:0:0:
192,192,47041,1,0,0:0:0:0:
320,192,47238,1,0,0:0:0:0:
192,192,47337,1,0,0:0:0:0:
320,192,47435,1,0,0:0:0:0:
448,192,47435,1,0,0:0:0:0:
64,192,47633,1,0,0:0:0:0:
192,192,47633,1,0,0:0:0:0:
320,192,47633,1,0,0:0:0:0:
192,192,48027,1,0,0:0:0:0:
320,192,48225,1,0,0:0:0:0:
448,192,48422,1,0,0:0:0:0:
64,192,48422,1,0,0:0:0:0:
192,192,48422,1,0,0:0:0:0:
192,192,48817,1,0,0:0:0:0:
320,192,49014,1,0,0:0:0:0:
448,192,49212,1,0,0:0:0:0:
64,192,49212,1,0,0:0:0:0:
192,192,49212,1,0,0:0:0:0:
320,192,49606,1,0,0:0:0:0:
192,192,49804,1,0,0:0:0:0:
320,192,50001,1,0,0:0:0:0:
448,192,50001,1,0,0:0:0:0:
64,192,50001,1,0,0:0:0:0:
448,192,51185,1,0,0:0:0:0:
448,192,51383,1,0,0:0:0:0:
320,192,51580,1,0,0:0:0:0:
320,192,51777,1,0,0:0:0:0:
64,192,51975,1,0,0:0:0:0:
64,192,52172,1,0,0:0:0:0:
320,192,52172,128,0,52567:0:0:0:0:
64,192,52567,1,0,0:0:0:0:
448,192,52567,1,0,0:0:0:0:
192,192,52567,1,0,0:0:0:0:
64,192,52962,1,0,0:0:0:0:
320,192,52962,1,0,0:0:0:0:
448,192,52962,1,0,0:0:0:0:
64,192,53356,1,0,0:0:0:0:
192,192,53455,1,0,0:0:0:0:
320,192,53554,1,0,0:0:0:0:
448,192,53652,1,0,0:0:0:0:
192,192,53751,1,0,0:0:0:0:
64,192,53751,1,0,0:0:0:0:
320,192,53948,1,0,0:0:0:0:
192,192,54146,1,0,0:0:0:0:
448,192,54146,1,0,0:0:0:0:
320,192,54343,1,0,0:0:0:0:
192,192,54442,1,0,0:0:0:0:
64,192,54541,1,0,0:0:0:0:
320,192,54541,1,0,0:0:0:0:
448,192,54935,1,0,0:0:0:0:
64,192,55034,1,0,0:0:0:0:
448,192,55133,1,0,0:0:0:0:
320,192,55231,1,0,0:0:0:0:
64,192,55330,1,0,0:0:0:0:
192,192,55330,1,0,0:0:0:0:
448,192,55330,1,0,0:0:0:0:
64,192,55725,1,0,0:0:0:0:
320,192,55725,1,0,0:0:0:0:
448,192,55725,1,0,0:0:0:0:
192,192,55922,1,0,0:0:0:0:
320,192,56021,1,0,0:0:0:0:
192,192,56119,1,0,0:0:0:0:
448,192,56119,1,0,0:0:0:0:
320,192,56317,1,0,0:0:0:0:
192,192,56416,1,0,0:0:0:0:
320,192,56514,1,0,0:0:0:0:
448,192,56514,1,0,0:0:0:0:
64,192,56712,1,0,0:0:0:0:
448,192,56810,1,0,0:0:0:0:
64,192,56909,1,0,0:0:0:0:
320,192,56909,1,0,0:0:0:0:
192,192,57106,1,0,0:0:0:0:
448,192,57205,1,0,0:0:0:0:
64,192,57304,1,0,0:0:0:0:
192,192,57304,1,0,0:0:0:0:
448,192,57501,1,0,0:0:0:0:
320,192,57600,1,0,0:0:0:0:
64,192,57698,1,0,0:0:0:0:
448,192,57698,1,0,0:0:0:0:
192,192,57896,1,0,0:0:0:0:
320,192,57994,1,0,0:0:0:0:
192,192,58093,1,0,0:0:0:0:
448,192,58093,1,0,0:0:0:0:
320,192,58192,1,0,0:0:0:0:
192,192,58291,1,0,0:0:0:0:
64,192,58389,1,0,0:0:0:0:
192,192,58488,1,0,0:0:0:0:
448,192,58488,1,0,0:0:0:0:
320,192,58685,1,0,0:0:0:0:
64,192,58685,1,0,0:0:0:0:
192,192,58883,1,0,0:0:0:0:
64,192,58883,1,0,0:0:0:0:
448,192,58883,1,0,0:0:0:0:
64,192,59277,1,0,0:0:0:0:
320,192,59277,1,0,0:0:0:0:
448,192,59277,1,0,0:0:0:0:
448,192,59672,1,0,0:0:0:0:
320,192,59771,1,0,0:0:0:0:
192,192,59869,1,0,0:0:0:0:
64,192,59968,1,0,0:0:0:0:
320,192,60067,1,0,0:0:0:0:
448,192,60067,1,0,0:0:0:0:
192,192,60264,1,0,0:0:0:0:
320,192,60363,1,0,0:0:0:0:
192,192,60462,1,0,0:0:0:0:
448,192,60462,1,0,0:0:0:0:
320,192,60659,1,0,0:0:0:0:
192,192,60758,1,0,0:0:0:0:
64,192,60856,1,0,0:0:0:0:
320,192,60856,1,0,0:0:0:0:
448,192,61054,1,0,0:0:0:0:
64,192,61152,1,0,0:0:0:0:
320,192,61251,1,0,0:0:0:0:
448,192,61251,1,0,0:0:0:0:
64,192,61448,1,0,0:0:0:0:
448,192,61547,1,0,0:0:0:0:
192,192,61646,1,0,0:0:0:0:
320,192,61843,1,0,0:0:0:0:
448,192,61843,1,0,0:0:0:0:
448,192,62041,1,0,0:0:0:0:
192,192,62041,1,0,0:0:0:0:
64,192,62041,1,0,0:0:0:0:
448,192,62238,1,0,0:0:0:0:
64,192,62337,1,0,0:0:0:0:
192,192,62337,1,0,0:0:0:0:
320,192,62435,1,0,0:0:0:0:
448,192,62534,1,0,0:0:0:0:
192,192,62633,1,0,0:0:0:0:
64,192,62731,1,0,0:0:0:0:
320,192,62830,1,0,0:0:0:0:
448,192,62830,1,0,0:0:0:0:
192,192,62929,1,0,0:0:0:0:
64,192,63027,1,0,0:0:0:0:
320,192,63126,1,0,0:0:0:0:
448,192,63225,1,0,0:0:0:0:
192,192,63225,1,0,0:0:0:0:
320,192,63422,1,0,0:0:0:0:
448,192,63422,1,0,0:0:0:0:
64,192,63422,1,0,0:0:0:0:
448,192,63817,1,0,0:0:0:0:
192,192,63817,1,0,0:0:0:0:
64,192,63817,1,0,0:0:0:0:
320,192,64212,1,0,0:0:0:0:
64,192,64212,1,0,0:0:0:0:
448,192,64212,1,0,0:0:0:0:
64,192,64606,1,0,0:0:0:0:
192,192,64705,1,0,0:0:0:0:
448,192,65001,1,0,0:0:0:0:
320,192,65100,1,0,0:0:0:0:
192,192,65198,1,0,0:0:0:0:
64,192,65198,1,0,0:0:0:0:
448,192,65198,1,0,0:0:0:0:
64,192,65593,1,0,0:0:0:0:
320,192,65593,1,0,0:0:0:0:
448,192,65593,1,0,0:0:0:0:
64,192,65889,1,0,0:0:0:0:
192,192,65988,1,0,0:0:0:0:
320,192,66087,1,0,0:0:0:0:
448,192,66185,1,0,0:0:0:0:
320,192,66284,1,0,0:0:0:0:
64,192,66383,1,0,0:0:0:0:
448,192,66383,1,0,0:0:0:0:
192,192,66383,1,0,0:0:0:0:
320,192,66580,1,0,0:0:0:0:
192,192,66679,1,0,0:0:0:0:
448,192,66777,1,0,0:0:0:0:
64,192,66777,1,0,0:0:0:0:
192,192,66975,1,0,0:0:0:0:
320,192,67073,1,0,0:0:0:0:
448,192,67172,1,0,0:0:0:0:
64,192,67172,1,0,0:0:0:0:
320,192,67369,1,0,0:0:0:0:
64,192,67468,1,0,0:0:0:0:
320,192,67567,1,0,0:0:0:0:
64,192,67666,1,0,0:0:0:0:
320,192,67764,1,0,0:0:0:0:
448,192,67962,1,0,0:0:0:0:
192,192,67962,1,0,0:0:0:0:
64,192,67962,1,0,0:0:0:0:
320,192,68159,1,0,0:0:0:0:
192,192,68258,1,0,0:0:0:0:
64,192,68356,1,0,0:0:0:0:
448,192,68356,1,0,0:0:0:0:
192,192,68554,1,0,0:0:0:0:
320,192,68652,1,0,0:0:0:0:
64,192,68751,1,0,0:0:0:0:
448,192,68751,1,0,0:0:0:0:
448,192,68948,1,0,0:0:0:0:
320,192,68948,1,0,0:0:0:0:
192,192,68948,1,0,0:0:0:0:
64,192,69146,1,0,0:0:0:0:
192,192,69244,1,0,0:0:0:0:
320,192,69343,1,0,0:0:0:0:
448,192,69442,1,0,0:0:0:0:
320,192,69541,1,0,0:0:0:0:
192,192,69639,1,0,0:0:0:0:
64,192,69738,1,0,0:0:0:0:
320,192,69738,1,0,0:0:0:0:
448,192,69738,1,0,0:0:0:0:
192,192,70133,1,0,0:0:0:0:
320,192,70330,1,0,0:0:0:0:
448,192,70527,1,0,0:0:0:0:
64,192,70527,1,0,0:0:0:0:
192,192,70527,1,0,0:0:0:0:
448,192,70922,1,0,0:0:0:0:
64,192,70922,1,0,0:0:0:0:
320,192,70922,1,0,0:0:0:0:
64,192,71317,1,0,0:0:0:0:
448,192,71317,1,0,0:0:0:0:
192,192,71317,1,0,0:0:0:0:
320,192,71712,1,0,0:0:0:0:
192,192,71810,1,0,0:0:0:0:
64,192,71909,1,0,0:0:0:0:
448,192,71909,1,0,0:0:0:0:
192,192,72106,1,0,0:0:0:0:
448,192,72205,1,0,0:0:0:0:
192,192,72304,1,0,0:0:0:0:
64,192,72304,1,0,0:0:0:0:
320,192,72501,1,0,0:0:0:0:
64,192,72600,1,0,0:0:0:0:
320,192,72698,1,0,0:0:0:0:
448,192,72698,1,0,0:0:0:0:
192,192,72896,1,0,0:0:0:0:
320,192,72994,1,0,0:0:0:0:
448,192,73093,1,0,0:0:0:0:
64,192,73093,1,0,0:0:0:0:
64,192,73291,1,0,0:0:0:0:
320,192,73389,1,0,0:0:0:0:
448,192,73488,1,0,0:0:0:0:
64,192,73488,1,0,0:0:0:0:
320,192,73685,1,0,0:0:0:0:
64,192,73685,1,0,0:0:0:0:
448,192,73685,1,0,0:0:0:0:
64,192,74080,1,0,0:0:0:0:
192,192,74080,1,0,0:0:0:0:
448,192,74080,1,0,0:0:0:0:
320,192,74277,1,0,0:0:0:0:
192,192,74376,1,0,0:0:0:0:
64,192,74475,1,0,0:0:0:0:
192,192,74573,1,0,0:0:0:0:
64,192,74672,1,0,0:0:0:0:
320,192,74672,1,0,0:0:0:0:
448,192,74672,1,0,0:0:0:0:
192,192,74869,1,0,0:0:0:0:
448,192,74968,1,0,0:0:0:0:
64,192,75067,1,0,0:0:0:0:
320,192,75067,1,0,0:0:0:0:
192,192,75264,1,0,0:0:0:0:
448,192,75363,1,0,0:0:0:0:
192,192,75462,1,0,0:0:0:0:
64,192,75462,1,0,0:0:0:0:
320,192,75659,1,0,0:0:0:0:
64,192,75758,1,0,0:0:0:0:
320,192,75856,1,0,0:0:0:0:
448,192,75856,1,0,0:0:0:0:
192,192,76054,1,0,0:0:0:0:
320,192,76152,1,0,0:0:0:0:
64,192,76251,1,0,0:0:0:0:
448,192,76251,1,0,0:0:0:0:
320,192,76448,1,0,0:0:0:0:
192,192,76547,1,0,0:0:0:0:
64,192,76646,1,0,0:0:0:0:
448,192,76646,1,0,0:0:0:0:
320,192,76843,1,0,0:0:0:0:
64,192,76843,1,0,0:0:0:0:
448,192,76843,1,0,0:0:0:0:
64,192,77238,1,0,0:0:0:0:
192,192,77238,1,0,0:0:0:0:
448,192,77238,1,0,0:0:0:0:
320,192,77633,1,0,0:0:0:0:
192,192,77731,1,0,0:0:0:0:
448,192,77830,1,0,0:0:0:0:
64,192,77830,1,0,0:0:0:0:
192,192,78027,1,0,0:0:0:0:
320,192,78126,1,0,0:0:0:0:
192,192,78225,1,0,0:0:0:0:
448,192,78225,1,0,0:0:0:0:
320,192,78422,1,0,0:0:0:0:
192,192,78521,1,0,0:0:0:0:
320,192,78619,1,0,0:0:0:0:
64,192,78619,1,0,0:0:0:0:
192,192,78817,1,0,0:0:0:0:
320,192,78916,1,0,0:0:0:0:
64,192,79014,1,0,0:0:0:0:
448,192,79014,1,0,0:0:0:0:
320,192,79212,1,0,0:0:0:0:
64,192,79310,1,0,0:0:0:0:
320,192,79409,1,0,0:0:0:0:
448,192,79409,1,0,0:0:0:0:
192,192,79606,1,0,0:0:0:0:
448,192,79705,1,0,0:0:0:0:
192,192,79804,1,0,0:0:0:0:
64,192,79804,1,0,0:0:0:0:
448,192,80001,1,0,0:0:0:0:
192,192,80001,1,0,0:0:0:0:
64,192,80001,1,0,0:0:0:0:
64,192,80396,1,0,0:0:0:0:
320,192,80396,1,0,0:0:0:0:
448,192,80396,1,0,0:0:0:0:
448,192,80593,1,0,0:0:0:0:
320,192,80692,1,0,0:0:0:0:
192,192,80791,1,0,0:0:0:0:
64,192,80889,1,0,0:0:0:0:
320,192,80988,1,0,0:0:0:0:
448,192,80988,1,0,0:0:0:0:
192,192,81185,1,0,0:0:0:0:
320,192,81284,1,0,0:0:0:0:
64,192,81383,1,0,0:0:0:0:
448,192,81383,1,0,0:0:0:0:
320,192,81580,1,0,0:0:0:0:
192,192,81679,1,0,0:0:0:0:
320,192,81777,1,0,0:0:0:0:
64,192,81777,1,0,0:0:0:0:
192,192,81975,1,0,0:0:0:0:
320,192,82073,1,0,0:0:0:0:
448,192,82172,1,0,0:0:0:0:
64,192,82172,1,0,0:0:0:0:
320,192,82369,1,0,0:0:0:0:
192,192,82468,1,0,0:0:0:0:
448,192,82567,1,0,0:0:0:0:
64,192,82567,1,0,0:0:0:0:
192,192,82764,1,0,0:0:0:0:
448,192,82863,1,0,0:0:0:0:
64,192,82962,1,0,0:0:0:0:
192,192,82962,1,0,0:0:0:0:
320,192,83159,1,0,0:0:0:0:
192,192,83159,1,0,0:0:0:0:
448,192,83159,1,0,0:0:0:0:
64,192,83554,1,0,0:0:0:0:
192,192,83554,1,0,0:0:0:0:
320,192,83554,1,0,0:0:0:0:
320,192,83751,1,0,0:0:0:0:
64,192,83751,1,0,0:0:0:0:
448,192,83948,1,0,0:0:0:0:
64,192,83948,1,0,0:0:0:0:
192,192,83948,1,0,0:0:0:0:
64,192,84343,1,0,0:0:0:0:
448,192,84343,1,0,0:0:0:0:
192,192,84541,1,0,0:0:0:0:
320,192,84541,1,0,0:0:0:0:
64,192,84738,1,0,0:0:0:0:
448,192,84738,1,0,0:0:0:0:
64,192,85133,1,0,0:0:0:0:
320,192,85133,1,0,0:0:0:0:
448,192,85133,1,0,0:0:0:0:
192,192,85527,1,0,0:0:0:0:
448,192,85527,1,0,0:0:0:0:
64,192,85527,1,0,0:0:0:0:
320,192,85922,1,0,0:0:0:0:
192,192,86021,1,0,0:0:0:0:
320,192,86119,1,0,0:0:0:0:
64,192,86317,1,0,0:0:0:0:
448,192,86416,1,0,0:0:0:0:
64,192,86514,1,0,0:0:0:0:
64,192,86810,1,0,0:0:0:0:
448,192,86909,1,0,0:0:0:0:
320,192,87008,1,0,0:0:0:0:
192,192,87106,1,0,0:0:0:0:
64,192,87205,1,0,0:0:0:0:
320,192,87304,128,0,88291:0:0:0:0:
448,192,87304,128,0,88291:0:0:0:0:
