osu file format v14

[General]
AudioFilename: audio.mp3
AudioLeadIn: 0
PreviewTime: 51087
Countdown: 0
SampleSet: Soft
StackLeniency: 0.7
Mode: 3
LetterboxInBreaks: 0
SpecialStyle: 0
WidescreenStoryboard: 1

[Editor]
DistanceSpacing: 0.6
BeatDivisor: 4
GridSize: 4
TimelineZoom: 2.6

[Metadata]
Title:Asterism
TitleUnicode:Asterism
Artist:ChouCho
ArtistUnicode:ChouCho
Creator:Illya X Ram Li
Version:4K EZ
Source:Fate/kaleid liner プリズマ☆イリヤ ドライ!!
Tags:Prisma☆Illya 3rei op opening anime loli etsu angki R e m u r i n g another lie
BeatmapID:1225222
BeatmapSetID:576914

[Difficulty]
HPDrainRate:7
CircleSize:4
OverallDifficulty:7
ApproachRate:5
SliderMultiplier:1.4
SliderTickRate:1

[Events]
//Background and Video events
0,0,"asterismbg.jpg",0,0
//Break Periods
//Storyboard Layer 0 (Background)
//Storyboard Layer 1 (Fail)
//Storyboard Layer 2 (Pass)
//Storyboard Layer 3 (Foreground)
//Storyboard Sound Samples

[TimingPoints]
462,375,4,2,1,20,1,0
1962,292.682926829268,4,2,1,20,1,0
1962,-125,4,2,1,20,0,0
3620,394.736842105263,4,2,1,20,1,0
52567,-100,4,2,1,20,0,1
65198,-100,4,2,1,20,0,0

[HitObjects]
64,192,462,128,0,1774:0:0:0:0:
448,192,1962,128,0,2986:0:0:0:0:
192,192,3571,1,0,0:0:0:0:
320,192,3571,1,0,0:0:0:0:
448,192,4014,1,0,0:0:0:0:
192,192,4409,1,0,0:0:0:0:
64,192,4804,1,0,0:0:0:0:
192,192,5198,1,0,0:0:0:0:
320,192,5593,1,0,0:0:0:0:
448,192,5988,1,0,0:0:0:0:
320,192,6383,1,0,0:0:0:0:
192,192,6777,1,0,0:0:0:0:
448,192,7172,1,0,0:0:0:0:
320,192,7567,1,0,0:0:0:0:
192,192,7962,1,0,0:0:0:0:
64,192,8356,1,0,0:0:0:0:
192,192,8751,1,0,0:0:0:0:
448,192,9146,1,0,0:0:0:0:
320,192,9541,1,0,0:0:0:0:
192,192,9935,1,0,0:0:0:0:
64,192,10330,1,0,0:0:0:0:
192,192,10725,1,0,0:0:0:0:
320,192,11119,1,0,0:0:0:0:
448,192,11514,1,0,0:0:0:0:
320,192,11909,1,0,0:0:0:0:
192,192,12304,1,0,0:0:0:0:
64,192,12698,1,0,0:0:0:0:
192,192,13093,1,0,0:0:0:0:
320,192,13488,1,0,0:0:0:0:
448,192,13883,1,0,0:0:0:0:
320,192,14179,1,0,0:0:0:0:
64,192,14475,128,0,15856:0:0:0:0:
448,192,16251,1,0,0:0:0:0:
320,192,16646,1,0,0:0:0:0:
192,192,17041,1,0,0:0:0:0:
64,192,17435,1,0,0:0:0:0:
448,192,17830,1,0,0:0:0:0:
320,192,18225,1,0,0:0:0:0:
192,192,18619,1,0,0:0:0:0:
64,192,19014,1,0,0:0:0:0:
192,192,19409,1,0,0:0:0:0:
320,192,19804,1,0,0:0:0:0:
448,192,20198,1,0,0:0:0:0:
320,192,20593,1,0,0:0:0:0:
64,192,20988,1,0,0:0:0:0:
448,192,21185,1,0,0:0:0:0:
192,192,21383,1,0,0:0:0:0:
448,192,21580,128,0,22172:0:0:0:0:
192,192,22172,1,0,0:0:0:0:
448,192,22567,1,0,0:0:0:0:
64,192,22764,1,0,0:0:0:0:
320,192,22962,1,0,0:0:0:0:
64,192,23159,128,0,23751:0:0:0:0:
448,192,23751,1,0,0:0:0:0:
320,192,24146,1,0,0:0:0:0:
64,192,24541,1,0,0:0:0:0:
192,192,24935,1,0,0:0:0:0:
448,192,25330,1,0,0:0:0:0:
192,192,25725,1,0,0:0:0:0:
320,192,26119,1,0,0:0:0:0:
448,192,26514,128,0,27106:0:0:0:0:
64,192,27106,1,0,0:0:0:0:
448,192,27501,1,0,0:0:0:0:
192,192,27896,128,0,28883:0:0:0:0:
448,192,28883,1,0,0:0:0:0:
64,192,29277,1,0,0:0:0:0:
320,192,29277,1,0,0:0:0:0:
448,192,29672,1,0,0:0:0:0:
320,192,30264,1,0,0:0:0:0:
192,192,30659,1,0,0:0:0:0:
64,192,30856,1,0,0:0:0:0:
320,192,31251,1,0,0:0:0:0:
192,192,31646,1,0,0:0:0:0:
448,192,32041,1,0,0:0:0:0:
64,192,32435,1,0,0:0:0:0:
320,192,32435,1,0,0:0:0:0:
192,192,32830,1,0,0:0:0:0:
64,192,33225,1,0,0:0:0:0:
320,192,33619,1,0,0:0:0:0:
448,192,34014,1,0,0:0:0:0:
320,192,34409,1,0,0:0:0:0:
192,192,34804,1,0,0:0:0:0:
64,192,35198,1,0,0:0:0:0:
192,192,35593,1,0,0:0:0:0:
448,192,35593,1,0,0:0:0:0:
320,192,35988,1,0,0:0:0:0:
192,192,36383,1,0,0:0:0:0:
64,192,36777,1,0,0:0:0:0:
192,192,37172,1,0,0:0:0:0:
320,192,37567,1,0,0:0:0:0:
192,192,37962,1,0,0:0:0:0:
64,192,38356,1,0,0:0:0:0:
192,192,38751,1,0,0:0:0:0:
448,192,38751,1,0,0:0:0:0:
320,192,39146,128,0,39738:0:0:0:0:
64,192,39738,1,0,0:0:0:0:
320,192,40133,1,0,0:0:0:0:
192,192,40527,1,0,0:0:0:0:
448,192,40725,128,0,41514:0:0:0:0:
192,192,41514,128,0,43093:0:0:0:0:
448,192,43093,128,0,43883:0:0:0:0:
320,192,43883,128,0,44672:0:0:0:0:
192,192,44672,128,0,46251:0:0:0:0:
64,192,46251,128,0,47633:0:0:0:0:
320,192,47633,1,0,0:0:0:0:
448,192,47633,1,0,0:0:0:0:
64,192,48422,1,0,0:0:0:0:
320,192,48422,1,0,0:0:0:0:
192,192,49212,1,0,0:0:0:0:
448,192,49212,1,0,0:0:0:0:
192,192,50001,1,0,0:0:0:0:
320,192,50001,1,0,0:0:0:0:
64,192,51185,128,0,52567:0:0:0:0:
192,192,52567,1,0,0:0:0:0:
448,192,52567,1,0,0:0:0:0:
320,192,52962,1,0,0:0:0:0:
192,192,53356,1,0,0:0:0:0:
64,192,53751,1,0,0:0:0:0:
192,192,54146,1,0,0:0:0:0:
448,192,54146,1,0,0:0:0:0:
320,192,54541,1,0,0:0:0:0:
192,192,54935,1,0,0:0:0:0:
64,192,55330,1,0,0:0:0:0:
192,192,55725,1,0,0:0:0:0:
448,192,55725,1,0,0:0:0:0:
320,192,56119,1,0,0:0:0:0:
192,192,56514,1,0,0:0:0:0:
64,192,56909,1,0,0:0:0:0:
192,192,57304,1,0,0:0:0:0:
448,192,57304,1,0,0:0:0:0:
320,192,57698,1,0,0:0:0:0:
192,192,58093,1,0,0:0:0:0:
64,192,58488,1,0,0:0:0:0:
192,192,58883,1,0,0:0:0:0:
448,192,58883,1,0,0:0:0:0:
320,192,59277,1,0,0:0:0:0:
192,192,59672,1,0,0:0:0:0:
64,192,60067,1,0,0:0:0:0:
192,192,60462,1,0,0:0:0:0:
448,192,60462,1,0,0:0:0:0:
320,192,60856,1,0,0:0:0:0:
192,192,61251,1,0,0:0:0:0:
64,192,61646,1,0,0:0:0:0:
192,192,62041,1,0,0:0:0:0:
448,192,62041,128,0,63422:0:0:0:0:
64,192,63422,1,0,0:0:0:0:
448,192,63817,1,0,0:0:0:0:
320,192,63817,1,0,0:0:0:0:
192,192,64212,1,0,0:0:0:0:
64,192,64212,1,0,0:0:0:0:
192,192,65198,1,0,0:0:0:0:
448,192,65198,1,0,0:0:0:0:
320,192,65593,1,0,0:0:0:0:
192,192,65988,1,0,0:0:0:0:
64,192,66383,1,0,0:0:0:0:
192,192,66777,1,0,0:0:0:0:
448,192,66777,1,0,0:0:0:0:
320,192,67172,1,0,0:0:0:0:
192,192,67567,1,0,0:0:0:0:
64,192,67962,1,0,0:0:0:0:
192,192,68356,1,0,0:0:0:0:
448,192,68356,1,0,0:0:0:0:
320,192,68751,1,0,0:0:0:0:
192,192,69146,1,0,0:0:0:0:
64,192,69541,1,0,0:0:0:0:
192,192,69738,1,0,0:0:0:0:
448,192,69738,1,0,0:0:0:0:
64,192,70527,1,0,0:0:0:0:
320,192,70527,1,0,0:0:0:0:
192,192,70922,1,0,0:0:0:0:
448,192,70922,1,0,0:0:0:0:
64,192,71317,1,0,0:0:0:0:
320,192,71317,1,0,0:0:0:0:
192,192,71712,1,0,0:0:0:0:
64,192,72304,1,0,0:0:0:0:
192,192,72698,1,0,0:0:0:0:
448,192,73093,1,0,0:0:0:0:
320,192,73488,1,0,0:0:0:0:
192,192,73883,1,0,0:0:0:0:
448,192,74277,1,0,0:0:0:0:
192,192,74672,128,0,77830:0:0:0:0:
448,192,77830,128,0,80791:0:0:0:0:
64,192,80988,128,0,83948:0:0:0:0:
448,192,83948,1,0,0:0:0:0:
64,192,84738,1,0,0:0:0:0:
448,192,85133,1,0,0:0:0:0:
64,192,85527,1,0,0:0:0:0:
320,192,85527,1,0,0:0:0:0:
448,192,86514,128,0,87304:0:0:0:0:
192,192,87304,128,0,88291:0:0:0:0:
