osu file format v14

[General]
AudioFilename: audio.mp3
AudioLeadIn: 0
PreviewTime: 339
Countdown: 0
SampleSet: Soft
StackLeniency: 0.7
Mode: 0
LetterboxInBreaks: 0
WidescreenStoryboard: 0

[Editor]
Bookmarks: 30945
DistanceSpacing: 2.7
BeatDivisor: 2
GridSize: 32
TimelineZoom: 2.8

[Metadata]
Title:Ashita no Kimi sae Ireba ii.
TitleUnicode:明日の君さえいればいい。
Artist:ChouCho
ArtistUnicode:ChouCho
Creator:chucentry
Version:Insane
Source:妹さえいればいい。
Tags:IMOTO SAE IREBA II. imouto opening op
BeatmapID:1464357
BeatmapSetID:692021

[Difficulty]
HPDrainRate:7
CircleSize:4
OverallDifficulty:8
ApproachRate:9
SliderMultiplier:1.8
SliderTickRate:1

[Events]
//Background and Video events
0,0,"64266609_p0.jpg",0,0
//Break Periods
//Storyboard Layer 0 (Background)
//Storyboard Layer 1 (Fail)
//Storyboard Layer 2 (Pass)
//Storyboard Layer 3 (Foreground)
//Storyboard Sound Samples

[TimingPoints]
1025,342.857142857143,4,2,2,50,1,0
1025,-133.333333333333,4,2,2,50,0,0
1882,337.078651685393,4,2,2,50,1,0
1882,-133.333333333333,4,2,2,50,0,0
3061,333.333333333333,4,2,2,50,1,0
3061,-133.333333333333,4,2,2,50,0,0
3727,338.983050847458,4,2,2,50,1,0
3727,-133.333333333333,4,2,2,50,0,0
5082,337.078651685393,4,2,2,50,1,0
5082,-133.333333333333,4,2,2,50,0,0
9126,340.909090909091,4,2,2,60,1,0
10489,-100,4,2,1,60,0,0
11137,337.078651685393,4,2,1,60,1,0
11811,342.857142857143,4,2,1,60,1,0
12668,329.67032967033,4,2,1,60,1,0
12668,-133.333333333333,4,2,1,60,0,0
12997,337.078651685393,4,2,1,60,1,0
12997,-100,4,2,1,60,0,0
13165,337.078651685393,4,2,1,60,1,0
27659,-83.3333333333333,4,2,1,60,0,0
27996,-83.3333333333333,4,2,2,40,0,0
29176,-83.3333333333333,4,2,1,60,0,0
29513,-100,4,2,1,60,0,0
30018,-76.9230769230769,4,2,1,60,0,0
31030,-100,4,2,1,60,0,0
33389,-111.111111111111,4,2,1,60,0,0
33726,-90.9090909090909,4,2,1,60,0,0
34063,-111.111111111111,4,2,1,60,0,0
34400,-90.9090909090909,4,2,1,60,0,0
35412,-111.111111111111,4,2,1,60,0,0
36086,-90.9090909090909,4,2,1,60,0,0
38445,-111.111111111111,4,2,1,60,0,0
39962,-90.9090909090908,4,2,1,60,0,0
40636,-100,4,2,1,60,0,0
41479,-90.9090909090909,4,2,1,60,0,0
42659,-111.111111111111,4,2,1,60,0,0
43839,-83.3333333333333,4,2,1,60,0,0
44176,-90.9090909090909,4,2,1,60,0,0
44850,-83.3333333333333,4,2,1,60,0,0
45524,-100,4,2,1,60,0,0
49569,-90.9090909090909,4,2,1,60,0,0
50749,-76.9230769230769,4,2,1,60,0,0
51591,-90.9090909090909,4,2,1,60,0,0
52266,-90.9090909090909,4,2,1,70,0,1
60356,-83.3333333333333,4,2,1,70,0,1
63052,-90.9090909090909,4,2,1,70,0,1
67771,333.333333333333,4,2,1,70,1,1
67771,-90.9090909090909,4,2,1,70,0,1
68437,333.333333333333,4,2,1,70,1,1
68437,-83.3333333333333,4,2,1,70,0,1
69104,337.078651685393,4,2,1,70,1,1
69778,337.078651685393,4,2,1,70,1,1
69778,-90.9090909090909,4,2,1,70,0,1
72474,340.909090909091,4,2,1,70,1,1
72474,-90.9090909090909,4,2,1,70,0,1
73667,337.078651685393,4,2,1,70,1,1
73667,-90.9090909090909,4,2,1,70,0,1
73835,337.078651685393,4,2,1,70,1,1
73835,-90.9090909090909,4,2,1,70,0,1
77711,333.333333333333,4,2,1,70,1,1
77711,-90.9090909090909,4,2,1,70,0,1
77877,333.333333333333,4,2,1,70,1,1
79211,337.078651685393,4,2,1,70,1,1
79716,-83.3333333333333,4,2,1,70,0,1
80390,340.909090909091,4,2,1,70,1,1
80390,-83.3333333333333,4,2,1,70,0,1
80560,340.909090909091,4,2,1,70,1,1
80560,-83.3333333333333,4,2,1,70,0,1
81924,337.078651685393,4,2,1,70,1,1
81924,-83.3333333333333,4,2,1,70,0,1
84620,337.078651685393,4,2,1,70,1,1
86642,-133.333333333333,4,2,0,70,0,1
87316,-133.333333333333,4,2,1,60,0,0
87653,-133.333333333333,4,2,1,40,0,0
87990,-133.333333333333,4,2,1,20,0,0
88327,-133.333333333333,4,2,1,10,0,0
88664,-133.333333333333,4,2,1,5,0,0

[HitObjects]
352,322,1025,6,0,P|400:329|469:280,1,135.000005149842,4|0,0:0|0:0,0:0:0:0:
265,227,1539,2,0,P|261:265|257:302,1,67.5000025749208,2|0,0:0|0:0,0:0:0:0:
385,235,1882,2,0,P|381:201|378:167,1,67.5000025749208,2|0,0:0|0:0,0:0:0:0:
439,57,2219,1,0,0:0:0:0:
439,57,2387,6,0,P|369:65|305:73,1,135.000005149842,2|0,0:0|0:0,0:0:0:0:
224,156,2893,1,0,0:0:0:0:
148,230,3061,2,0,P|126:189|127:117,2,101.250003862381,2|2|2,0:0|0:0|0:0,0:0:0:0:
343,191,3727,6,0,P|297:154|224:154,1,135.000005149842,2|0,0:0|0:0,0:0:0:0:
253,296,4235,2,0,P|260:262|269:218,1,67.5000025749208,2|0,0:0|0:0,0:0:0:0:
121,293,4574,2,0,P|125:326|129:359,1,67.5000025749208,2|0,0:0|0:0,0:0:0:0:
37,200,4913,1,0,0:0:0:0:
37,200,5081,6,0,P|108:193|173:186,1,135.000005149842,2|0,0:0|0:0,0:0:0:0:
252,121,5587,1,0,0:0:0:0:
295,252,5756,6,0,P|288:287|280:335,1,67.5000025749208,2|0,0:0|0:0,0:0:0:0:
171,186,6093,1,2,0:0:0:0:
429,264,6430,6,0,P|361:258|294:251,1,135.000005149842,2|0,0:0|0:0,0:0:0:0:
171,186,6935,2,0,P|174:222|182:253,1,67.5000025749208
89,296,7273,2,0,P|112:323|136:344,1,67.5000025749208
293,318,7610,1,2,0:0:0:0:
293,318,7778,6,0,P|300:250|309:170,1,135.000005149842,2|0,0:0|0:0,0:0:0:0:
251,99,8284,1,0,0:0:0:0:
384,119,8452,2,0,P|396:63|402:13,2,101.250003862381,2|2|2,0:0|0:0|0:0,0:0:0:0:
206,189,9126,5,2,0:0:0:0:
286,251,10489,5,2,0:3:0:0:
349,107,10830,1,2,0:3:0:0:
345,318,11137,5,8,0:3:0:0:
304,335,11221,1,8,0:3:0:0:
259,331,11305,1,8,0:3:0:0:
222,307,11389,1,8,0:3:0:0:
201,267,11474,2,8,L|196:203,1,45,8|8,0:3|0:3,0:3:0:0:
349,107,11642,2,8,L|345:153,1,45,8|8,0:3|0:3,0:3:0:0:
129,140,11811,6,0,P|173:134|218:129,1,90,4|0,0:0|0:0,0:0:0:0:
400,244,12153,2,0,P|355:238|310:233,1,90,4|0,0:0|0:0,0:0:0:0:
349,107,12496,1,0,0:0:0:0:
197,222,12668,6,0,P|202:255|208:288,1,67.5000025749208,2|0,0:0|0:0,0:0:0:0:
302,42,12997,6,0,P|388:35|435:107,1,180,4|0,0:0|0:0,0:0:0:0:
179,111,13502,2,0,P|174:63|170:18,1,90,8|0,0:0|0:0,0:0:0:0:
169,21,13754,1,0,0:0:0:0:
169,21,13839,1,8,0:0:0:0:
348,106,14007,2,0,L|345:151,2,45,0|0|8,0:0|0:0|0:0,0:0:0:0:
239,243,14344,1,0,0:0:0:0:
92,159,14513,6,0,B|50:204|50:204|66:332,1,180,2|8,0:0|0:0,0:0:0:0:
239,243,15019,1,2,0:0:0:0:
239,243,15103,1,2,0:0:0:0:
239,243,15187,1,2,0:0:0:0:
335,296,15356,2,0,P|340:249|346:192,1,90,0|8,0:0|0:0,0:0:0:0:
126,57,15693,6,0,P|173:103|285:86,1,180,4|0,0:0|0:0,0:0:0:0:
344,206,16198,1,8,0:0:0:0:
211,10,16367,1,0,0:0:0:0:
140,188,16535,1,8,0:0:0:0:
361,53,16704,5,8,0:0:0:0:
361,53,16788,1,8,0:0:0:0:
361,53,16872,2,8,L|366:116,1,45
468,177,17041,2,8,L|461:221,1,45
353,321,17209,6,0,P|263:316|170:312,1,180,4|8,0:0|0:0,0:0:0:0:
89,203,17715,1,0,0:0:0:0:
252,130,17884,2,0,P|246:175|239:232,1,90
77,292,18221,1,8,0:0:0:0:
170,85,18389,1,0,0:0:0:0:
170,85,18558,6,0,P|228:45|333:77,1,180,2|8,0:0|0:0,0:0:0:0:
397,214,19063,1,0,0:0:0:0:
397,214,19148,1,0,0:0:0:0:
397,214,19232,1,0,0:0:0:0:
252,130,19400,1,0,0:0:0:0:
163,245,19569,2,0,P|130:213|112:157,1,90,8|0,0:0|0:0,0:0:0:0:
302,205,19906,6,0,P|291:274|279:348,1,135,2|0,0:0|0:0,0:0:0:0:
260,374,20243,1,8,0:0:0:0:
421,316,20412,1,0,0:0:0:0:
421,316,20496,1,0,0:0:0:0:
421,316,20580,1,0,0:0:0:0:
363,165,20749,1,0,0:0:0:0:
260,374,20917,2,0,P|218:366|142:354,1,90,8|0,0:0|0:0,0:0:0:0:
83,125,21254,5,2,0:0:0:0:
196,213,21423,1,2,0:0:0:0:
45,239,21591,1,8,0:0:0:0:
170,93,21760,1,0,0:0:0:0:
170,93,21844,1,0,0:0:0:0:
170,93,21929,2,0,P|217:91|278:87,1,90
400,219,22266,2,0,P|355:216|310:214,1,90,8|0,0:0|0:0,0:0:0:0:
54,304,22603,6,0,B|112:294|112:294|174:313|174:313|240:302,1,180,4|8,0:0|0:0,0:0:0:0:
181,188,23108,1,0,0:0:0:0:
321,373,23277,2,0,P|339:331|340:278,1,90
281,81,23614,5,4,0:0:0:0:
281,81,23951,5,0,0:0:0:0:
206,244,24120,1,0,0:0:0:0:
358,186,24288,2,0,P|404:185|462:183,1,90,12|0,0:0|0:0,0:0:0:0:
192,215,24625,5,2,0:0:0:0:
303,58,24794,1,2,0:0:0:0:
368,223,24962,1,12,0:0:0:0:
189,95,25131,1,0,0:0:0:0:
189,95,25215,1,0,0:0:0:0:
189,95,25299,6,0,P|139:97|82:99,1,90,4|0,0:0|0:0,0:0:0:0:
278,226,25636,2,0,P|322:224|367:222,1,90,12|0,0:0|0:0,0:0:0:0:
188,316,25973,5,8,0:0:0:0:
99,98,26142,1,8,0:0:0:0:
20,263,26311,1,8,0:0:0:0:
196,234,26479,6,0,P|265:284|251:368,1,180,2|0,0:0|0:0,0:0:0:0:
108,291,26985,5,8,0:0:0:0:
367,221,27153,1,0,0:0:0:0:
103,187,27322,5,8,0:0:0:0:
315,315,27490,1,0,0:0:0:0:
76,377,27659,6,0,P|21:320|31:242,1,161.999995056153,12|0,0:0|0:0,0:0:0:0:
93,142,27996,1,4,0:0:0:0:
487,205,29176,6,0,P|403:198|308:189,1,161.999995056153,4|0,0:0|0:0,0:0:0:0:
246,158,29513,1,0,0:0:0:0:
107,305,29681,2,0,P|94:263|99:210,1,90,8|0,0:0|0:0,0:0:0:0:
326,191,30018,6,0,P|328:131|284:79,1,116.999994644165,8|0,0:0|0:0,0:0:0:0:
260,244,30271,6,0,P|310:275|377:263,1,116.999994644165,8|0,0:0|0:0,0:0:0:0:
246,158,30524,6,0,P|203:179|185:230,1,58.4999973220826,8|0,0:0|0:0,0:0:0:0:
170,235,30693,1,8,0:0:0:0:
134,90,30861,1,0,0:0:0:0:
127,313,31030,6,0,P|213:316|259:243,1,180,4|0,0:0|0:0,0:0:0:0:
349,77,31535,2,0,P|328:118|322:171,1,90
475,343,31872,2,0,P|459:278|356:245,1,180,2|0,0:0|0:0,0:0:0:0:
178,325,32378,2,0,P|174:280|171:236,1,90,8|0,0:0|0:0,0:0:0:0:
168,213,32631,1,8,0:0:0:0:
167,191,32715,1,8,0:0:0:0:
343,37,32884,5,8,0:0:0:0:
372,73,32968,1,8,0:0:0:0:
376,121,33052,1,8,0:0:0:0:
348,162,33136,1,8,0:0:0:0:
302,179,33221,2,8,L|253:165,1,45
17,145,33389,6,0,P|86:142|138:114,1,121.499996292114,2|0,0:0|0:0,0:0:0:0:
156,42,33726,6,0,L|167:197,1,148.50000453186,4|0,0:0|0:0,0:0:0:0:
164,301,34063,6,0,P|216:271|276:266,1,121.499996292114,2|0,0:0|0:0,0:0:0:0:
355,332,34400,6,0,L|365:184,1,148.50000453186,4|0,0:0|0:0,0:0:0:0:
372,101,34738,5,2,0:0:0:0:
454,265,34906,1,0,0:0:0:0:
242,155,35075,1,12,0:0:0:0:
464,80,35243,1,0,0:0:0:0:
276,266,35412,6,0,P|234:269|179:253,1,80.9999975280763,2|0,0:0|0:0,0:0:0:0:
46,99,35749,2,0,P|85:90|125:93,1,80.9999975280763
62,302,36086,6,0,L|59:203,1,99.0000030212403,4|0,0:0|0:0,0:0:0:0:
244,56,36423,2,0,L|242:155,1,99.0000030212403,8|0,0:0|0:0,0:0:0:0:
46,99,36760,1,2,0:0:0:0:
196,260,36929,1,2,0:0:0:0:
244,56,37097,1,2,0:0:0:0:
110,212,37266,6,0,P|98:281|191:358,1,198.000006042481,4|0,0:0|0:0,0:0:0:0:
380,258,37771,2,0,P|303:258|231:258,1,148.50000453186,12|0,0:0|0:0,0:0:0:0:
196,260,38108,1,8,0:0:0:0:
361,82,38277,1,8,0:0:0:0:
307,222,38445,5,8,0:3:0:0:
207,106,38614,1,8,0:3:0:0:
88,338,38782,5,12,0:0:0:0:
307,222,39288,1,12,0:0:0:0:
211,209,39625,5,0,0:0:0:0:
176,340,39794,1,0,0:0:0:0:
360,306,39962,6,0,P|401:249|382:157,1,148.50000453186,4|0,0:0|0:0,0:0:0:0:
209,127,40299,6,0,P|240:193|307:222,1,148.50000453186,4|0,0:0|0:0,0:0:0:0:
479,177,40636,6,0,P|446:108|348:104,1,180,4|0,0:0|0:0,0:0:0:0:
211,209,41142,1,8,0:0:0:0:
393,174,41311,1,4,0:0:0:0:
354,332,41479,6,0,P|290:324|148:316,1,198.000006042481,2|8,0:0|0:0,0:0:0:0:
22,218,41985,2,0,P|72:219|130:217,1,99.0000030212403,2|0,0:0|0:0,0:0:0:0:
265,186,42322,1,0,0:0:0:0:
169,91,42490,1,8,0:0:0:0:
417,123,42659,6,0,P|402:190|394:233,1,80.9999975280763,2|0,0:0|0:0,0:0:0:0:
262,365,42996,2,0,P|253:321|241:253,1,80.9999975280763,2|0,0:0|0:0,0:0:0:0:
270,131,43333,1,2,0:0:0:0:
43,264,43502,1,8,0:3:0:0:
82,293,43586,1,8,0:3:0:0:
132,291,43670,1,8,0:3:0:0:
169,259,43754,1,8,0:3:0:0:
178,209,43839,6,0,L|192:35,1,161.999995056153,4|0,0:0|0:0,0:0:0:0:
140,124,44176,6,0,B|184:139|184:139|250:125,1,99.0000030212403,4|0,0:0|0:0,0:0:0:0:
372,102,44429,2,0,B|337:132|337:132|316:196,1,99.0000030212403,4|0,0:0|0:0,0:0:0:0:
430,239,44681,2,0,L|421:190,1,49.5000015106202,4|0,0:0|0:0,0:0:0:0:
204,351,44850,6,0,B|257:367|257:367|309:350,1,107.999996704102,4|0,0:0|0:0,0:0:0:0:
470,308,45103,2,0,B|418:290|418:290|352:300,1,107.999996704102,4|0,0:0|0:0,0:0:0:0:
251,219,45356,2,0,L|254:272,1,53.9999983520508,4|0,0:0|0:0,0:0:0:0:
204,351,45524,6,0,P|131:373|136:290,1,180,4|8,0:0|0:0,0:0:0:0:
251,219,46030,1,8,0:0:0:0:
39,177,46198,1,8,0:0:0:0:
204,351,46367,1,8,0:0:0:0:
149,135,46535,1,8,0:0:0:0:
53,307,46704,1,8,0:0:0:0:
267,138,46872,6,0,P|314:140|365:142,1,90,4|0,0:0|0:0,0:0:0:0:
471,275,47209,1,8,0:0:0:0:
445,324,47293,1,8,0:0:0:0:
395,346,47377,1,8,0:0:0:0:
342,333,47461,1,8,0:0:0:0:
308,289,47547,2,8,L|314:228,1,45
457,132,47715,2,8,L|452:176,1,45
267,138,47884,2,8,L|264:73,1,45
396,25,48052,2,8,L|387:93,1,45
312,244,48221,5,8,0:0:0:0:
278,245,48305,1,8,0:0:0:0:
244,247,48389,1,8,0:0:0:0:
210,249,48473,1,8,0:0:0:0:
176,250,48558,5,8,0:0:0:0:
135,231,48642,1,8,0:0:0:0:
107,196,48726,1,8,0:0:0:0:
99,152,48810,1,8,0:0:0:0:
111,109,48895,1,8,0:3:0:0:
141,77,48979,1,8,0:3:0:0:
183,62,49063,1,8,0:3:0:0:
227,67,49147,1,8,0:3:0:0:
264,92,49232,6,8,L|325:111,1,45,8|8,0:3|0:3,0:3:0:0:
463,193,49400,2,8,L|400:205,1,45,8|8,0:3|0:3,0:3:0:0:
390,69,49569,5,4,0:0:0:0:
312,244,49738,1,0,0:0:0:0:
312,244,49822,1,0,0:0:0:0:
312,244,49906,1,0,0:0:0:0:
307,105,50075,5,4,0:0:0:0:
392,297,50244,1,0,0:0:0:0:
392,297,50328,1,0,0:0:0:0:
392,297,50412,1,0,0:0:0:0:
472,103,50580,5,4,0:0:0:0:
312,244,50749,2,0,P|239:261|267:187,1,175.499991966248,8|0,0:0|0:0,0:0:0:0:
307,105,51086,5,8,0:0:0:0:
258,358,51254,1,8,0:0:0:0:
85,150,51591,5,8,0:0:0:0:
185,217,51760,1,8,0:0:0:0:
185,217,51844,1,8,0:0:0:0:
185,217,51929,2,8,L|257:212,1,49.5000015106202
307,105,52097,2,8,L|360:114,1,49.5000015106202
501,257,52266,6,0,B|442:239|442:239|346:258,1,148.50000453186,4|0,0:0|0:0,0:0:0:0:
310,290,52603,6,0,L|320:180,1,99.0000030212403,8|0,0:0|0:0,0:0:0:0:
441,109,52940,1,0,0:0:0:0:
203,38,53108,2,0,L|204:138,1,99.0000030212403,0|8,0:0|0:0,0:0:0:0:
251,346,53445,6,0,P|318:374|386:278,1,198.000006042481,2|0,0:0|0:0,0:0:0:0:
298,164,53951,1,8,0:0:0:0:
163,259,54120,1,0,0:0:0:0:
163,259,54204,1,0,0:0:0:0:
163,259,54288,2,0,P|111:255|39:247,1,99.0000030212403,2|0,0:0|0:0,0:0:0:0:
301,191,54625,2,0,P|305:243|313:315,1,99.0000030212403,8|0,0:0|0:0,0:0:0:0:
207,148,54962,6,0,P|237:95|365:100,1,198.000006042481,4|8,0:0|0:0,0:0:0:0:
408,295,55468,1,0,0:0:0:0:
408,295,55552,1,0,0:0:0:0:
408,295,55636,2,0,P|358:292|277:287,1,99.0000030212403
118,190,55973,1,8,0:0:0:0:
198,335,56142,2,0,B|202:310|204:285,1,49.5000015106202
239,158,56311,5,2,0:0:0:0:
97,302,56479,1,2,0:0:0:0:
309,289,56648,1,8,0:0:0:0:
118,190,56816,1,0,0:0:0:0:
218,56,56985,2,0,P|271:54|340:52,1,99.0000030212403,2|0,0:0|0:0,0:0:0:0:
483,207,57322,2,0,P|429:205|361:203,1,99.0000030212403,8|0,0:0|0:0,0:0:0:0:
97,302,57659,6,0,P|143:246|262:264,1,198.000006042481,4|8,0:0|0:0,0:0:0:0:
426,335,58164,1,0,0:0:0:0:
426,335,58249,1,0,0:0:0:0:
426,335,58333,2,0,P|376:338|319:342,1,99.0000030212403
179,196,58670,2,0,P|175:245|171:302,1,99.0000030212403,8|0,0:0|0:0,0:0:0:0:
338,217,59007,6,0,P|355:172|340:99,1,99.0000030212403,2|0,0:0|0:0,0:0:0:0:
330,91,59260,1,0,0:0:0:0:
330,91,59344,2,0,P|280:88|207:84,1,99.0000030212403,8|0,0:0|0:0,0:0:0:0:
55,201,59681,1,8,0:0:0:0:
25,230,59765,1,8,0:0:0:0:
12,269,59849,1,8,0:0:0:0:
18,309,59933,1,8,0:0:0:0:
39,343,60018,1,8,0:0:0:0:
74,365,60102,1,8,0:0:0:0:
116,368,60187,2,8,L|179:359,1,49.5000015106202
334,269,60356,6,0,P|247:267|150:265,1,161.999995056153,4|0,0:0|0:0,0:0:0:0:
127,264,60693,1,8,0:0:0:0:
422,192,60861,6,0,P|450:265|418:352,1,161.999995056153,4|0,0:0|0:0,0:0:0:0:
407,367,61198,2,0,L|295:358,1,107.999996704102,8|0,0:3|0:0,0:0:0:0:
64,196,61535,6,0,B|131:172|131:172|196:203|196:203|265:180,1,215.999993408203,4|0,0:0|0:0,0:0:0:0:
161,71,62041,1,8,0:0:0:0:
401,37,62209,2,0,P|394:91|384:165,1,107.999996704102,4|0,0:0|0:0,0:0:0:0:
387,314,62547,5,8,0:0:0:0:
365,353,62631,1,8,0:0:0:0:
328,378,62715,1,8,0:0:0:0:
284,383,62799,1,8,0:0:0:0:
242,368,62884,1,8,0:0:0:0:
212,335,62968,1,8,0:0:0:0:
200,292,63052,6,0,P|200:216|200:132,1,148.50000453186,4|0,0:0|0:0,0:0:0:0:
199,111,63389,1,8,0:0:0:0:
15,238,63558,2,0,P|66:234|123:232,1,99.0000030212403
295,284,63895,1,0,0:0:0:0:
199,144,64063,1,8,0:0:0:0:
390,66,64232,6,0,P|434:121|397:240,1,198.000006042481,2|0,0:0|0:0,0:0:0:0:
295,284,64738,2,0,L|169:280,1,99.0000030212403,8|0,0:0|0:0,0:0:0:0:
166,276,64990,1,0,0:0:0:0:
166,276,65075,1,0,0:0:0:0:
271,190,65243,1,0,0:0:0:0:
97,120,65412,1,8,0:0:0:0:
230,67,65580,1,0,0:0:0:0:
50,238,65749,6,0,P|52:291|56:344,1,99.0000030212403,2|0,0:0|0:0,0:0:0:0:
196,280,66086,1,8,0:0:0:0:
97,120,66254,1,0,0:0:0:0:
287,161,66423,1,0,0:0:0:0:
50,238,66591,1,0,0:0:0:0:
270,332,66760,1,8,0:0:0:0:
97,120,66929,5,4,0:0:0:0:
50,238,67266,1,2,0:0:0:0:
97,120,67434,2,0,P|146:117|195:114,1,99.0000030212403,2|0,0:0|0:0,0:0:0:0:
347,209,67771,5,8,0:0:0:0:
367,253,67854,1,8,0:0:0:0:
356,300,67937,1,8,0:0:0:0:
319,331,68020,1,8,0:0:0:0:
270,332,68104,2,8,B|241:321|207:306,1,49.5000015106202
84,257,68271,2,8,B|79:275|71:304,1,49.5000015106202
252,179,68437,6,0,B|278:127|278:127|266:68,1,107.999996704102,12|0,0:0|0:0,0:0:0:0:
156,145,68687,2,0,B|146:193|146:193|172:245,1,107.999996704102,12|0,0:0|0:0,0:0:0:0:
288,260,68937,1,12,0:0:0:0:
116,344,69103,1,12,0:0:0:0:
394,308,69441,5,2,0:3:0:0:
394,308,69778,6,0,B|345:295|345:295|276:313,1,99.0000030212403,12|0,0:0|0:0,0:0:0:0:
116,344,70030,2,0,B|165:357|165:357|234:339,1,99.0000030212403,12|0,0:0|0:0,0:0:0:0:
222,154,70283,2,0,B|211:192|211:192|225:246,1,49.5000015106202,12|0,0:0|0:0,0:0:0:0:
221,249,70452,1,12,0:0:0:0:
281,53,70620,1,8,0:0:0:0:
281,53,70704,1,8,0:0:0:0:
281,53,70789,1,8,0:0:0:0:
481,196,70957,6,0,B|436:186|412:180|412:180|362:207|362:207|331:200|285:194,1,198.000006042481,4|0,0:0|0:0,0:0:0:0:
110,210,71463,1,8,0:0:0:0:
194,341,71631,1,0,0:0:0:0:
194,341,71716,1,0,0:0:0:0:
194,341,71800,2,0,P|243:336|292:330,1,99.0000030212403
374,175,72137,2,0,P|324:170|275:164,1,99.0000030212403,8|0,0:0|0:0,0:0:0:0:
151,181,72474,5,8,0:0:0:0:
292,330,72644,1,8,0:0:0:0:
375,82,72814,1,8,0:0:0:0:
375,82,73155,6,0,L|357:205,1,99.0000030212403,2|0,0:3|0:0,0:0:0:0:
360,179,73411,1,0,0:0:0:0:
360,179,73496,1,8,0:0:0:0:
120,149,73667,6,0,P|173:147|237:144,1,99.0000030212403,4|0,0:0|0:0,0:0:0:0:
381,52,74003,1,8,0:0:0:0:
381,52,74172,1,8,0:0:0:0:
430,218,74340,6,0,P|377:216|313:213,1,99.0000030212403,4|0,0:0|0:0,0:0:0:0:
184,52,74676,1,8,0:0:0:0:
184,52,74845,1,8,0:0:0:0:
62,260,75014,6,0,P|115:258|179:255,1,99.0000030212403,4|0,0:0|0:0,0:0:0:0:
303,134,75350,1,8,0:0:0:0:
303,134,75519,1,8,0:0:0:0:
352,300,75688,5,8,0:0:0:0:
352,300,75773,1,8,0:0:0:0:
352,300,75857,1,8,0:0:0:0:
183,259,76026,1,8,0:3:0:0:
183,259,76110,1,8,0:3:0:0:
183,259,76194,2,8,L|180:200,1,49.5000015106202,8|8,0:3|0:3,0:3:0:0:
303,134,76363,2,8,L|296:187,1,49.5000015106202,8|8,0:3|0:3,0:3:0:0:
99,184,76531,6,0,P|103:134|108:85,1,99.0000030212403,4|0,0:0|0:0,0:0:0:0:
267,37,76868,1,8,0:0:0:0:
136,267,77037,6,0,P|86:273|37:252,1,99.0000030212403,4|0,0:0|0:0,0:0:0:0:
222,157,77374,1,8,0:0:0:0:
222,157,77542,1,8,0:0:0:0:
330,314,77711,6,0,P|386:334|462:238,1,198.000006042481,4|8,0:0|0:0,0:0:0:0:
223,118,78210,1,8,0:0:0:0:
156,347,78377,1,8,0:0:0:0:
379,248,78543,1,8,0:0:0:0:
85,192,78711,5,8,0:0:0:0:
57,232,78794,1,8,0:0:0:0:
52,280,78877,1,8,0:0:0:0:
72,325,78960,1,8,0:0:0:0:
112,354,79043,2,8,L|192:342,1,45
330,314,79211,5,12,0:0:0:0:
280,191,79548,2,0,B|268:216|263:258,1,45,2|0,0:0|0:0,0:0:0:0:
330,314,79716,6,0,P|286:270|165:276,1,161.999995056153,4|0,0:0|0:0,0:0:0:0:
160,280,80053,1,8,0:3:0:0:
110,119,80222,1,8,0:3:0:0:
280,191,80390,6,0,P|363:188|463:182,1,161.999995056153,4|0,0:0|0:0,0:0:0:0:
471,171,80730,1,2,0:0:0:0:
293,49,80900,1,10,0:0:0:0:
353,281,81071,1,8,0:0:0:0:
353,281,81156,1,2,0:0:0:0:
353,281,81241,1,2,0:0:0:0:
468,84,81412,1,2,0:0:0:0:
280,191,81582,2,0,B|193:189|109:187,1,161.999995056153,8|0,0:3|0:0,0:0:0:0:
37,142,81923,5,4,0:0:0:0:
188,96,82260,1,8,0:0:0:0:
37,142,82429,2,0,P|27:195|51:260,1,107.999996704102,4|0,0:0|0:0,0:0:0:0:
222,191,82766,1,8,0:3:0:0:
271,351,82935,1,8,0:3:0:0:
29,341,83103,6,0,P|77:271|203:283,1,215.999993408203,4|0,0:0|0:0,0:0:0:0:
397,341,83609,2,0,P|384:286|333:244,1,107.999996704102,8|0,0:0|0:0,0:0:0:0:
181,188,83946,1,0,0:0:0:0:
271,351,84115,1,8,0:3:0:0:
378,140,84283,1,8,0:3:0:0:
264,230,84452,1,0,0:0:0:0:
117,123,84620,6,0,P|114:73|112:23,1,90,4|0,0:0|0:0,0:0:0:0:
284,140,84957,1,8,0:0:0:0:
146,251,85125,2,0,P|101:247|56:243,1,90,12|0,0:0|0:0,0:0:0:0:
263,324,85462,1,0,0:0:0:0:
200,133,85631,1,8,0:0:0:0:
327,236,85799,6,0,P|387:232|471:225,1,135,4|0,0:0|0:0,0:0:0:0:
489,206,86136,1,2,0:0:0:0:
309,356,86305,2,0,P|264:339|229:298,1,90,8|0,0:0|0:0,0:0:0:0:
200,133,86642,6,0,B|205:183|205:183|184:246,2,101.250003862381,2|2|2,0:0|0:0|0:0,0:0:0:0:
144,311,87316,5,14,0:0:0:0:
256,192,87400,12,0,89001,0:0:0:0:
