osu file format v14

[General]
AudioFilename: audio.mp3
AudioLeadIn: 0
PreviewTime: 52656
Countdown: 0
SampleSet: Soft
StackLeniency: 0.7
Mode: 0
LetterboxInBreaks: 0
WidescreenStoryboard: 1

[Editor]
DistanceSpacing: 1
BeatDivisor: 4
GridSize: 4
TimelineZoom: 1.6

[Metadata]
Title:Ashita no Kimi sae Ireba Ii. (TV Size)
TitleUnicode:明日の君さえいればいい。(TV Size)
Artist:ChouCho
ArtistUnicode:ChouCho
Creator:Koyorin-sama
Version:Normal
Source:妹さえいればいい。
Tags:ちょうちょ IMOTO SAE IREBA II. imouto opening op カントク Kantoku 平坂読 Hirasaka Yomi airiesu mujina rk657 matsuyuki_ame twil_furano pop jpop j-pop japanese anime imosae female vocal vocalist maiev
BeatmapID:3247696
BeatmapSetID:1583554

[Difficulty]
HPDrainRate:3
CircleSize:3
OverallDifficulty:4
ApproachRate:5.2
SliderMultiplier:1.1
SliderTickRate:1

[Events]
//Background and Video events
0,0,"imosae.png",0,0
//Break Periods
//Storyboard Layer 0 (Background)
//Storyboard Layer 1 (Fail)
//Storyboard Layer 2 (Pass)
//Storyboard Layer 3 (Foreground)
//Storyboard Layer 4 (Overlay)
//Storyboard Sound Samples

[TimingPoints]
1572,342.857142857143,4,2,1,45,1,0
2258,342.857142857143,4,2,1,45,1,0
2258,-111.111111111111,4,2,1,45,0,0
3115,337.078651685393,4,2,1,45,1,0
3115,-111.111111111111,4,2,1,45,0,0
4294,333.333333333333,4,2,1,45,1,0
4294,-111.111111111111,4,2,1,45,0,0
4960,338.983050847458,4,2,1,45,1,0
4960,-111.111111111111,4,2,1,45,0,0
6315,337.078651685393,4,2,2,50,1,0
6315,-111.111111111111,4,2,2,50,0,0
6989,-111.111111111111,4,2,1,45,0,0
10359,340.909090909091,4,2,1,45,1,0
11040,-111.111111111111,4,2,2,60,0,0
11722,-111.111111111111,4,2,1,70,0,0
12370,337.078651685393,4,2,1,70,1,0
12370,-111.111111111111,4,2,1,70,0,0
13044,342.857142857143,4,2,1,70,1,0
13901,329.67032967033,4,2,1,70,1,0
14065,-100,4,2,1,60,0,0
14230,337.078651685393,4,2,1,70,1,0
14230,-100,4,2,1,70,0,0
14398,337.078651685393,4,2,1,60,1,0
14567,-100,4,2,1,70,0,0
14735,-100,4,2,1,70,0,0
15577,-100,4,2,1,70,0,0
15746,-100,4,2,1,70,0,0
16757,-100,4,2,1,70,0,0
16926,-100,4,2,1,70,0,0
18442,-100,4,2,1,60,0,0
28892,-100,4,2,1,60,0,0
29229,-100,4,2,1,60,0,0
30409,-100,4,2,1,60,0,0
30746,-100,4,2,1,60,0,0
32263,-100,4,2,1,65,0,0
34622,-100,4,2,1,65,0,0
34959,-100,4,2,1,65,0,0
35296,-100,4,2,1,65,0,0
35633,-100,4,2,1,65,0,0
36645,-100,4,2,1,65,0,0
37319,-100,4,2,1,65,0,0
39678,-100,4,2,1,65,0,0
40015,-100,4,2,1,55,0,0
41195,-100,4,2,1,55,0,0
41869,-100,4,2,1,60,0,0
42712,-100,4,2,1,65,0,0
43892,-100,4,2,1,65,0,0
45072,-100,4,2,1,65,0,0
45409,-100,4,2,1,70,0,0
46083,-100,4,2,1,70,0,0
46757,-100,4,2,1,70,0,0
48105,-100,4,2,1,75,0,0
50802,-100,4,2,1,75,0,0
53499,-90.9090909090909,4,2,1,80,0,1
54846,-90.9090909090909,4,2,1,70,0,1
55015,-90.9090909090909,4,2,1,80,0,1
60409,-90.9090909090909,4,2,1,70,0,1
60577,-90.9090909090909,4,2,1,80,0,1
61589,-90.9090909090909,4,2,1,80,0,1
64285,-90.9090909090909,4,2,1,75,0,1
68162,-90.9090909090909,4,2,1,80,0,1
69004,333.333333333333,4,2,1,70,1,1
69004,-90.9090909090909,4,2,1,70,0,1
69670,333.333333333333,4,2,1,70,1,1
69670,-90.9090909090909,4,2,1,70,0,1
70337,337.078651685393,4,2,1,70,1,1
71011,337.078651685393,4,2,1,75,1,1
71011,-90.9090909090909,4,2,1,75,0,1
72190,-90.9090909090909,4,2,1,80,0,1
73707,340.909090909091,4,2,1,80,1,1
73707,-90.9090909090909,4,2,1,80,0,1
74047,-90.9090909090909,4,2,1,70,0,1
74900,337.078651685393,4,2,1,70,1,1
74900,-90.9090909090909,4,2,1,70,0,1
76247,-90.9090909090909,4,2,1,75,0,1
77764,-90.9090909090909,4,2,1,80,0,1
78944,333.333333333333,4,2,1,80,1,1
78944,-90.9090909090909,4,2,1,80,0,1
79444,-90.9090909090909,4,2,1,80,0,1
80444,337.078651685393,4,2,1,80,1,1
80949,-90.9090909090909,4,2,1,80,0,1
81623,340.909090909091,4,2,1,80,1,1
81623,-90.9090909090909,4,2,1,80,0,1
81793,340.909090909091,4,2,1,70,1,1
81963,-90.9090909090909,4,2,1,80,0,1
83157,337.078651685393,4,2,1,80,1,1
83157,-90.9090909090909,4,2,1,80,0,1
87875,-90.9090909090909,4,2,1,65,0,1
88550,-100,4,2,1,75,0,0
88886,-100,4,2,1,40,0,0
89223,-100,4,2,1,20,0,0
89560,-100,4,2,1,10,0,0
90067,-100,4,2,1,5,0,0

[Colours]
Combo1 : 243,248,251
Combo2 : 217,169,129

[HitObjects]
84,55,2258,6,0,P|136:48|178:66,1,98.9999969787599,2|2,0:2|0:2,0:0:0:0:
203,108,2772,2,0,L|197:211,1,98.9999969787599,2|2,0:2|0:2,0:0:0:0:
193,306,3452,1,2,0:2:0:0:
435,368,4294,2,0,P|456:290|407:230,1,148.49999546814,2|2,0:2|0:2,0:0:0:0:
376,217,4960,2,0,P|335:220|281:171,1,98.9999969787599,2|2,0:2|0:2,0:0:0:0:
272,141,5468,2,0,L|282:39,1,98.9999969787599,2|2,0:2|0:2,0:0:0:0:
376,13,6146,1,2,0:2:0:0:
414,257,6989,2,0,P|447:254|480:239,2,49.4999984893799,2|2|2,0:2|0:2|0:2,0:0:0:0:
315,248,7663,6,0,P|261:247|216:288,1,98.9999969787599,2|2,0:2|0:2,0:0:0:0:
190,307,8168,2,0,P|136:308|91:267,1,98.9999969787599,2|2,0:2|0:2,0:0:0:0:
67,189,8843,2,0,L|83:80,1,98.9999969787599,2|2,0:2|0:2,0:0:0:0:
89,42,9348,1,2,0:2:0:0:
180,80,9685,2,0,B|238:100|277:37|277:37|334:53|337:109,1,197.99999395752,2|2,0:2|0:2,0:0:0:0:
497,313,11722,6,0,P|429:313|401:334,1,98.9999969787599,2|2,0:2|0:2,0:0:0:0:
323,368,12370,1,0,3:2:0:0:
227,342,12707,2,0,L|168:328,1,49.4999984893799,8|0,0:2|3:2,0:0:0:0:
127,312,13044,6,0,B|126:253|126:253|162:211,1,110,6|14,3:2|0:2,0:0:0:0:
255,161,13729,1,2,3:2:0:0:
255,161,13901,1,2,3:2:0:0:
357,191,14230,2,0,B|385:142|385:142|366:80,1,110,10|0,0:2|3:2,0:0:0:0:
340,43,14735,1,8,0:2:0:0:
234,12,15072,2,0,L|172:23,1,55,10|2,0:2|3:2,0:0:0:0:
132,50,15409,2,0,L|70:39,1,55,10|2,0:2|0:2,0:0:0:0:
25,24,15746,6,0,B|0:56|0:56|17:139,1,110,6|10,3:2|0:2,0:0:0:0:
64,221,16420,2,0,L|3:236,2,55,2|2|2,3:2|3:2|0:2,0:0:0:0:
118,211,16926,2,0,P|180:212|219:264,1,110,14|0,0:2|3:2,0:0:0:0:
222,297,17431,1,8,0:2:0:0:
332,294,17768,2,0,L|345:176,1,110,2|0,3:2|3:2,0:0:0:0:
313,78,18442,6,0,P|235:56|177:111,1,165,6|2,3:2|0:2,0:0:0:0:
168,162,19117,2,0,L|179:280,1,110,2|8,3:2|0:2,0:0:0:0:
234,365,19791,1,0,3:2:0:0:
342,345,20128,2,0,P|397:350|448:369,2,110,10|2|10,0:2|0:2|0:2,0:0:0:0:
268,263,21139,6,0,P|275:206|314:162,1,110,2|10,3:2|0:2,0:0:0:0:
350,130,21645,2,0,P|342:73|304:29,1,110,2|2,0:2|3:2,0:0:0:0:
258,14,22150,1,10,0:2:0:0:
159,63,22487,2,0,B|123:83|123:83|45:64,1,110,2|10,3:2|0:2,0:0:0:0:
7,55,22993,1,2,0:2:0:0:
7,55,23162,1,2,3:2:0:0:
14,166,23499,2,0,L|17:225,1,55,10|2,0:2|0:2,0:0:0:0:
41,271,23836,6,0,P|103:276|143:246,1,110,6|8,3:2|0:2,0:0:0:0:
164,200,24341,1,2,0:2:0:0:
164,200,24510,2,0,P|226:195|266:225,1,110,2|8,3:2|0:2,0:0:0:0:
314,318,25184,2,0,B|356:359|356:359|420:339,1,110,2|12,3:2|0:2,0:0:0:0:
455,322,25690,1,2,0:2:0:0:
455,322,25858,2,0,L|464:196,1,110,2|10,3:2|0:2,0:0:0:0:
435,105,26532,6,0,P|382:88|324:119,1,110,6|10,3:2|0:2,0:0:0:0:
295,147,27038,1,2,3:2:0:0:
222,64,27375,1,2,3:2:0:0:
175,163,27712,2,0,L|43:149,1,110,6|2,3:2|1:2,0:0:0:0:
10,147,28218,1,2,3:2:0:0:
44,251,28555,2,0,B|127:257|127:257|153:289,1,110,2|14,1:2|0:2,0:0:0:0:
154,331,29060,1,2,0:2:0:0:
154,331,29229,1,6,3:2:0:0:
488,140,30409,6,0,P|487:85|441:44,1,110,6|0,3:2|3:2,0:0:0:0:
400,24,30914,1,10,0:2:0:0:
300,69,31251,2,0,P|258:71|217:75,2,82.5,10|10|10,0:2|0:2|0:2,0:0:0:0:
347,97,31926,6,0,P|361:151|366:218,1,110,2|12,0:2|0:2,0:0:0:0:
344,312,32600,2,0,L|276:319,1,55,0|2,3:2|3:2,0:0:0:0:
238,323,32937,1,10,0:2:0:0:
238,323,33105,2,0,P|183:317|134:280,1,110,2|0,3:2|3:2,0:0:0:0:
114,237,33611,1,8,0:2:0:0:
111,127,33948,1,0,3:2:0:0:
137,20,34285,2,0,L|205:8,1,55,2|8,3:2|0:2,0:0:0:0:
245,15,34622,6,0,P|303:17|350:57,1,110,2|12,3:2|0:2,0:0:0:0:
364,98,35128,1,2,0:2:0:0:
364,98,35296,2,0,L|361:215,1,110,2|12,3:2|0:2,0:0:0:0:
350,317,35971,2,0,B|317:351|317:351|238:336,1,110,2|12,3:2|0:2,0:0:0:0:
207,325,36476,1,2,0:2:0:0:
207,325,36645,2,0,B|145:313|145:313|112:347,1,110,2|10,3:2|0:2,0:0:0:0:
16,294,37319,6,0,L|30:165,1,110,6|14,3:2|0:2,0:0:0:0:
34,130,37824,1,2,3:2:0:0:
119,60,38162,1,2,3:2:0:0:
147,166,38499,2,0,L|256:177,1,110,6|0,3:2|3:2,0:0:0:0:
310,186,39004,1,10,0:2:0:0:
414,153,39341,2,0,B|445:171|445:171|431:255,1,110,10|2,0:2|3:2,0:0:0:0:
422,298,39847,1,2,3:2:0:0:
422,298,40015,6,0,P|352:298|248:315,1,165,2|2,1:2|1:2,0:0:0:0:
102,368,41027,1,10,0:2:0:0:
102,368,41195,2,0,P|97:302|90:249,1,110,2|6,3:2|3:2,0:0:0:0:
71,150,41869,1,6,3:2:0:0:
168,16,42375,2,0,L|225:21,1,55,14|2,0:2|0:2,0:0:0:0:
274,39,42712,6,0,B|334:29|334:29|378:55,1,110,6|8,3:2|0:2,0:0:0:0:
414,93,43218,1,2,0:2:0:0:
439,200,43555,2,0,L|431:260,1,55,2|10,1:2|0:2,0:0:0:0:
423,308,43892,2,0,P|359:298|298:297,1,110,2|2,3:2|1:2,0:0:0:0:
204,308,44566,1,6,3:2:0:0:
204,308,44735,2,0,B|177:252|177:252|194:186,1,110,0|12,3:2|0:2,0:0:0:0:
244,110,45409,6,0,P|242:60|229:27,2,82.5,2|10|10,3:2|0:2|0:2,0:0:0:0:
286,145,46083,2,0,P|328:118|350:90,2,82.5,2|10|10,3:2|0:2|0:2,0:0:0:0:
266,196,46757,1,6,3:2:0:0:
163,157,47094,1,2,3:2:0:0:
95,242,47431,1,2,3:2:0:0:
154,332,47768,1,2,3:2:0:0:
257,303,48105,6,0,P|314:302|368:331,1,110,6|0,3:2|3:2,0:0:0:0:
413,354,48611,1,8,0:2:0:0:
413,354,48780,2,0,L|432:240,1,110,8|8,3:2|3:2,0:0:0:0:
382,146,49454,2,0,L|391:85,2,55,8|8|8,3:2|0:2|3:2,0:0:0:0:
342,183,49959,1,8,0:2:0:0:
342,183,50128,2,0,P|281:178|219:191,1,110,8|10,3:2|3:2,0:0:0:0:
125,207,50802,6,0,L|110:88,1,110,4|0,3:2|3:2,0:0:0:0:
113,42,51308,2,0,B|166:12|166:12|226:36,1,110,12|0,0:2|3:2,0:0:0:0:
260,55,51813,1,8,0:2:0:0:
260,55,51982,2,0,P|325:58|379:37,1,110,4|4,3:2|3:2,0:0:0:0:
415,17,52487,1,0,3:2:0:0:
466,114,52824,2,0,L|460:179,1,55,6|8,3:2|0:2,0:0:0:0:
429,214,53162,2,0,L|435:279,1,55,10|8,3:2|0:2,0:0:0:0:
464,321,53499,6,0,P|396:320|345:346,1,121.000003692627,6|12,3:2|0:2,0:0:0:0:
232,373,54173,1,2,3:2:0:0:
232,373,54341,2,0,P|229:333|220:308,1,60.5000018463135,2|8,3:2|0:2,0:0:0:0:
192,261,54678,2,0,P|129:260|70:286,1,121.000003692627,2|2,3:2|3:2,0:0:0:0:
29,320,55184,2,0,L|14:189,1,121.000003692627,8|0,0:2|3:2,0:0:0:0:
66,90,55858,2,0,L|131:97,1,60.5000018463135,10|2,0:2|0:2,0:0:0:0:
183,116,56195,6,0,P|247:125|304:95,1,121.000003692627,2|10,3:2|0:2,0:0:0:0:
354,82,56701,2,0,B|325:118|325:118|339:206,1,121.000003692627,2|0,1:2|3:2,0:0:0:0:
371,240,57206,2,0,L|435:229,2,60.5000018463135,10|2|0,0:2|0:2|3:2,0:0:0:0:
256,279,57881,2,0,L|248:348,1,60.5000018463135,8|8,0:2|0:2,0:0:0:0:
195,367,58218,2,0,P|136:362|90:304,1,121.000003692627,2|10,3:2|0:2,0:0:0:0:
78,199,58892,6,0,L|95:70,1,121.000003692627,6|8,3:2|0:2,0:0:0:0:
120,24,59397,1,2,0:2:0:0:
120,24,59566,2,0,P|177:52|246:44,1,121.000003692627,2|10,3:2|0:2,0:0:0:0:
290,28,60072,1,2,0:2:0:0:
290,28,60240,2,0,B|327:44|327:44|316:133,1,121.000003692627,0|10,3:2|0:2,0:0:0:0:
299,243,60914,1,6,3:2:0:0:
274,361,61251,2,0,P|232:358|199:337,1,60.5000018463135,2|8,3:2|0:2,0:0:0:0:
176,303,61589,6,0,B|132:289|132:289|45:318,1,121.000003692627,6|8,3:2|0:2,0:0:0:0:
19,356,62094,2,0,L|13:222,1,121.000003692627,6|2,3:2|1:2,0:0:0:0:
13,178,62600,1,8,0:2:0:0:
13,178,62768,2,0,P|74:166|137:202,1,121.000003692627,6|2,3:2|3:2,0:0:0:0:
247,216,63442,1,6,1:2:0:0:
247,216,63611,2,0,L|376:205,1,121.000003692627,2|0,3:2|3:2,0:0:0:0:
427,196,64117,1,10,0:2:0:0:
427,196,64285,6,0,B|435:127|435:127|398:73,1,121.000003692627,6|14,3:2|0:2,0:0:0:0:
357,47,64791,1,2,0:2:0:0:
238,73,65128,2,0,L|163:80,1,60.5000018463135,2|8,3:2|0:2,0:0:0:0:
118,65,65465,2,0,P|65:92|61:157,1,121.000003692627,2|2,3:2|3:2,0:0:0:0:
83,209,65971,1,8,0:2:0:0:
83,209,66139,2,0,L|214:222,1,121.000003692627,2|0,0:2|3:2,0:0:0:0:
263,228,66645,1,10,0:2:0:0:
382,209,66982,6,0,P|417:260|414:331,1,121.000003692627,2|10,3:2|0:2,0:0:0:0:
388,369,67487,2,0,L|259:362,1,121.000003692627,2|2,3:2|3:2,0:0:0:0:
210,360,67993,1,8,0:2:0:0:
210,360,68162,5,6,3:2:0:0:
124,274,68499,1,6,3:2:0:0:
241,243,68836,2,0,P|244:186|226:123,1,120,6|8,3:2|0:2,0:0:0:0:
195,74,69337,1,0,3:2:0:0:
74,87,69670,6,0,P|77:41|118:-7,2,90.7500027694703,10|10|10,3:2|3:2|3:2,0:0:0:0:
88,139,70337,2,0,P|85:207|63:254,1,110,10|4,3:2|1:2,0:0:0:0:
151,333,71011,2,0,P|103:337|52:362,2,90.7500027694703,10|10|10,3:2|3:2|3:2,0:0:0:0:
209,349,71685,2,0,P|276:348|337:307,1,121.000003692627,2|10,3:2|0:2,0:0:0:0:
362,277,72190,6,0,L|352:142,1,121.000003692627,6|0,3:2|3:2,0:0:0:0:
320,105,72696,2,0,P|253:106|216:154,1,121.000003692627,8|0,0:2|3:2,0:0:0:0:
208,203,73202,1,2,3:2:0:0:
208,203,73370,1,14,0:2:0:0:
90,223,73707,2,0,L|29:210,2,60.5000018463135,2|8|8,3:2|0:2|0:2,0:0:0:0:
141,331,74388,1,2,1:2:0:0:
259,371,74729,1,10,0:2:0:0:
259,371,74900,6,0,B|329:366|329:366|364:315,1,121.000003692627,6|2,3:2|3:2,0:0:0:0:
374,266,75405,1,8,0:2:0:0:
374,266,75574,2,0,L|361:136,1,121.000003692627,6|2,3:2|3:2,0:0:0:0:
335,97,76079,1,8,0:2:0:0:
335,97,76248,2,0,P|268:89|221:129,1,121.000003692627,6|2,3:2|3:2,0:0:0:0:
192,168,76753,1,12,0:2:0:0:
192,168,76922,2,0,B|71:151,1,121.000003692627,2|2,3:2|1:2,0:0:0:0:
22,116,77428,1,2,3:2:0:0:
97,21,77765,6,0,L|230:42,1,121.000003692627,6|2,3:2|3:2,0:0:0:0:
263,78,78270,2,0,P|325:84|379:55,1,121.000003692627,14|2,0:2|3:2,0:0:0:0:
421,18,78776,1,8,0:2:0:0:
421,18,78944,2,0,P|415:78|455:137,1,121.000003692627,6|0,3:2|1:2,0:0:0:0:
488,170,79444,1,0,3:2:0:0:
400,253,79777,2,0,P|448:263|480:297,2,90.7500027694703,2|8|10,3:2|0:2|0:2,0:0:0:0:
348,271,80444,5,6,3:2:0:0:
195,369,80949,2,0,L|69:361,1,121.000003692627,6|10,3:2|0:2,0:0:0:0:
22,340,81455,1,8,0:2:0:0:
22,340,81623,2,0,P|36:277|30:207,1,121.000003692627,6|0,3:2|3:2,0:0:0:0:
15,163,82133,1,12,0:2:0:0:
114,94,82474,2,0,P|65:82|39:36,2,90.7500027694703,2|2|2,3:2|0:2|0:2,0:0:0:0:
174,84,83157,5,6,3:2:0:0:
343,19,83662,2,0,B|381:31|381:31|371:122,1,121.000003692627,6|10,3:2|0:2,0:0:0:0:
339,162,84168,1,8,0:2:0:0:
339,162,84336,2,0,P|339:234|370:278,1,121.000003692627,6|0,3:2|3:2,0:0:0:0:
416,304,84842,1,12,0:2:0:0:
315,370,85179,2,0,L|237:366,1,60.5000018463135,2|10,3:2|0:2,0:0:0:0:
194,362,85516,1,10,0:2:0:0:
73,354,85853,6,0,B|61:286|61:286|101:235,1,121.000003692627,6|10,3:2|0:2,0:0:0:0:
145,215,86359,2,0,L|282:228,1,121.000003692627,6|2,3:2|3:2,0:0:0:0:
329,232,86864,1,8,0:2:0:0:
329,232,87033,2,0,P|346:164|316:106,1,121.000003692627,6|2,3:2|1:2,0:0:0:0:
276,86,87539,1,2,3:2:0:0:
158,113,87876,2,0,P|161:62|189:13,2,90.7500027694703,10|2|0,0:2|0:2|1:2,0:0:0:0:
172,166,88550,1,6,3:2:0:0:
256,192,88634,12,0,90067,0:0:0:0:
