osu file format v14

[General]
AudioFilename: audio.mp3
AudioLeadIn: 0
PreviewTime: 52656
Countdown: 0
SampleSet: Soft
StackLeniency: 0.5
Mode: 0
LetterboxInBreaks: 0
WidescreenStoryboard: 0

[Editor]
DistanceSpacing: 0.9
BeatDivisor: 4
GridSize: 32
TimelineZoom: 2.4

[Metadata]
Title:Ashita no Kimi sae Ireba Ii. (TV Size)
TitleUnicode:明日の君さえいればいい。(TV Size)
Artist:ChouCho
ArtistUnicode:ChouCho
Creator:Koyorin-sama
Version:Nayuta
Source:妹さえいればいい。
Tags:ちょうちょ IMOTO SAE IREBA II. imouto opening op カントク Kantoku 平坂読 Hirasaka Yomi airiesu mujina rk657 matsuyuki_ame twil_furano pop jpop j-pop japanese anime imosae female vocal vocalist maiev
BeatmapID:3234302
BeatmapSetID:1583554

[Difficulty]
HPDrainRate:6
CircleSize:4
OverallDifficulty:8.6
ApproachRate:9.3
SliderMultiplier:1.7
SliderTickRate:1

[Events]
//Background and Video events
0,0,"nayuta.jpg",0,0
//Break Periods
//Storyboard Layer 0 (Background)
//Storyboard Layer 1 (Fail)
//Storyboard Layer 2 (Pass)
//Storyboard Layer 3 (Foreground)
//Storyboard Layer 4 (Overlay)
//Storyboard Sound Samples

[TimingPoints]
1572,342.857142857143,4,2,1,45,1,0
1572,-200,4,2,1,45,0,0
2258,342.857142857143,4,2,1,45,1,0
2258,-133.333333333333,4,2,1,45,0,0
2943,-133.333333333333,4,2,1,50,0,0
3115,337.078651685393,4,2,1,45,1,0
3115,-133.333333333333,4,2,1,45,0,0
3283,-133.333333333333,4,2,1,50,0,0
3452,-133.333333333333,4,2,1,45,0,0
3957,-133.333333333333,4,2,1,50,0,0
4126,-200,4,2,1,45,0,0
4294,333.333333333333,4,2,1,45,1,0
4294,-200,4,2,1,45,0,0
4627,-133.333333333333,4,2,1,45,0,0
4960,338.983050847458,4,2,1,45,1,0
4960,-133.333333333333,4,2,1,45,0,0
5637,-133.333333333333,4,2,1,50,0,0
5807,-133.333333333333,4,2,1,45,0,0
5976,-133.333333333333,4,2,1,50,0,0
6146,-133.333333333333,4,2,1,45,0,0
6315,337.078651685393,4,2,1,45,1,0
6315,-133.333333333333,4,2,1,45,0,0
6652,-133.333333333333,4,2,1,50,0,0
6820,-133.333333333333,4,2,1,45,0,0
8336,-133.333333333333,4,2,1,50,0,0
8506,-133.333333333333,4,2,1,45,0,0
8674,-133.333333333333,4,2,1,50,0,0
8843,-133.333333333333,4,2,1,45,0,0
10359,340.909090909091,4,2,1,45,1,0
10699,-100,4,2,1,60,0,0
10870,-166.666666666667,4,2,1,45,0,0
11551,-166.666666666667,4,2,1,60,0,0
11722,-100,4,2,1,70,0,0
11892,-100,4,2,1,60,0,0
12063,-100,4,2,1,70,0,0
12233,-100,4,2,1,60,0,0
12370,337.078651685393,4,2,1,70,1,0
13044,342.857142857143,4,2,1,70,1,0
13301,-100,4,2,1,60,0,0
13386,-100,4,2,1,70,0,0
13557,-100,4,2,1,60,0,0
13644,-100,4,2,1,5,0,0
13729,-100,4,2,1,70,0,0
13901,329.67032967033,4,2,1,70,1,0
14065,-100,4,2,1,60,0,0
14230,337.078651685393,4,2,1,70,1,0
14230,-100,4,2,1,70,0,0
14398,337.078651685393,4,2,1,60,1,0
14567,-100,4,2,1,70,0,0
15577,-100,4,2,1,70,0,0
15746,-100,4,2,1,70,0,0
16251,-100,4,2,1,70,0,0
16420,-100,4,2,1,70,0,0
16673,-100,4,2,1,70,0,0
16926,-100,4,2,1,70,0,0
18442,-100,4,2,1,60,0,0
18695,-100,4,2,1,5,0,0
18780,-100,4,2,1,60,0,0
20044,-100,4,2,1,5,0,0
20128,-100,4,2,1,60,0,0
22403,-100,4,2,1,5,0,0
22487,-100,4,2,1,60,0,0
22740,-100,4,2,1,5,0,0
22824,-100,4,2,1,60,0,0
24089,-100,4,2,1,5,0,0
24173,-100,4,2,1,60,0,0
25437,-100,4,2,1,5,0,0
25521,-100,4,2,1,60,0,0
26785,-100,4,2,1,5,0,0
26869,-100,4,2,1,60,0,0
28892,-83.3333333333333,4,2,1,60,0,0
29229,-83.3333333333333,4,2,1,60,0,0
30409,-83.3333333333333,4,2,1,60,0,0
30662,-83.3333333333333,4,2,1,5,0,0
30746,-100,4,2,1,60,0,0
31841,-100,4,2,1,5,0,0
31926,-100,4,2,1,60,0,0
32263,-100,4,2,1,65,0,0
32431,-100,4,2,1,60,0,0
32600,-100,4,2,1,65,0,0
33273,-100,4,2,1,60,0,0
33442,-100,4,2,1,65,0,0
33780,-100,4,2,1,60,0,0
33864,-100,4,2,1,65,0,0
34622,-100,4,2,1,65,0,0
34875,-100,4,2,1,5,0,0
34959,-100,4,2,1,65,0,0
35296,-100,4,2,1,65,0,0
35633,-100,4,2,1,65,0,0
35802,-100,4,2,1,60,0,0
35971,-100,4,2,1,65,0,0
36223,-100,4,2,1,5,0,0
36308,-100,4,2,1,65,0,0
36645,-100,4,2,1,65,0,0
37319,-100,4,2,1,65,0,0
39172,-100,4,2,1,60,0,0
39341,-100,4,2,1,65,0,0
39678,-100,4,2,1,65,0,0
40015,-100,4,2,1,55,0,0
41195,-100,4,2,1,55,0,0
41363,-100,4,2,1,60,0,0
41532,-100,4,2,1,55,0,0
41869,-100,4,2,1,60,0,0
42206,-100,4,2,1,55,0,0
42375,-100,4,2,1,60,0,0
42712,-100,4,2,1,65,0,0
42880,-100,4,2,1,60,0,0
43049,-100,4,2,1,65,0,0
43892,-100,4,2,1,65,0,0
45072,-100,4,2,1,65,0,0
45409,-83.3333333333333,4,2,1,70,0,0
45577,-83.3333333333333,4,2,1,60,0,0
45662,-83.3333333333333,4,2,1,70,0,0
45830,-83.3333333333333,4,2,1,60,0,0
45914,-83.3333333333333,4,2,1,70,0,0
46083,-83.3333333333333,4,2,1,70,0,0
46251,-83.3333333333333,4,2,1,60,0,0
46336,-83.3333333333333,4,2,1,70,0,0
46504,-83.3333333333333,4,2,1,60,0,0
46589,-83.3333333333333,4,2,1,70,0,0
46757,-83.3333333333333,4,2,1,70,0,0
47010,-83.3333333333333,4,2,1,60,0,0
47094,-100,4,2,1,70,0,0
48105,-100,4,2,1,75,0,0
48358,-100,4,2,1,60,0,0
48442,-100,4,2,1,75,0,0
50802,-90.9090909090909,4,2,1,75,0,0
52235,-90.9090909090909,4,2,1,5,0,0
52319,-90.9090909090909,4,2,1,75,0,0
53499,-83.3333333333333,4,2,1,80,0,1
53751,-83.3333333333333,4,2,1,70,0,1
53836,-83.3333333333333,4,2,1,80,0,1
54004,-83.3333333333333,4,2,1,70,0,1
54173,-83.3333333333333,4,2,1,80,0,1
54846,-83.3333333333333,4,2,1,60,0,1
55015,-83.3333333333333,4,2,1,80,0,1
56448,-83.3333333333333,4,2,1,5,0,1
56532,-83.3333333333333,4,2,1,80,0,1
57459,-83.3333333333333,4,2,1,70,0,1
57544,-83.3333333333333,4,2,1,80,0,1
58723,-83.3333333333333,4,2,1,70,0,1
58892,-83.3333333333333,4,2,1,80,0,1
59734,-83.3333333333333,4,2,1,70,0,1
59819,-83.3333333333333,4,2,1,80,0,1
59903,-83.3333333333333,4,2,1,80,0,1
60409,-83.3333333333333,4,2,1,60,0,1
60577,-83.3333333333333,4,2,1,80,0,1
60745,-83.3333333333333,4,2,1,70,0,1
60914,-83.3333333333333,4,2,1,80,0,1
61589,-71.4285714285714,4,2,1,80,0,1
61841,-71.4285714285714,4,2,1,5,0,1
61926,-71.4285714285714,4,2,1,80,0,1
62262,-71.4285714285714,4,2,1,70,0,1
62347,-71.4285714285714,4,2,1,5,0,1
62431,-71.4285714285714,4,2,1,80,0,1
62768,-71.4285714285714,4,2,1,80,0,1
63021,-71.4285714285714,4,2,1,5,0,1
63105,-83.3333333333333,4,2,1,80,0,1
64285,-83.3333333333333,4,2,1,75,0,1
64453,-83.3333333333333,4,2,1,70,0,1
64537,-83.3333333333333,4,2,1,75,0,1
64622,-83.3333333333333,4,2,1,75,0,1
65633,-83.3333333333333,4,2,1,70,0,1
65802,-83.3333333333333,4,2,1,75,0,1
67235,-83.3333333333333,4,2,1,5,0,1
67319,-83.3333333333333,4,2,1,75,0,1
67908,-83.3333333333333,4,2,1,70,0,1
67993,-83.3333333333333,4,2,1,75,0,1
68077,-83.3333333333333,4,2,1,70,0,1
68162,-83.3333333333333,4,2,1,80,0,1
69004,333.333333333333,4,2,1,70,1,1
69004,-83.3333333333333,4,2,1,70,0,1
69670,333.333333333333,4,2,1,70,1,1
69670,-71.4285714285714,4,2,1,70,0,1
69836,-71.4285714285714,4,2,1,5,0,1
69920,-71.4285714285714,4,2,1,70,0,1
70086,-71.4285714285714,4,2,1,5,0,1
70170,-71.4285714285714,4,2,1,70,0,1
70253,-71.4285714285714,4,2,1,5,0,1
70337,337.078651685393,4,2,1,70,1,1
71011,337.078651685393,4,2,1,75,1,1
71011,-71.4285714285714,4,2,1,75,0,1
71179,-71.4285714285714,4,2,1,5,0,1
71263,-71.4285714285714,4,2,1,75,0,1
71431,-71.4285714285714,4,2,1,5,0,1
71516,-71.4285714285714,4,2,1,75,0,1
71600,-71.4285714285714,4,2,1,5,0,1
71685,-83.3333333333333,4,2,1,75,0,1
72190,-83.3333333333333,4,2,1,80,0,1
72864,-83.3333333333333,4,2,1,70,0,1
73033,-83.3333333333333,4,2,1,80,0,1
73707,340.909090909091,4,2,1,80,1,1
73707,-83.3333333333333,4,2,1,80,0,1
74047,-83.3333333333333,4,2,1,70,0,1
74900,337.078651685393,4,2,1,70,1,1
74900,-83.3333333333333,4,2,1,70,0,1
75236,-83.3333333333333,4,2,1,70,0,1
75573,-83.3333333333333,4,2,1,70,0,1
75574,-76.9230769230769,4,2,1,70,0,1
75911,-76.9230769230769,4,2,1,70,0,1
76248,-71.4285714285714,4,2,1,75,0,1
76585,-66.6666666666667,4,2,1,75,0,1
76922,-83.3333333333333,4,2,1,75,0,1
77764,-83.3333333333333,4,2,1,80,0,1
78017,-83.3333333333333,4,2,1,5,0,1
78102,-83.3333333333333,4,2,1,80,0,1
78523,-83.3333333333333,4,2,1,5,0,1
78607,-83.3333333333333,4,2,1,80,0,1
78944,333.333333333333,4,2,1,80,1,1
78944,-83.3333333333333,4,2,1,80,0,1
79194,-100,4,2,1,5,0,1
79276,-83.3333333333333,4,2,1,80,0,1
80444,337.078651685393,4,2,1,80,1,1
80949,-83.3333333333333,4,2,1,80,0,1
81117,-83.3333333333333,4,2,1,70,0,1
81202,-83.3333333333333,4,2,1,5,0,1
81286,-83.3333333333333,4,2,1,80,0,1
81623,340.909090909091,4,2,1,80,1,1
81623,-83.3333333333333,4,2,1,80,0,1
81793,340.909090909091,4,2,1,70,1,1
81878,-100,4,2,1,5,0,1
81963,-83.3333333333333,4,2,1,80,0,1
83157,337.078651685393,4,2,1,80,1,1
83157,-83.3333333333333,4,2,1,80,0,1
83830,-83.3333333333333,4,2,1,70,0,1
83999,-83.3333333333333,4,2,1,80,0,1
85094,-83.3333333333333,4,2,1,5,0,1
85179,-83.3333333333333,4,2,1,80,0,1
85853,-83.3333333333333,4,2,1,80,0,1
85937,-83.3333333333333,4,2,1,70,0,1
86106,-83.3333333333333,4,2,1,5,0,1
86190,-83.3333333333333,4,2,1,80,0,1
86443,-83.3333333333333,4,2,1,70,0,1
86527,-83.3333333333333,4,2,1,70,0,1
86696,-83.3333333333333,4,2,1,80,0,1
87875,-133.333333333333,4,2,1,65,0,1
88550,-138.888888888889,4,2,1,75,0,0
88634,-138.888888888889,4,2,1,60,0,0
88886,-138.888888888889,4,2,1,40,0,0
89223,-138.888888888889,4,2,1,20,0,0
89560,-138.888888888889,4,2,1,10,0,0
90067,-138.888888888889,4,2,1,5,0,0

[Colours]
Combo1 : 177,162,116
Combo2 : 155,215,225
Combo3 : 110,81,61
Combo4 : 207,227,239

[HitObjects]
74,90,1572,6,0,P|63:48|50:21,2,63.75,2|2|2,0:2|0:2|0:2,0:0:0:0:
105,180,2258,6,0,P|116:234|165:302,1,127.500004863739,2|2,0:2|0:2,0:0:0:0:
155,293,2772,1,2,0:2:0:0:
242,254,2943,1,0,0:0:0:0:
239,351,3115,2,0,P|270:354|309:351,1,63.7500024318696,2|0,0:2|0:0,0:0:0:0:
429,374,3452,2,0,P|431:285|487:193,1,191.250007295609,2|0,0:2|0:0,0:0:0:0:
431,79,4294,6,0,P|469:74|502:59,2,63.75,2|2|2,0:2|0:2|0:2,0:0:0:0:
337,80,4960,6,0,P|273:75|200:112,1,127.500004863739,2|2,0:2|0:2,0:0:0:0:
215,98,5468,1,2,0:2:0:0:
243,190,5637,1,0,0:0:0:0:
149,167,5807,2,0,P|134:197|129:248,1,63.7500024318696,2|0,0:2|0:0,0:0:0:0:
92,348,6146,2,0,P|183:333|268:378,1,190,2|0,0:2|0:0,0:0:0:0:
408,323,6989,6,0,P|412:279|424:237,1,63.7500024318696,2|2,0:2|0:2,0:0:0:0:
444,175,7326,1,2,0:2:0:0:
295,56,7663,6,0,P|243:45|168:71,1,127.500004863739,2|2,0:2|0:2,0:0:0:0:
111,139,8168,2,0,P|114:171|126:209,1,63.7500024318696,2|0,0:2|0:0,0:0:0:0:
217,183,8506,2,0,P|213:214|204:245,1,63.7500024318696,2|0,0:2|0:0,0:0:0:0:
132,350,8843,2,0,P|184:350|275:381,1,127.500004863739,2|2,0:2|0:2,0:0:0:0:
349,354,9348,1,2,0:2:0:0:
474,209,9685,6,0,P|466:143|441:102,2,95.6250036478044,2|2|2,0:2|0:2|0:2,0:0:0:0:
445,309,10359,1,2,0:2:0:0:
445,309,11722,5,0,3:2:0:0:
445,309,12063,5,2,0:2:0:0:
338,162,12370,5,0,3:2:0:0:
297,174,12454,1,0,1:2:0:0:
269,206,12538,1,0,1:2:0:0:
264,248,12622,1,8,0:2:0:0:
288,283,12707,1,8,0:2:0:0:
289,325,12791,1,0,1:2:0:0:
270,362,12875,1,0,3:2:0:0:
230,376,12959,1,0,3:2:0:0:
178,360,13044,6,0,P|127:344|43:349,1,127.5,6|0,3:2|0:0,0:0:0:0:
0,281,13386,2,0,P|0:233|23:185,1,85,14|0,0:2|0:0,0:0:0:0:
119,39,13729,1,2,3:2:0:0:
258,172,13901,1,2,3:2:0:0:
259,172,14230,6,0,B|254:237|254:237|271:258|271:258|265:340,1,170,10|0,0:2|3:2,0:0:0:0:
358,193,14735,2,0,L|364:106,1,85,8|0,0:2|3:2,0:0:0:0:
199,0,15072,1,10,0:2:0:0:
363,108,15240,1,2,3:2:0:0:
177,189,15409,1,10,0:2:0:0:
290,31,15577,1,2,0:2:0:0:
73,81,15746,6,0,B|23:107|23:107|46:225,1,170,6|10,3:2|0:2,0:0:0:0:
171,314,16251,1,2,0:2:0:0:
196,310,16336,1,2,0:2:0:0:
216,295,16420,1,2,3:2:0:0:
274,148,16589,1,2,3:2:0:0:
298,139,16673,1,2,0:2:0:0:
327,138,16757,1,2,0:2:0:0:
358,149,16841,1,2,0:2:0:0:
384,177,16926,6,0,P|431:131|410:26,1,170,14|0,0:2|3:2,0:0:0:0:
243,63,17431,1,8,0:2:0:0:
289,242,17600,1,8,0:2:0:0:
63,202,17768,1,2,3:2:0:0:
238,156,17937,5,8,0:2:0:0:
273,142,18021,1,8,0:2:0:0:
311,142,18105,1,0,3:2:0:0:
347,154,18190,1,0,3:2:0:0:
374,179,18274,2,0,L|383:237,1,42.5,0|0,1:2|3:2,0:0:0:0:
459,308,18442,6,0,L|474:167,1,127.5,6|0,3:2|0:0,0:0:0:0:
493,97,18780,2,0,B|448:84|448:84|415:111,1,85,8|2,0:2|0:2,0:0:0:0:
371,304,19117,1,2,3:2:0:0:
222,248,19285,1,2,3:2:0:0:
347,154,19454,1,8,0:2:0:0:
286,314,19622,1,2,0:2:0:0:
163,178,19791,2,0,P|87:172|32:232,1,127.5,0|0,3:2|0:0,0:0:0:0:
23,283,20128,6,0,L|41:370,1,85,10|0,0:2|0:0,0:0:0:0:
80,379,20381,1,0,1:2:0:0:
80,379,20465,1,2,0:2:0:0:
212,265,20633,1,0,3:2:0:0:
48,200,20802,2,0,P|56:138|81:107,1,85,10|0,0:2|0:0,0:0:0:0:
203,69,21139,6,0,L|311:84,1,85,2|0,3:2|0:0,0:0:0:0:
328,250,21476,1,10,0:2:0:0:
405,99,21645,1,2,0:2:0:0:
405,99,21729,1,8,0:2:0:0:
405,99,21813,1,0,3:2:0:0:
276,167,21982,1,2,3:2:0:0:
424,221,22150,2,0,P|424:269|414:310,1,85,10|0,0:2|0:0,0:0:0:0:
274,381,22487,6,0,P|283:331|217:279,1,127.5,2|0,3:2|0:0,0:0:0:0:
148,295,22824,2,0,L|64:310,1,85,10|2,0:2|0:2,0:0:0:0:
33,339,23077,1,8,0:2:0:0:
33,339,23162,1,2,3:2:0:0:
129,197,23330,1,0,3:2:0:0:
204,351,23499,2,0,P|227:303|217:254,1,85,10|2,0:2|0:2,0:0:0:0:
177,95,23836,6,0,B|243:77|243:77|304:108,1,127.5,6|0,3:2|0:0,0:0:0:0:
343,176,24173,2,0,L|462:162,1,85,8|2,0:2|0:2,0:0:0:0:
490,108,24510,1,2,3:2:0:0:
490,108,24678,1,0,3:2:0:0:
343,176,24847,2,0,L|462:162,1,85,8|0,0:2|0:0,0:0:0:0:
328,313,25184,6,0,P|262:306|235:239,1,127.5,2|0,3:2|0:0,0:0:0:0:
248,172,25521,2,0,L|254:76,1,85,12|2,0:2|0:2,0:0:0:0:
209,20,25858,1,2,3:2:0:0:
209,20,26027,1,8,0:2:0:0:
248,172,26195,1,10,0:2:0:0:
253,87,26364,1,2,0:2:0:0:
115,179,26532,6,0,P|117:244|171:271,1,127.5,6|0,3:2|0:0,0:0:0:0:
250,262,26869,1,10,0:2:0:0:
349,156,27038,2,0,L|446:167,1,85,2|8,3:2|0:2,0:0:0:0:
423,252,27375,2,0,L|326:241,1,85,2|8,3:2|0:2,0:0:0:0:
283,97,27712,6,0,P|213:78|144:146,1,170,6|2,3:2|1:2,0:0:0:0:
177,307,28218,1,2,3:2:0:0:
231,167,28386,1,0,1:2:0:0:
54,87,28555,2,0,L|61:180,1,85,2|0,1:2|0:2,0:0:0:0:
75,351,28892,1,2,0:2:0:0:
104,256,29060,1,14,0:0:0:0:
270,260,29229,5,6,3:2:0:0:
270,260,30409,6,0,P|276:164|188:113,1,203.999993774414,6|0,3:2|3:2,0:0:0:0:
108,126,30914,2,0,L|8:137,1,85,10|2,0:2|3:2,0:0:0:0:
0,279,31251,6,0,L|64:273,1,42.5,10|0,0:2|0:0,0:0:0:0:
228,374,31504,6,0,L|203:339,1,42.5,10|0,0:2|0:0,0:0:0:0:
197,130,31757,6,0,L|170:188,1,42.5,10|0,0:2|0:0,0:0:0:0:
262,246,31926,6,0,L|390:234,1,127.5,2|0,0:2|0:0,0:0:0:0:
474,247,32263,2,0,B|482:203|482:203|450:174,1,85,12|0,0:2|0:0,0:0:0:0:
426,305,32600,1,0,3:2:0:0:
378,152,32768,1,2,3:2:0:0:
262,246,32937,1,10,0:2:0:0:
430,96,33105,6,0,P|364:72|301:138,1,170,2|0,3:2|3:2,0:0:0:0:
363,235,33611,1,8,0:2:0:0:
211,164,33780,1,0,0:0:0:0:
212,138,33864,1,8,0:2:0:0:
221,114,33948,1,0,3:2:0:0:
144,18,34117,5,8,0:2:0:0:
107,5,34201,1,8,0:2:0:0:
70,16,34285,1,2,3:2:0:0:
47,46,34369,1,8,0:2:0:0:
48,84,34454,1,8,0:2:0:0:
103,248,34622,6,0,L|245:259,1,127.5,2|0,3:2|0:0,0:0:0:0:
304,302,34959,2,0,B|319:257|319:257|300:215,1,85,12|2,0:2|0:2,0:0:0:0:
253,159,35296,1,2,3:2:0:0:
253,159,35465,1,0,3:2:0:0:
304,302,35633,2,0,B|319:257|319:257|300:215,1,85,12|0,0:2|0:0,0:0:0:0:
173,193,35971,6,0,P|170:129|225:76,1,127.5,2|0,3:2|0:0,0:0:0:0:
295,82,36308,2,0,L|393:96,1,85,12|2,0:2|0:2,0:0:0:0:
445,155,36645,1,2,3:2:0:0:
445,155,36813,1,0,1:2:0:0:
295,82,36982,1,10,0:2:0:0:
379,94,37150,1,2,3:2:0:0:
262,220,37319,6,0,P|207:202|172:144,1,127.5,6|0,3:2|0:0,0:0:0:0:
210,68,37656,1,14,0:2:0:0:
331,165,37824,1,2,3:2:0:0:
270,301,37993,1,12,0:2:0:0:
440,242,38162,2,0,L|453:158,1,85,2|8,3:2|0:2,0:0:0:0:
362,12,38499,6,0,P|281:33|270:122,1,170,6|0,3:2|3:2,0:0:0:0:
340,253,39004,1,10,0:2:0:0:
359,92,39173,1,0,0:0:0:0:
197,157,39341,2,0,P|118:160|69:85,1,170,10|2,0:2|3:2,0:0:0:0:
169,40,39847,1,2,3:2:0:0:
268,204,40015,5,2,1:2:0:0:
268,204,40521,5,2,1:2:0:0:
268,204,41027,5,10,0:2:0:0:
377,149,41195,2,0,P|390:191|385:236,1,85,2|0,3:2|0:0,0:0:0:0:
158,114,41532,2,0,P|187:81|229:63,1,85,6|8,3:2|0:2,0:0:0:0:
235,318,41869,2,0,P|165:282|148:191,1,170,6|0,3:2|0:0,0:0:0:0:
235,318,42375,5,14,0:2:0:0:
268,204,42544,1,2,0:2:0:0:
69,271,42712,6,0,P|66:200|29:143,1,127.5,6|0,3:2|0:0,0:0:0:0:
0,82,43049,1,8,0:2:0:0:
176,166,43218,2,0,P|210:129|261:119,1,85,2|0,0:2|3:2,0:0:0:0:
326,245,43555,1,2,1:2:0:0:
320,113,43723,1,10,0:2:0:0:
228,346,43892,5,2,3:2:0:0:
428,181,44229,5,2,1:2:0:0:
213,73,44566,5,6,3:2:0:0:
278,210,44735,1,0,3:2:0:0:
242,223,44819,1,0,1:2:0:0:
203,222,44903,1,0,1:2:0:0:
166,212,44987,1,0,1:2:0:0:
130,181,45072,2,0,P|87:238|85:296,1,127.5,12|0,0:2|0:0,0:0:0:0:
142,365,45409,6,0,P|201:359|252:350,1,101.999996887207,2|0,3:2|0:0,0:0:0:0:
280,323,45662,2,0,P|339:328|390:338,1,101.999996887207,10|0,0:2|0:0,0:0:0:0:
413,356,45914,1,10,0:2:0:0:
281,213,46083,6,0,P|222:219|171:228,1,101.999996887207,2|0,3:2|0:0,0:0:0:0:
143,255,46336,2,0,P|84:250|33:240,1,101.999996887207,10|0,0:2|0:0,0:0:0:0:
10,222,46588,1,10,0:2:0:0:
136,69,46757,6,0,P|213:54|253:120,1,152.999995330811,6|0,3:2|0:0,0:0:0:0:
243,149,47094,1,2,3:2:0:0:
129,309,47263,1,8,0:2:0:0:
297,249,47431,5,2,3:2:0:0:
61,176,47600,1,8,0:2:0:0:
350,165,47768,5,2,3:2:0:0:
25,276,47937,1,8,0:2:0:0:
240,63,48105,6,0,B|298:58|298:58|313:75|313:75|372:70,1,127.5,6|0,3:2|0:0,0:0:0:0:
397,76,48442,5,0,3:2:0:0:
428,97,48527,1,0,1:2:0:0:
438,133,48611,1,8,0:2:0:0:
422,167,48695,1,8,0:2:0:0:
387,185,48780,5,8,3:2:0:0:
366,217,48864,1,8,0:2:0:0:
371,254,48948,1,8,0:2:0:0:
398,280,49032,1,8,0:2:0:0:
435,288,49117,5,8,3:2:0:0:
444,324,49201,1,8,0:2:0:0:
433,360,49285,1,8,0:2:0:0:
399,378,49369,1,8,0:2:0:0:
360,372,49454,5,8,3:2:0:0:
328,350,49538,1,8,0:2:0:0:
289,352,49622,1,8,0:2:0:0:
257,373,49706,1,8,0:2:0:0:
237,339,49791,5,8,3:2:0:0:
204,319,49875,1,8,0:2:0:0:
166,322,49959,1,8,0:2:0:0:
138,348,50044,1,8,0:2:0:0:
121,382,50128,6,0,L|110:337,3,42.5,8|0|2|0,3:2|3:2|1:2|1:2,0:0:0:0:
0,296,50465,2,0,L|10:254,3,42.5,10|0|2|0,3:2|1:2|1:2|1:2,0:0:0:0:
57,62,50802,5,4,3:2:0:0:
253,206,50971,1,0,1:2:0:0:
266,170,51055,1,0,1:2:0:0:
258,132,51139,1,0,3:2:0:0:
8,114,51308,5,12,0:2:0:0:
240,45,51477,1,0,1:2:0:0:
215,16,51561,1,0,1:2:0:0:
178,4,51645,1,0,3:2:0:0:
28,182,51813,5,8,0:2:0:0:
175,380,51982,2,0,B|212:311|212:311|175:249,1,140.25000428009,4|0,3:2|0:0,0:0:0:0:
94,247,52319,1,4,3:2:0:0:
325,68,52487,1,0,3:2:0:0:
325,68,52824,5,6,3:2:0:0:
159,64,52993,1,8,0:2:0:0:
122,84,53077,1,8,0:2:0:0:
106,123,53162,1,10,3:2:0:0:
117,163,53246,1,8,0:2:0:0:
149,189,53330,1,8,0:2:0:0:
190,191,53414,1,8,0:2:0:0:
237,171,53499,6,0,P|315:184|345:251,1,152.999995330811,6|0,3:2|0:0,0:0:0:0:
301,319,53836,2,0,L|195:328,1,101.999996887207,12|0,0:2|0:0,0:0:0:0:
57,378,54173,1,2,3:2:0:0:
26,218,54341,2,0,P|68:245|62:303,1,101.999996887207,2|8,3:2|0:2,0:0:0:0:
199,327,54678,6,0,L|356:313,1,152.999995330811,2|0,3:2|0:0,0:0:0:0:
437,304,55015,1,2,3:2:0:0:
282,149,55184,1,8,0:2:0:0:
493,93,55353,1,2,1:2:0:0:
493,93,55437,1,0,1:2:0:0:
493,93,55521,5,0,3:2:0:0:
368,224,55690,1,0,3:2:0:0:
317,50,55858,1,10,0:2:0:0:
430,158,56027,1,2,0:2:0:0:
199,72,56195,6,0,B|160:104|160:104|177:206,1,152.999995330811,2|0,3:2|0:0,0:0:0:0:
195,290,56532,1,10,0:2:0:0:
413,328,56701,2,0,B|336:334|336:334|307:365|307:365|215:373,1,203.999993774414,2|0,1:2|3:2,0:0:0:0:
112,266,57206,1,10,0:2:0:0:
268,116,57375,1,2,0:2:0:0:
268,116,57459,1,0,0:0:0:0:
268,116,57544,5,0,3:2:0:0:
61,56,57712,1,0,3:2:0:0:
195,189,57881,1,8,0:2:0:0:
248,9,58049,1,8,0:2:0:0:
110,130,58218,2,0,P|89:180|98:229,1,101.999996887207,2|0,3:2|3:2,0:0:0:0:
306,142,58555,2,0,P|273:98|226:82,1,101.999996887207,10|0,0:2|0:0,0:0:0:0:
197,305,58892,6,0,B|281:298|281:298|307:322|307:322|392:314,1,203.999993774414,6|8,3:2|0:2,0:0:0:0:
485,195,59397,1,2,0:2:0:0:
414,58,59566,2,0,B|335:37|335:37|269:79,1,152.999995330811,2|0,3:2|3:2,0:0:0:0:
212,131,59903,1,10,0:2:0:0:
280,337,60072,6,0,B|328:297|328:297|293:148,1,203.999993774414,2|0,0:2|0:0,0:0:0:0:
196,47,60577,1,10,0:2:0:0:
196,254,60746,1,0,0:0:0:0:
357,121,60914,5,6,3:2:0:0:
400,105,60999,1,8,0:2:0:0:
444,116,61083,1,8,0:2:0:0:
471,152,61167,1,8,0:2:0:0:
479,197,61251,1,2,3:2:0:0:
457,238,61336,1,8,0:2:0:0:
417,261,61420,1,8,0:2:0:0:
371,256,61504,1,8,0:2:0:0:
330,233,61589,6,0,P|250:220|199:307,1,178.499994552612,6|0,3:2|0:0,0:0:0:0:
225,372,61926,1,8,0:2:0:0:
70,123,62094,6,0,B|76:195|76:195|55:215|55:215|62:304,1,178.499994552612,6|0,3:2|0:0,0:0:0:0:
69,376,62431,1,2,1:2:0:0:
69,376,62600,1,8,0:2:0:0:
159,152,62768,6,0,B|231:146|231:146|251:167|251:167|340:160,1,178.499994552612,6|0,3:2|0:0,0:0:0:0:
413,152,63105,1,2,3:2:0:0:
237,35,63274,1,8,0:2:0:0:
224,246,63442,1,6,1:2:0:0:
349,67,63611,1,2,3:2:0:0:
132,49,63780,5,8,0:2:0:0:
86,49,63864,1,8,0:2:0:0:
50,77,63948,1,0,3:2:0:0:
40,121,64032,1,0,1:2:0:0:
55,164,64117,1,10,0:2:0:0:
92,190,64201,1,8,0:2:0:0:
143,190,64285,6,0,B|242:167|242:167|283:203,1,152.999995330811,6|0,3:2|3:2,0:0:0:0:
323,275,64622,1,14,0:2:0:0:
163,384,64791,2,0,B|134:338|134:338|152:285,1,101.999996887207,2|0,0:2|3:2,0:0:0:0:
55,164,65128,2,0,B|50:274,1,101.999996887207,2|8,3:2|0:2,0:0:0:0:
159,111,65465,6,0,B|260:85|260:85|339:153,1,203.999993774414,2|2,3:2|3:2,0:0:0:0:
323,274,65971,1,8,0:2:0:0:
432,128,66139,1,2,0:2:0:0:
432,128,66223,1,8,0:2:0:0:
432,128,66308,1,0,3:2:0:0:
241,169,66476,1,0,3:2:0:0:
410,225,66645,1,10,0:2:0:0:
277,343,66813,1,10,0:2:0:0:
164,139,66982,6,0,B|70:107|70:107|23:149,1,152.999995330811,2|0,3:2|0:0,0:0:0:0:
0,223,67319,1,10,0:2:0:0:
234,84,67487,2,0,L|127:49,1,101.999996887207,2|8,3:2|0:2,0:0:0:0:
89,216,67824,2,0,L|96:270,1,50.9999984436036,2|0,3:2|0:0,0:0:0:0:
193,322,67993,2,0,L|186:376,1,50.9999984436036,8|0,0:2|0:0,0:0:0:0:
325,119,68162,5,6,3:2:0:0:
89,216,68499,5,6,3:2:0:0:
292,372,68836,5,6,3:2:0:0:
244,254,69004,1,0,3:2:0:0:
370,271,69170,5,8,0:2:0:0:
413,254,69254,1,8,0:2:0:0:
431,212,69337,1,0,3:2:0:0:
422,167,69420,1,0,0:0:0:0:
381,144,69504,1,0,3:2:0:0:
335,149,69587,1,0,1:2:0:0:
300,180,69670,6,0,P|245:175|219:116,1,118.999996368408,10|0,3:2|0:0,0:0:0:0:
159,47,69920,2,0,P|122:104|132:159,1,118.999996368408,10|0,3:2|0:0,0:0:0:0:
159,242,70170,2,0,P|117:246|84:232,1,59.4999981842042,10|0,3:2|0:0,0:0:0:0:
35,174,70337,5,10,3:2:0:0:
35,174,70674,5,4,1:2:0:0:
35,174,71011,6,0,L|28:298,1,118.999996368408,10|0,3:2|0:0,0:0:0:0:
116,351,71263,2,0,L|122:232,1,118.999996368408,10|0,3:2|0:0,0:0:0:0:
215,181,71516,2,0,L|211:240,1,59.4999981842042,10|0,3:2|0:0,0:0:0:0:
213,355,71685,5,2,3:2:0:0:
256,370,71769,1,0,1:2:0:0:
301,365,71853,1,0,1:2:0:0:
340,342,71937,1,8,0:2:0:0:
346,296,72022,1,10,0:2:0:0:
307,86,72190,6,0,B|362:35|412:76|412:76|426:138|375:157,1,203.999993774414,6|0,3:2|3:2,0:0:0:0:
233,269,72696,1,8,0:2:0:0:
178,73,72864,1,0,0:0:0:0:
36,219,73033,1,0,3:2:0:0:
238,163,73202,1,2,3:2:0:0:
186,366,73370,2,0,L|83:349,1,101.999996887207,14|0,0:2|3:2,0:0:0:0:
126,163,73707,5,2,3:2:0:0:
280,377,73877,1,8,0:2:0:0:
389,137,74047,1,8,0:2:0:0:
389,137,74388,6,0,L|277:149,1,101.999996887207,2|2,1:2|0:2,0:0:0:0:
206,159,74644,1,8,0:2:0:0:
206,159,74729,1,10,0:2:0:0:
342,347,74900,6,0,B|425:356|425:356|474:296,1,152.999995330811,6|0,3:2|0:0,0:0:0:0:
497,221,75237,1,2,3:2:0:0:
497,221,75405,1,8,0:2:0:0:
239,138,75574,6,0,B|234:198|234:198|262:222|262:222|256:302,1,165.749992412568,6|0,3:2|3:0,3:0:0:0:
251,369,75911,1,2,3:2:0:0:
251,369,76079,1,8,0:2:0:0:
110,166,76248,6,0,B|59:124|12:158|12:158|-6:204|35:234,1,178.499994552612,6|0,3:2|0:0,0:0:0:0:
88,287,76585,1,2,3:2:0:0:
88,287,76753,1,12,0:2:0:0:
165,77,76922,5,2,3:2:0:0:
165,77,77006,1,0,0:0:0:0:
165,77,77091,1,0,3:2:0:0:
308,248,77259,1,2,1:2:0:0:
302,104,77428,1,2,3:2:0:0:
176,184,77596,1,2,0:2:0:0:
318,368,77765,6,0,B|430:365|430:365|457:324,1,152.999995330811,6|0,3:2|0:0,0:0:0:0:
479,249,78102,1,2,3:2:0:0:
398,49,78270,6,0,B|392:108|392:108|413:125|413:125|407:200,1,152.999995330811,14|0,0:2|0:0,0:0:0:0:
392,279,78607,1,2,3:2:0:0:
392,279,78776,1,8,0:2:0:0:
226,119,78944,6,0,B|146:88|161:164|81:138,1,152.999995330811,6|0,3:2|0:0,0:0:0:0:
49,61,79276,1,0,1:2:0:0:
198,202,79443,1,0,3:2:0:0:
246,3,79610,1,0,3:2:0:0:
82,138,79776,1,2,3:2:0:0:
281,213,79943,5,8,0:2:0:0:
325,222,80026,1,8,0:2:0:0:
368,205,80110,1,2,3:2:0:0:
386,163,80193,1,8,3:2:0:0:
380,117,80276,1,10,0:2:0:0:
344,87,80360,1,8,0:2:0:0:
291,78,80443,5,6,3:2:0:0:
291,78,80949,6,0,B|189:98|189:98|148:68,1,152.999995330811,6|0,3:2|0:0,0:0:0:0:
79,19,81286,1,10,0:2:0:0:
15,195,81455,1,8,0:2:0:0:
221,168,81623,6,0,B|323:148|323:148|364:178,1,152.999995330811,6|0,3:2|0:0,0:0:0:0:
420,240,81963,1,0,3:2:0:0:
313,63,82133,1,12,0:2:0:0:
214,245,82304,5,8,0:2:0:0:
259,238,82389,1,8,0:2:0:0:
300,256,82474,1,2,3:2:0:0:
322,296,82560,1,0,0:0:0:0:
319,341,82645,1,0,1:2:0:0:
288,375,82730,1,2,0:2:0:0:
243,384,82815,2,0,L|126:366,1,101.999996887207,12|2,0:2|0:2,0:0:0:0:
68,199,83157,5,6,3:2:0:0:
68,199,83494,5,10,0:2:0:0:
202,120,83662,2,0,B|284:114|284:114|352:161,1,152.999995330811,6|0,3:2|0:0,0:0:0:0:
380,232,83999,1,10,0:2:0:0:
315,40,84168,1,8,0:2:0:0:
512,78,84336,6,0,B|508:158|508:158|479:176|479:176|474:269,1,203.999993774414,6|0,3:2|3:2,0:0:0:0:
289,210,84842,2,0,P|223:189|169:254,1,152.999995330811,12|0,0:2|0:0,0:0:0:0:
157,329,85179,1,2,3:2:0:0:
80,150,85348,1,10,0:2:0:0:
157,329,85516,2,0,L|263:312,1,101.999996887207,10|0,0:2|3:2,0:0:0:0:
444,372,85853,6,0,P|379:348|400:278,1,152.999995330811,6|0,3:2|0:0,0:0:0:0:
426,189,86190,1,10,0:2:0:0:
261,51,86359,2,0,P|233:97|242:146,1,101.999996887207,6|0,3:2|0:0,0:0:0:0:
441,79,86696,2,0,P|414:32|367:15,1,101.999996887207,2|8,3:2|0:2,0:0:0:0:
320,215,87033,2,0,P|228:244|140:173,1,203.999993774414,6|2,3:2|1:2,0:0:0:0:
344,111,87539,1,2,3:2:0:0:
140,99,87876,2,0,L|43:113,2,95.6250036478044,10|2|0,0:2|0:2|1:2,0:0:0:0:
260,142,88550,6,0,B|194:53|279:-24|319:51|319:51|394:-4|425:106|356:174|298:160|298:160|358:173|391:233,1,550.800013447266,6|0,3:2|0:0,0:0:0:0:
