osu file format v14

[General]
AudioFilename: audio.mp3
AudioLeadIn: 0
PreviewTime: 52656
Countdown: 0
SampleSet: Soft
StackLeniency: 0.7
Mode: 0
LetterboxInBreaks: 0
WidescreenStoryboard: 1

[Editor]
DistanceSpacing: 1.3
BeatDivisor: 4
GridSize: 4
TimelineZoom: 1.6

[Metadata]
Title:Ashita no Kimi sae Ireba Ii. (TV Size)
TitleUnicode:明日の君さえいればいい。(TV Size)
Artist:ChouCho
ArtistUnicode:ChouCho
Creator:Koyorin-sama
Version:Ame's Hard
Source:妹さえいればいい。
Tags:ちょうちょ IMOTO SAE IREBA II. imouto opening op カントク Kantoku 平坂読 Hirasaka Yomi airiesu mujina rk657 matsuyuki_ame twil_furano pop jpop j-pop japanese anime imosae female vocal vocalist maiev
BeatmapID:3236444
BeatmapSetID:1583554

[Difficulty]
HPDrainRate:4.5
CircleSize:3.6
OverallDifficulty:6.5
ApproachRate:8
SliderMultiplier:1.4
SliderTickRate:1

[Events]
//Background and Video events
0,0,"chihiro.jpg",0,0
//Break Periods
//Storyboard Layer 0 (Background)
//Storyboard Layer 1 (Fail)
//Storyboard Layer 2 (Pass)
//Storyboard Layer 3 (Foreground)
//Storyboard Layer 4 (Overlay)
//Storyboard Sound Samples

[TimingPoints]
1572,342.857142857143,4,2,1,45,1,0
2258,342.857142857143,4,2,1,45,1,0
2258,-142.857142857143,4,2,1,45,0,0
3115,337.078651685393,4,2,1,45,1,0
3115,-142.857142857143,4,2,1,45,0,0
3957,-142.857142857143,4,2,1,50,0,0
4126,-142.857142857143,4,2,1,45,0,0
4294,333.333333333333,4,2,1,45,1,0
4294,-142.857142857143,4,2,1,45,0,0
4960,338.983050847458,4,2,1,45,1,0
4960,-142.857142857143,4,2,1,45,0,0
6315,337.078651685393,4,2,1,45,1,0
6315,-142.857142857143,4,2,1,45,0,0
8674,-142.857142857143,4,2,1,50,0,0
8843,-142.857142857143,4,2,1,45,0,0
10359,340.909090909091,4,2,1,45,1,0
11722,-125,4,2,1,70,0,0
12370,337.078651685393,4,2,1,70,1,0
13044,342.857142857143,4,2,1,70,1,0
13215,-100,4,2,1,60,0,0
13386,-100,4,2,1,70,0,0
13557,-100,4,2,1,60,0,0
13729,-100,4,2,1,70,0,0
13901,329.67032967033,4,2,1,70,1,0
14230,337.078651685393,4,2,1,70,1,0
14398,337.078651685393,4,2,1,60,1,0
14567,-100,4,2,1,70,0,0
15577,-100,4,2,1,70,0,0
15746,-100,4,2,1,70,0,0
16251,-100,4,2,1,70,0,0
16420,-100,4,2,1,70,0,0
16757,-100,4,2,1,70,0,0
16926,-100,4,2,1,70,0,0
18442,-100,4,2,1,60,0,0
29229,-100,4,2,1,60,0,0
30409,-100,4,2,1,60,0,0
32263,-100,4,2,1,65,0,0
33779,-100,4,2,1,60,0,0
33948,-100,4,2,1,65,0,0
39172,-100,4,2,1,60,0,0
39341,-100,4,2,1,65,0,0
40015,-100,4,2,1,55,0,0
41363,-100,4,2,1,60,0,0
41532,-100,4,2,1,55,0,0
41869,-100,4,2,1,60,0,0
42712,-100,4,2,1,65,0,0
45324,-100,4,2,1,60,0,0
45409,-100,4,2,1,70,0,0
46925,-100,4,2,1,60,0,0
47094,-100,4,2,1,70,0,0
48105,-100,4,2,1,75,0,0
52150,-100,4,2,1,60,0,0
52319,-100,4,2,1,75,0,0
52908,-100,4,2,1,60,0,0
52992,-100,4,2,1,75,0,0
53499,-90.9090909090909,4,2,1,80,0,1
54846,-90.9090909090909,4,2,1,70,0,1
55015,-90.9090909090909,4,2,1,80,0,1
58723,-90.9090909090909,4,2,1,70,0,1
58892,-90.9090909090909,4,2,1,80,0,1
59734,-90.9090909090909,4,2,1,70,0,1
59903,-90.9090909090909,4,2,1,80,0,1
60408,-90.9090909090909,4,2,1,70,0,1
60577,-90.9090909090909,4,2,1,80,0,1
60745,-90.9090909090909,4,2,1,70,0,1
60914,-90.9090909090909,4,2,1,80,0,1
64285,-90.9090909090909,4,2,1,75,0,1
65633,-90.9090909090909,4,2,1,70,0,1
65802,-90.9090909090909,4,2,1,75,0,1
68162,-90.9090909090909,4,2,1,80,0,1
69004,333.333333333333,4,2,1,70,1,1
69670,333.333333333333,4,2,1,70,1,1
69670,-90.9090909090909,4,2,1,70,0,1
70337,337.078651685393,4,2,1,70,1,1
70337,-90.9090909090909,4,2,1,70,0,1
71011,337.078651685393,4,2,1,75,1,1
71011,-90.9090909090909,4,2,1,75,0,1
72190,-90.9090909090909,4,2,1,80,0,1
72864,-90.9090909090909,4,2,1,70,0,1
73033,-90.9090909090909,4,2,1,80,0,1
73707,340.909090909091,4,2,1,80,1,1
73707,-90.9090909090909,4,2,1,80,0,1
74047,-90.9090909090909,4,2,1,70,0,1
74900,337.078651685393,4,2,1,70,1,1
74900,-90.9090909090909,4,2,1,70,0,1
75068,-90.9090909090909,4,2,1,70,0,1
76247,-90.9090909090909,4,2,1,75,0,1
77764,-90.9090909090909,4,2,1,80,0,1
78944,333.333333333333,4,2,1,80,1,1
78944,-90.9090909090909,4,2,1,80,0,1
79110,-90.9090909090909,4,2,1,70,0,1
79277,-90.9090909090909,4,2,1,80,0,1
80444,337.078651685393,4,2,1,80,1,1
80444,-90.9090909090909,4,2,1,80,0,1
81623,340.909090909091,4,2,1,80,1,1
81623,-90.9090909090909,4,2,1,80,0,1
81793,340.909090909091,4,2,1,70,1,1
81793,-90.9090909090909,4,2,1,70,0,1
81963,-90.9090909090909,4,2,1,80,0,1
83157,337.078651685393,4,2,1,80,1,1
85853,-100,4,2,1,80,0,1
87539,-100,4,2,1,80,0,1
87876,-117.647058823529,4,2,1,65,0,1
88550,-117.647058823529,4,2,1,75,0,0
88634,-117.647058823529,4,2,1,60,0,0
88886,-117.647058823529,4,2,1,40,0,0
89223,-117.647058823529,4,2,1,20,0,0
89560,-117.647058823529,4,2,1,10,0,0
89897,-117.647058823529,4,2,1,5,0,0

[Colours]
Combo1 : 243,248,251
Combo2 : 217,169,129

[HitObjects]
122,191,2258,6,0,P|145:235|163:293,1,97.9999970092774,2|2,0:2|0:2,0:0:0:0:
190,358,2772,2,0,B|247:348|230:316|292:308,1,97.9999970092774,2|2,0:2|0:2,0:0:0:0:
439,359,3452,1,2,0:2:0:0:
439,359,3620,2,0,B|411:334|411:334|422:268,1,97.9999970092774,2|0,0:2|0:0,0:0:0:0:
449,195,4126,1,2,0:2:0:0:
449,195,4294,2,0,P|482:170|505:128,2,73.4999977569581,2|2|2,0:2|0:2|0:2,0:0:0:0:
363,140,4960,6,0,B|308:149|308:149|308:152|308:152|249:161,1,97.9999970092774,2|2,0:2|0:2,0:0:0:0:
212,96,5468,2,0,P|161:126|153:182,1,97.9999970092774,2|2,0:2|0:2,0:0:0:0:
256,289,6146,1,2,0:2:0:0:
256,289,6315,6,0,B|181:267|181:267|114:308,1,146.999995513916,2|2,0:2|0:2,0:0:0:0:
170,371,6989,2,0,L|238:362,1,48.9999985046387,2|2,0:2|0:2,0:0:0:0:
301,374,7326,1,2,0:2:0:0:
446,292,7663,6,0,B|433:235|405:261|394:209,1,97.9999970092774,2|2,0:2|0:2,0:0:0:0:
398,128,8168,2,0,P|444:106|458:46,1,97.9999970092774,2|2,0:2|0:2,0:0:0:0:
394,13,8674,1,0,0:0:0:0:
394,13,8843,6,0,P|336:22|285:29,1,97.9999970092774,2|2,0:2|0:2,0:0:0:0:
229,75,9348,1,2,0:2:0:0:
142,217,9685,2,0,P|193:191|222:187,2,73.4999977569581,2|2|2,0:2|0:2|0:2,0:0:0:0:
103,306,10359,1,2,0:2:0:0:
394,355,11722,6,0,B|382:289|382:289|413:232,1,112,2|2,0:2|0:2,0:0:0:0:
474,113,12370,2,0,L|440:118,3,35,0|0|0|8,3:2|1:2|1:2|0:2,0:0:0:0:
403,95,12707,2,0,L|369:90,3,35,8|0|0|0,0:2|1:2|3:2|3:2,0:0:0:0:
340,59,13044,6,0,P|296:66|247:79,1,70,6|0,3:2|0:0,0:0:0:0:
228,151,13386,2,0,P|272:158|321:171,1,70,14|0,0:2|0:0,0:0:0:0:
359,230,13729,1,2,3:2:0:0:
359,230,13901,1,2,3:2:0:0:
243,365,14230,6,0,P|211:320|119:308,1,140,10|0,0:2|3:2,0:0:0:0:
41,292,14735,2,0,P|36:259|24:221,1,70,8|0,0:2|3:2,0:0:0:0:
31,179,14987,1,0,3:2:0:0:
31,179,15072,2,0,L|112:189,1,70,10|2,0:2|3:2,0:0:0:0:
150,111,15409,2,0,L|69:101,1,70,10|2,0:2|0:2,0:0:0:0:
163,13,15746,6,0,B|246:23|209:68|288:80,1,140,6|10,3:2|0:2,0:0:0:0:
362,38,16251,1,2,0:2:0:0:
418,109,16420,1,2,3:2:0:0:
418,109,16589,2,0,L|409:185,1,70,2|2,3:2|0:2,0:0:0:0:
475,288,16926,6,0,B|415:300|415:300|389:325|389:325|330:337,1,140,14|0,0:2|3:2,0:0:0:0:
265,372,17431,2,0,P|231:343|199:335,1,70,8|8,0:2|0:2,0:0:0:0:
104,357,17768,1,2,3:2:0:0:
136,271,17937,2,0,L|132:232,4,35,8|8|0|0|0,0:2|0:2|3:2|3:2|1:2,0:0:0:0:
42,243,18442,6,0,B|34:167|34:167|36:164|36:164|28:91,1,140,6|8,3:2|0:2,0:0:0:0:
61,18,18948,1,2,0:2:0:0:
61,18,19117,1,2,3:2:0:0:
129,77,19285,2,0,L|202:64,1,70,2|8,3:2|0:2,0:0:0:0:
287,1,19622,6,0,B|376:27|319:66|412:89,1,140,2|0,0:2|0:0,0:0:0:0:
484,74,20128,2,0,P|468:117|463:149,1,70,10|0,0:2|0:0,0:0:0:0:
429,225,20465,2,0,P|392:196|365:184,1,70,2|0,0:2|3:2,0:0:0:0:
346,98,20802,2,0,P|302:115|278:132,1,70,10|0,0:2|0:0,0:0:0:0:
199,212,21139,6,0,B|217:293|259:250|274:342,1,140,2|10,3:2|0:2,0:0:0:0:
190,369,21645,2,0,L|118:359,1,70,2|0,0:2|3:2,0:0:0:0:
100,270,21982,1,2,3:2:0:0:
100,270,22150,2,0,L|28:260,1,70,10|0,0:2|0:0,0:0:0:0:
5,160,22487,6,0,P|16:111|26:71,1,70,2|2,3:2|0:2,0:0:0:0:
98,43,22824,1,10,0:2:0:0:
161,108,22993,2,0,B|234:130|234:130|295:88,1,140,2|0,0:2|3:2,0:0:0:0:
335,16,23499,2,0,L|408:33,1,70,10|2,0:2|0:2,0:0:0:0:
462,134,23836,6,0,B|416:158|416:158|437:249,1,140,6|8,3:2|0:2,0:0:0:0:
379,315,24341,1,2,0:2:0:0:
379,315,24510,2,0,P|339:299|306:294,1,70,2|0,3:2|3:2,0:0:0:0:
253,224,24847,1,8,0:2:0:0:
88,145,25184,6,0,P|114:79|191:77,1,140,2|12,3:2|0:2,0:0:0:0:
244,137,25690,1,2,0:2:0:0:
244,137,25858,2,0,L|318:128,1,70,2|8,3:2|0:2,0:0:0:0:
372,59,26195,1,10,0:2:0:0:
455,95,26364,1,2,0:2:0:0:
405,199,26532,6,0,B|419:264|419:264|423:266|423:266|439:341,1,140,6|10,3:2|0:2,0:0:0:0:
348,375,27038,2,0,L|331:298,1,70,2|8,3:2|0:2,0:0:0:0:
287,227,27375,1,2,3:2:0:0:
203,263,27544,1,8,0:2:0:0:
134,164,27712,6,0,B|116:84|79:122|57:46,1,140,6|2,3:2|1:2,0:0:0:0:
16,147,28218,2,0,L|30:240,1,70,2|0,3:2|1:2,0:0:0:0:
21,325,28555,1,2,1:2:0:0:
21,325,28723,1,0,3:2:0:0:
116,369,28892,2,0,P|162:332|220:317,1,105,14|0,0:2|0:0,0:0:0:0:
223,326,29229,5,6,3:2:0:0:
446,369,30409,2,0,B|403:302|403:302|424:224,1,140,6|0,3:2|3:2,0:0:0:0:
501,207,30914,2,0,L|485:133,1,70,10|2,0:2|3:2,0:0:0:0:
505,35,31251,2,0,P|439:28|402:-1,2,105,10|10|10,0:2|0:2|0:2,0:0:0:0:
464,142,31926,6,0,L|373:155,1,70,2|0,0:2|3:2,0:0:0:0:
317,103,32263,2,0,B|239:128|285:170|203:193,1,140,12|0,0:2|3:2,0:0:0:0:
133,146,32768,1,2,3:2:0:0:
166,61,32937,1,10,0:2:0:0:
72,14,33105,6,0,B|28:33|28:33|42:131,1,140,2|0,3:2|3:2,0:0:0:0:
82,205,33611,2,0,L|66:283,1,70,8|0,0:2|0:0,0:0:0:0:
123,346,33948,1,0,3:2:0:0:
186,280,34117,1,8,0:2:0:0:
186,280,34201,1,8,0:2:0:0:
186,280,34285,2,0,L|227:285,2,35,2|8|8,3:2|0:2|0:2,0:0:0:0:
231,191,34622,6,0,L|314:202,1,70,2|0,3:2|3:2,0:0:0:0:
402,262,34959,2,0,P|460:262|480:173,1,140,12|2,0:2|3:2,0:0:0:0:
500,103,35465,1,0,3:2:0:0:
386,118,35633,2,0,B|301:111|351:64|258:53,1,140,12|2,0:2|3:2,0:0:0:0:
198,113,36139,5,0,3:2:0:0:
84,74,36308,2,0,P|117:150|135:218,1,140,12|2,0:2|3:2,0:0:0:0:
113,307,36813,1,0,1:2:0:0:
212,271,36982,2,0,P|254:280|296:298,1,70,10|2,0:2|3:2,0:0:0:0:
369,369,37319,6,0,P|379:326|390:289,1,70,6|0,3:2|3:2,0:0:0:0:
464,254,37656,2,0,P|448:217|417:194,1,70,14|2,0:2|3:2,0:0:0:0:
427,106,37993,2,0,P|386:101|351:116,1,70,12|2,0:2|3:2,0:0:0:0:
298,179,38330,1,8,0:2:0:0:
222,86,38499,6,0,B|135:102|190:151|82:171,1,140,6|0,3:2|3:2,0:0:0:0:
36,226,39004,2,0,P|81:243|110:261,1,70,10|0,0:2|0:0,0:0:0:0:
159,332,39341,2,0,L|245:316,1,70,10|0,0:2|1:2,0:0:0:0:
301,254,39678,1,2,3:2:0:0:
301,254,39847,1,2,3:2:0:0:
390,337,40015,5,2,1:2:0:0:
488,215,40521,1,2,1:2:0:0:
400,96,41027,1,10,0:2:0:0:
400,96,41195,6,0,P|353:105|318:92,1,70,2|0,3:2|0:0,0:0:0:0:
266,162,41532,2,0,P|234:125|228:88,1,70,6|8,3:2|0:2,0:0:0:0:
165,14,41869,2,0,B|94:32|94:32|93:36|93:36|29:52,1,140,6|0,3:2|0:0,0:0:0:0:
4,138,42375,1,14,0:2:0:0:
4,138,42544,1,2,0:2:0:0:
110,206,42712,6,0,P|80:254|57:338,1,140,6|8,3:2|0:2,0:0:0:0:
135,380,43218,2,0,L|209:366,1,70,2|0,0:2|3:2,0:0:0:0:
263,297,43555,1,2,1:2:0:0:
263,297,43723,1,10,0:2:0:0:
193,193,43892,5,2,3:2:0:0:
312,89,44229,1,2,1:2:0:0:
455,153,44566,1,6,3:2:0:0:
391,218,44735,6,0,P|364:206|346:203,3,35,0|0|0|0,3:2|1:2|1:2|1:2,0:0:0:0:
312,202,45072,2,0,B|319:255|319:255|316:258|316:258|324:314,1,105,12|0,0:2|0:0,0:0:0:0:
327,346,45409,6,0,B|255:349|284:373|217:378,2,105,2|10|10,3:2|0:2|0:2,0:0:0:0:
390,271,46083,2,0,B|462:274|433:298|500:303,2,105,2|10|10,3:2|0:2|0:2,0:0:0:0:
312,202,46757,6,0,L|302:126,1,70,6|0,3:2|0:0,0:0:0:0:
247,66,47094,1,2,3:2:0:0:
247,66,47263,1,8,0:2:0:0:
204,146,47431,2,0,L|214:222,1,70,2|8,3:2|0:2,0:0:0:0:
275,281,47768,1,2,3:2:0:0:
275,281,47937,1,8,0:2:0:0:
199,370,48105,6,0,P|157:323|56:304,1,140,6|0,3:2|3:2,0:0:0:0:
17,234,48611,1,8,0:2:0:0:
68,141,48780,1,8,3:2:0:0:
68,141,48864,1,8,0:2:0:0:
68,141,48948,2,0,L|142:154,1,70,8|8,0:2|3:2,0:0:0:0:
225,95,49285,1,8,0:2:0:0:
299,169,49454,6,0,L|285:224,3,35,8|8|8|8,3:2|0:2|0:2|0:2,0:0:0:0:
321,241,49791,2,0,L|335:296,3,35,8|8|8|8,3:2|0:2|0:2|0:2,0:0:0:0:
361,313,50128,2,0,L|443:298,1,70,8|2,3:2|1:2,0:0:0:0:
493,225,50465,1,10,3:2:0:0:
421,158,50633,1,2,1:2:0:0:
483,47,50802,6,0,B|422:4|422:4|333:22,1,140,4|0,3:2|3:2,0:0:0:0:
294,100,51308,2,0,B|216:111|256:158|162:167,1,140,12|0,0:2|3:2,0:0:0:0:
90,116,51813,1,8,0:2:0:0:
16,214,51982,6,0,L|28:286,1,70,4|0,3:2|0:0,0:0:0:0:
109,359,52319,1,4,3:2:0:0:
196,289,52487,1,0,3:2:0:0:
358,363,52824,6,0,L|349:322,3,35,6|8|8|8,3:2|0:2|0:2|0:2,0:0:0:0:
375,289,53162,2,0,L|384:248,3,35,10|8|8|8,3:2|0:2|0:2|0:2,0:0:0:0:
359,205,53499,6,0,P|321:147|232:153,2,154.000004699707,6|12|2,3:2|0:2|3:2,0:0:0:0:
454,253,54341,2,0,L|470:169,1,77.0000023498536,2|8,3:2|0:2,0:0:0:0:
435,56,54678,6,0,P|388:53|354:71,1,77.0000023498536,2|0,3:2|0:0,0:0:0:0:
293,138,55015,1,2,3:2:0:0:
224,59,55184,1,8,0:2:0:0:
148,164,55353,2,0,B|156:239|156:239|159:239|159:239|169:325,1,154.000004699707,2|0,1:2|3:2,0:0:0:0:
84,369,55858,1,10,0:2:0:0:
84,369,56027,1,2,0:2:0:0:
5,291,56195,6,0,P|53:261|93:259,1,77.0000023498536,2|0,3:2|3:2,0:0:0:0:
167,314,56532,1,10,0:2:0:0:
247,241,56701,2,0,B|337:264|278:314|371:340,1,154.000004699707,2|0,1:2|3:2,0:0:0:0:
448,382,57206,1,10,0:2:0:0:
491,291,57375,1,2,0:2:0:0:
392,209,57544,6,0,P|398:160|406:120,1,77.0000023498536,0|0,3:2|3:2,0:0:0:0:
314,85,57881,2,0,P|307:133|300:174,1,77.0000023498536,8|8,0:2|0:2,0:0:0:0:
247,241,58218,1,2,3:2:0:0:
247,241,58386,1,0,3:2:0:0:
169,157,58555,2,0,L|83:169,1,77.0000023498536,10|0,0:2|0:0,0:0:0:0:
19,258,58892,6,0,B|42:292|42:292|130:280,1,115.50000352478,6|0,3:2|3:2,0:0:0:0:
162,276,59229,2,0,L|145:373,1,77.0000023498536,8|2,0:2|0:2,0:0:0:0:
245,323,59566,2,0,L|262:226,1,77.0000023498536,2|2,3:2|0:0,0:0:0:0:
307,159,59903,1,10,0:2:0:0:
384,222,60072,1,2,0:2:0:0:
444,142,60240,6,0,L|428:59,1,77.0000023498536,0|0,3:2|0:0,0:0:0:0:
343,15,60577,2,0,P|292:38|284:57,1,77.0000023498536,10|0,0:2|0:0,0:0:0:0:
261,155,60914,1,6,3:2:0:0:
261,155,61083,1,8,0:2:0:0:
170,102,61251,2,0,L|127:110,3,38.5000011749268,2|8|8|8,3:2|0:2|0:2|0:2,0:0:0:0:
87,84,61589,6,0,P|47:96|21:132,1,77.0000023498536,6|0,3:2|1:2,0:0:0:0:
9,221,61926,1,8,0:2:0:0:
114,291,62094,6,0,B|215:304|168:345|253:356,1,154.000004699707,6|2,3:2|1:2,0:0:0:0:
330,296,62600,1,8,0:2:0:0:
430,372,62768,6,0,B|438:297|438:297|443:297|443:297|452:216,1,154.000004699707,6|2,3:2|3:2,0:0:0:0:
504,138,63274,2,0,P|466:120|430:123,1,77.0000023498536,8|6,0:2|1:2,0:0:0:0:
334,145,63611,1,2,3:2:0:0:
303,59,63780,1,8,0:2:0:0:
303,59,63864,1,8,0:2:0:0:
303,59,63948,2,0,P|276:39|264:35,3,38.5000011749268,0|0|10|8,3:2|1:2|0:2|0:2,0:0:0:0:
223,21,64285,6,0,L|108:48,1,115.50000352478,6|0,3:2|3:2,0:0:0:0:
61,60,64622,1,14,0:2:0:0:
132,129,64791,2,0,L|115:215,1,77.0000023498536,2|0,0:2|3:2,0:0:0:0:
68,292,65128,1,2,3:2:0:0:
166,273,65296,1,8,0:2:0:0:
228,373,65465,6,0,P|273:354|300:351,1,77.0000023498536,2|0,3:2|0:0,0:0:0:0:
341,259,65802,2,0,P|379:288|396:310,1,77.0000023498536,2|8,3:2|0:2,0:0:0:0:
508,353,66139,2,0,P|497:262|490:192,1,154.000004699707,2|0,0:2|3:2,0:0:0:0:
486,99,66645,1,10,0:2:0:0:
486,99,66813,1,10,0:2:0:0:
383,27,66982,6,0,L|296:43,1,77.0000023498536,2|0,3:2|3:2,0:0:0:0:
221,92,67319,1,10,0:2:0:0:
307,141,67487,1,2,3:2:0:0:
249,223,67656,2,0,L|162:207,1,77.0000023498536,8|2,0:2|3:2,0:0:0:0:
101,139,67993,1,8,0:2:0:0:
21,221,68162,5,6,3:2:0:0:
187,331,68499,1,6,3:2:0:0:
343,206,68836,1,6,3:2:0:0:
411,267,69004,2,0,L|399:316,2,35,0|0|8,3:2|0:0|0:2,0:0:0:0:
486,215,69337,2,0,L|465:139,1,70,0|0,3:2|3:2,0:0:0:0:
385,67,69670,6,0,B|317:80|352:109|265:127,2,115.50000352478,10|10|10,3:2|3:2|3:2,0:0:0:0:
303,9,70337,2,0,L|225:4,1,77.0000023498536,10|0,3:2|0:0,0:0:0:0:
139,54,70674,1,4,1:2:0:0:
4,202,71011,6,0,B|72:215|37:244|124:262,2,115.50000352478,10|10|10,3:2|3:2|3:2,0:0:0:0:
14,301,71685,2,0,L|41:382,1,77.0000023498536,2|0,3:2|1:2,0:0:0:0:
141,339,72022,1,10,0:2:0:0:
203,227,72190,6,0,B|266:211|266:211|286:182|286:182|347:170,1,154.000004699707,6|0,3:2|3:2,0:0:0:0:
436,192,72696,2,0,P|441:141|446:91,1,77.0000023498536,8|0,0:2|0:0,0:0:0:0:
394,28,73033,1,0,3:2:0:0:
394,28,73202,1,2,3:2:0:0:
320,95,73370,2,0,L|244:78,1,77.0000023498536,14|0,0:2|3:2,0:0:0:0:
161,11,73707,5,2,3:2:0:0:
82,84,73877,1,8,0:2:0:0:
140,174,74047,1,8,0:2:0:0:
8,308,74388,6,0,L|100:291,1,77.0000023498536,2|2,1:2|0:2,0:0:0:0:
173,249,74729,1,10,0:2:0:0:
231,345,74900,6,0,B|295:294|295:294|367:326,1,154.000004699707,6|2,3:2|3:2,0:0:0:0:
434,376,75405,1,8,0:2:0:0:
504,290,75573,6,0,B|492:215|492:215|489:215|489:215|477:140,1,154.000004699707,6|2,3:2|3:2,0:0:0:0:
415,61,76079,1,8,0:2:0:0:
347,154,76247,6,0,P|312:106|210:83,1,154.000004699707,6|2,3:2|3:2,0:0:0:0:
160,157,76753,1,12,0:2:0:0:
43,134,76922,6,0,P|70:204|75:228,1,77.0000023498536,2|0,3:2|3:2,0:0:0:0:
100,302,77259,1,2,1:2:0:0:
189,255,77427,1,2,3:2:0:0:
189,255,77596,1,2,0:2:0:0:
259,346,77764,6,0,P|298:328|341:318,1,77.0000023498536,6|0,3:2|3:2,0:0:0:0:
435,348,78101,1,2,3:2:0:0:
503,245,78270,6,0,B|450:215|450:215|470:118,1,154.000004699707,14|2,0:2|3:2,0:0:0:0:
503,30,78775,1,8,0:2:0:0:
378,29,78944,6,0,B|312:41|312:41|289:69|289:69|228:79,1,154.000004699707,6|0,3:2|1:2,0:0:0:0:
160,25,79443,1,0,3:2:0:0:
160,25,79610,1,0,3:2:0:0:
89,95,79776,1,2,3:2:0:0:
167,157,79943,2,0,L|155:208,4,38.5000011749268,8|8|2|8|10,0:2|0:2|3:2|3:2|0:2,0:0:0:0:
276,182,80444,6,0,B|262:258|262:258|301:281|310:329,1,154.000004699707,6|2,3:2|0:2,0:0:0:0:
211,344,80949,1,6,3:2:0:0:
36,284,81286,1,10,0:2:0:0:
36,284,81455,1,8,0:2:0:0:
126,218,81623,6,0,P|80:146|57:79,1,154.000004699707,6|0,3:2|3:2,0:0:0:0:
128,10,82133,2,0,L|213:32,1,77.0000023498536,12|8,0:2|0:2,0:0:0:0:
302,19,82474,1,2,3:2:0:0:
252,106,82645,1,0,1:2:0:0:
335,160,82815,2,0,L|413:145,1,77.0000023498536,12|2,0:2|0:2,0:0:0:0:
512,94,83157,6,0,B|505:168|505:168|502:169|502:169|494:251,1,140,6|10,3:2|0:2,0:0:0:0:
450,309,83662,1,6,3:2:0:0:
291,353,83999,1,10,0:2:0:0:
291,353,84168,1,8,0:2:0:0:
296,239,84336,6,0,B|222:254|248:296|169:311,1,140,6|0,3:2|3:2,0:0:0:0:
117,241,84842,2,0,L|123:164,1,70,12|0,0:2|3:2,0:0:0:0:
114,80,85179,1,2,3:2:0:0:
188,26,85348,1,10,0:2:0:0:
255,86,85516,2,0,L|249:163,1,70,10|0,0:2|3:2,0:0:0:0:
319,254,85853,6,0,P|360:227|386:223,1,70,6|0,3:2|3:2,0:0:0:0:
461,264,86190,1,10,0:2:0:0:
509,172,86359,2,0,B|498:96|498:96|473:66|426:76,1,140,6|2,3:2|3:2,0:0:0:0:
369,129,86864,1,8,0:2:0:0:
282,47,87033,6,0,B|212:61|212:61|207:65|207:65|136:80,1,140,6|2,3:2|1:2,0:0:0:0:
72,131,87539,2,0,L|92:206,1,70,2|0,3:2|3:2,0:0:0:0:
74,289,87876,6,0,P|25:309|6:353,2,89.2500017023087,10|2|0,0:2|0:2|1:2,0:0:0:0:
164,333,88550,1,6,3:2:0:0:
256,192,88634,12,0,90235,0:0:0:0:
