osu file format v14

[General]
AudioFilename: audio.mp3
AudioLeadIn: 0
PreviewTime: 52656
Countdown: 0
SampleSet: Soft
StackLeniency: 1
Mode: 0
LetterboxInBreaks: 0
WidescreenStoryboard: 1

[Editor]
Bookmarks: 11811,17209,38782,52266,63052,68437,87317
DistanceSpacing: 1.3
BeatDivisor: 4
GridSize: 32
TimelineZoom: 1.6

[Metadata]
Title:Ashita no Kimi sae Ireba Ii. (TV Size)
TitleUnicode:明日の君さえいればいい。(TV Size)
Artist:ChouCho
ArtistUnicode:ChouCho
Creator:Koyorin-sama
Version:Airiesu's Insane
Source:妹さえいればいい。
Tags:ちょうちょ IMOTO SAE IREBA II. imouto opening op カントク Kantoku 平坂読 Hirasaka Yomi airiesu mujina rk657 matsuyuki_ame twil_furano pop jpop j-pop japanese anime imosae female vocal vocalist maiev
BeatmapID:3266374
BeatmapSetID:1583554

[Difficulty]
HPDrainRate:5
CircleSize:3.8
OverallDifficulty:8
ApproachRate:9
SliderMultiplier:1.6
SliderTickRate:1

[Events]
//Background and Video events
0,0,"miyako.jpg",0,0
//Break Periods
//Storyboard Layer 0 (Background)
//Storyboard Layer 1 (Fail)
//Storyboard Layer 2 (Pass)
//Storyboard Layer 3 (Foreground)
//Storyboard Layer 4 (Overlay)
//Storyboard Sound Samples

[TimingPoints]
1572,342.857142857143,4,2,1,45,1,0
2258,342.857142857143,4,2,1,45,1,0
2258,-133.333333333333,4,2,1,45,0,0
2943,-133.333333333333,4,2,1,50,0,0
3115,337.078651685393,4,2,1,45,1,0
3115,-133.333333333333,4,2,1,45,0,0
3283,-133.333333333333,4,2,1,50,0,0
3452,-133.333333333333,4,2,1,45,0,0
3957,-133.333333333333,4,2,1,50,0,0
4126,-133.333333333333,4,2,1,45,0,0
4294,333.333333333333,4,2,1,45,1,0
4294,-133.333333333333,4,2,1,45,0,0
4960,338.983050847458,4,2,1,45,1,0
4960,-133.333333333333,4,2,1,45,0,0
5637,-133.333333333333,4,2,1,50,0,0
5807,-133.333333333333,4,2,1,45,0,0
5976,-133.333333333333,4,2,1,50,0,0
6146,-133.333333333333,4,2,1,45,0,0
6315,337.078651685393,4,2,1,45,1,0
6315,-133.333333333333,4,2,1,45,0,0
6652,-133.333333333333,4,2,1,50,0,0
6820,-133.333333333333,4,2,1,45,0,0
8336,-133.333333333333,4,2,1,50,0,0
8506,-133.333333333333,4,2,1,45,0,0
8674,-133.333333333333,4,2,1,50,0,0
8843,-133.333333333333,4,2,1,45,0,0
10359,340.909090909091,4,2,1,45,1,0
11722,-100,4,2,1,70,0,0
12370,337.078651685393,4,2,1,70,1,0
13044,342.857142857143,4,2,1,70,1,0
13301,-100,4,2,1,60,0,0
13386,-90.9090909090909,4,2,1,70,0,0
13643,-90.9090909090909,4,2,1,60,0,0
13729,-90.9090909090909,4,2,1,70,0,0
13901,329.67032967033,4,2,1,70,1,0
14230,337.078651685393,4,2,1,70,1,0
14398,337.078651685393,4,2,1,60,1,0
14566,-100,4,2,1,70,0,0
15577,-100,4,2,1,70,0,0
15746,-100,4,2,1,70,0,0
16251,-100,4,2,1,70,0,0
16420,-100,4,2,1,70,0,0
16757,-100,4,2,1,70,0,0
16926,-100,4,2,1,70,0,0
18442,-111.111111111111,4,2,1,60,0,0
24173,-90.9090909090909,4,2,1,60,0,0
25184,-111.111111111111,4,2,1,60,0,0
25521,-83.3333333333333,4,2,1,60,0,0
26532,-100,4,2,1,60,0,0
28892,-83.3333333333333,4,2,1,60,0,0
29229,-83.3333333333333,4,2,1,60,0,0
29903,-133.333333333333,4,2,1,60,0,0
30409,-83.3333333333333,4,2,1,60,0,0
30914,-100,4,2,1,60,0,0
31251,-83.3333333333333,4,2,1,60,0,0
31419,-83.3333333333333,4,2,1,5,0,0
31504,-83.3333333333333,4,2,1,60,0,0
31672,-83.3333333333333,4,2,1,5,0,0
31757,-83.3333333333333,4,2,1,60,0,0
31841,-83.3333333333333,4,2,1,5,0,0
31926,-100,4,2,1,60,0,0
32263,-83.3333333333333,4,2,1,65,0,0
32515,-83.3333333333333,4,2,1,60,0,0
32600,-83.3333333333333,4,2,1,65,0,0
33105,-100,4,2,1,65,0,0
33779,-100,4,2,1,60,0,0
33864,-100,4,2,1,65,0,0
34959,-90.9090909090909,4,2,1,65,0,0
35211,-90.9090909090909,4,2,1,60,0,0
35296,-90.9090909090909,4,2,1,65,0,0
35885,-90.9090909090909,4,2,1,60,0,0
35971,-100,4,2,1,65,0,0
36308,-83.3333333333333,4,2,1,65,0,0
36560,-83.3333333333333,4,2,1,60,0,0
36645,-83.3333333333333,4,2,1,65,0,0
37319,-100,4,2,1,65,0,0
37571,-100,4,2,1,60,0,0
37656,-100,4,2,1,65,0,0
39172,-100,4,2,1,60,0,0
39341,-100,4,2,1,65,0,0
40015,-100,4,2,1,55,0,0
41363,-100,4,2,1,60,0,0
41532,-100,4,2,1,55,0,0
41869,-100,4,2,1,60,0,0
42712,-100,4,2,1,65,0,0
44060,-100,4,2,1,60,0,0
44229,-100,4,2,1,65,0,0
44566,-83.3333333333333,4,2,1,65,0,0
45409,-83.3333333333333,4,2,1,70,0,0
45577,-83.3333333333333,4,2,1,60,0,0
45662,-83.3333333333333,4,2,1,70,0,0
45830,-83.3333333333333,4,2,1,60,0,0
45914,-83.3333333333333,4,2,1,70,0,0
45998,-83.3333333333333,4,2,1,60,0,0
46083,-83.3333333333333,4,2,1,70,0,0
46251,-83.3333333333333,4,2,1,60,0,0
46336,-83.3333333333333,4,2,1,70,0,0
46504,-83.3333333333333,4,2,1,60,0,0
46589,-83.3333333333333,4,2,1,70,0,0
46673,-83.3333333333333,4,2,1,60,0,0
46757,-90.9090909090909,4,2,1,70,0,0
47009,-90.9090909090909,4,2,1,60,0,0
47094,-90.9090909090909,4,2,1,70,0,0
48105,-90.9090909090909,4,2,1,75,0,0
48189,-90.9090909090909,4,2,1,60,0,0
48273,-90.9090909090909,4,2,1,75,0,0
48357,-90.9090909090909,4,2,1,60,0,0
48442,-90.9090909090909,4,2,1,75,0,0
51982,-83.3333333333333,4,2,1,75,0,0
52234,-83.3333333333333,4,2,1,60,0,0
52319,-83.3333333333333,4,2,1,75,0,0
53499,-83.3333333333333,4,2,1,80,0,1
53751,-83.3333333333333,4,2,1,70,0,1
53836,-83.3333333333333,4,2,1,80,0,1
54088,-83.3333333333333,4,2,1,60,0,1
54173,-83.3333333333333,4,2,1,80,0,1
54846,-83.3333333333333,4,2,1,60,0,1
55015,-83.3333333333333,4,2,1,80,0,1
56447,-83.3333333333333,4,2,1,70,0,1
56532,-83.3333333333333,4,2,1,80,0,1
56785,-83.3333333333333,4,2,1,80,0,1
56869,-83.3333333333333,4,2,1,80,0,1
58723,-83.3333333333333,4,2,1,70,0,1
58892,-83.3333333333333,4,2,1,80,0,1
59144,-83.3333333333333,4,2,1,80,0,1
59229,-83.3333333333333,4,2,1,80,0,1
59818,-83.3333333333333,4,2,1,80,0,1
59903,-83.3333333333333,4,2,1,80,0,1
60409,-83.3333333333333,4,2,1,60,0,1
60493,-83.3333333333333,4,2,1,80,0,1
60745,-83.3333333333333,4,2,1,70,0,1
60914,-83.3333333333333,4,2,1,80,0,1
61757,-83.3333333333333,4,2,1,80,0,1
61926,-83.3333333333333,4,2,1,80,0,1
62346,-83.3333333333333,4,2,1,60,0,1
62431,-83.3333333333333,4,2,1,80,0,1
63020,-83.3333333333333,4,2,1,70,0,1
63105,-83.3333333333333,4,2,1,80,0,1
64285,-83.3333333333333,4,2,1,75,0,1
68162,-83.3333333333333,4,2,1,80,0,1
68330,-83.3333333333333,4,2,1,60,0,1
68499,-83.3333333333333,4,2,1,80,0,1
69004,333.333333333333,4,2,1,70,1,1
69337,-83.3333333333333,4,2,1,70,0,1
69670,333.333333333333,4,2,1,70,1,1
69670,-83.3333333333333,4,2,1,70,0,1
70337,337.078651685393,4,2,1,70,1,0
71011,337.078651685393,4,2,1,75,1,1
71011,-83.3333333333333,4,2,1,75,0,1
71179,-83.3333333333333,4,2,1,70,0,1
71263,-83.3333333333333,4,2,1,75,0,1
71431,-83.3333333333333,4,2,1,70,0,1
71516,-83.3333333333333,4,2,1,75,0,1
71600,-83.3333333333333,4,2,1,70,0,1
71685,-83.3333333333333,4,2,1,75,0,1
72190,-83.3333333333333,4,2,1,80,0,1
72864,-83.3333333333333,4,2,1,70,0,1
72949,-83.3333333333333,4,2,1,80,0,1
73707,340.909090909091,4,2,1,80,1,1
74047,-100,4,2,1,70,0,0
74900,337.078651685393,4,2,1,70,1,1
74900,-83.3333333333333,4,2,1,70,0,1
75573,-83.3333333333333,4,2,1,70,0,1
76247,-83.3333333333333,4,2,1,75,0,1
77764,-83.3333333333333,4,2,1,80,0,1
78944,333.333333333333,4,2,1,80,1,1
78944,-83.3333333333333,4,2,1,80,0,1
79276,-100,4,2,1,80,0,1
80444,337.078651685393,4,2,1,80,1,0
80949,-83.3333333333333,4,2,1,80,0,1
81623,340.909090909091,4,2,1,80,1,1
81623,-83.3333333333333,4,2,1,80,0,1
81793,340.909090909091,4,2,1,70,1,1
81963,-100,4,2,1,80,0,1
83157,337.078651685393,4,2,1,80,1,0
83662,-83.3333333333333,4,2,1,80,0,1
85348,-83.3333333333333,4,2,1,80,0,0
85853,-83.3333333333333,4,2,1,80,0,1
85937,-83.3333333333333,4,2,1,70,0,0
86190,-83.3333333333333,4,2,1,80,0,0
86359,-83.3333333333333,4,2,1,80,0,1
86443,-83.3333333333333,4,2,1,70,0,0
86696,-83.3333333333333,4,2,1,80,0,0
87033,-83.3333333333333,4,2,1,80,0,1
87285,-83.3333333333333,4,2,1,70,0,1
87370,-83.3333333333333,4,2,1,80,0,1
87539,-100,4,2,1,80,0,0
87876,-100,4,2,1,65,0,1
88550,-100,4,2,1,75,0,0
88634,-100,4,2,1,60,0,0
88886,-100,4,2,1,40,0,0
89223,-100,4,2,1,20,0,0
89560,-100,4,2,1,10,0,0
89898,-100,4,2,1,5,0,0

[Colours]
Combo1 : 230,141,185
Combo2 : 251,213,150
Combo3 : 150,148,211
Combo4 : 232,92,43

[HitObjects]
29,60,2258,6,0,P|84:38|144:37,1,120,2|2,0:2|0:2,2:0:0:0:
144,37,2772,2,0,P|138:79|135:111,1,60.0000000000001,2|0,0:2|2:0,2:0:0:0:
119,240,3115,2,0,P|122:210|126:180,1,60.0000000000001,2|0,0:2|2:0,2:0:0:0:
125,180,3452,1,2,0:2:0:0:
117,324,3620,6,0,P|178:339|229:288,1,120,2|0,0:2|2:0,2:0:0:0:
249,230,4126,1,2,0:2:0:0:
322,269,4294,2,0,P|329:224|337:180,2,90.0000000000002,2|2|2,0:2|0:2|0:2,2:0:0:0:
231,124,4960,6,0,P|284:114|302:50,1,120,2|2,0:2|0:2,2:0:0:0:
373,16,5468,2,0,P|383:49|385:83,1,60.0000000000001,2|0,0:2|2:0,2:0:0:0:
465,63,5807,2,0,P|463:97|453:130,1,60.0000000000001,2|0,0:2|2:0,2:0:0:0:
456,121,6146,1,2,0:2:0:0:
488,263,6315,6,0,P|437:227|356:223,1,120,2|0,0:2|2:0,2:0:0:0:
381,218,6820,1,2,0:2:0:0:
326,314,6989,1,2,0:2:0:0:
250,332,7157,1,2,0:2:0:0:
174,350,7326,1,2,0:2:0:0:
174,350,7663,6,0,P|157:272|169:226,1,120,2|2,0:2|0:2,2:0:0:0:
165,234,8168,2,0,P|121:223|92:217,1,60.0000000000001,2|0,0:2|2:0,2:0:0:0:
237,194,8506,2,0,P|281:205|310:211,1,60.0000000000001,2|0,0:2|2:0,2:0:0:0:
245,78,8843,6,0,P|228:156|240:202,1,120,2|2,0:2|0:2,2:0:0:0:
314,132,9348,1,2,0:2:0:0:
314,132,9685,2,0,P|362:124|425:114,2,90.0000000000002,2|2|2,0:2|0:2|0:2,2:0:0:0:
245,78,10359,1,2,0:2:0:0:
256,276,11722,5,2,0:2:0:0:
256,276,12063,1,2,0:2:0:0:
172,175,12370,2,0,P|224:167|236:165,1,40,0|0,3:2|1:2,2:0:0:0:
290,157,12538,2,0,P|342:149|354:147,1,40,0|8,1:2|0:2,2:0:0:0:
435,190,12707,1,8,0:2:0:0:
416,196,12791,1,0,1:2:0:0:
400,208,12875,1,0,3:2:0:0:
390,225,12959,1,0,3:2:0:0:
386,245,13044,6,0,P|418:298|482:285,1,120,6|0,3:2|2:0,2:0:0:0:
473,314,13386,2,0,P|421:316|328:324,1,132,14|0,0:2|2:0,2:0:0:0:
324,337,13729,1,2,3:2:0:0:
211,169,13901,1,2,3:2:0:0:
211,169,14230,6,0,B|130:163|131:209|49:195,1,159.525333333333,10|0,0:2|3:2,2:0:0:0:
31,7,14735,2,0,P|27:63|84:99,1,120,8|0,0:2|3:2,2:0:0:0:
87,100,15072,1,10,0:2:0:0:
214,45,15240,1,2,3:2:0:0:
281,229,15409,1,10,0:2:0:0:
188,128,15577,1,2,0:2:0:0:
393,16,15746,6,0,P|382:91|380:178,1,160,6|10,3:2|0:2,2:0:0:0:
379,175,16251,1,2,0:2:0:0:
488,76,16420,1,2,3:2:0:0:
298,38,16589,2,0,P|290:91|288:153,1,80,2|2,3:2|0:2,2:0:0:0:
156,25,16926,6,0,P|202:88|172:166,1,160,14|0,0:2|3:2,2:0:0:0:
53,212,17431,1,8,0:2:0:0:
26,84,17600,1,8,0:2:0:0:
178,160,17768,1,2,3:2:0:0:
116,308,17937,1,8,0:2:0:0:
116,308,18021,1,8,0:2:0:0:
116,308,18105,2,0,P|84:312|49:319,3,40,0|0|0|0,3:2|3:2|1:2|3:2,2:0:0:0:
181,251,18442,6,0,B|217:288|217:288|275:290|308:233,1,144,6|8,3:2|0:2,2:0:0:0:
296,249,18948,1,2,0:2:0:0:
385,310,19117,1,2,3:2:0:0:
385,310,19285,1,2,3:2:0:0:
269,374,19454,1,8,0:2:0:0:
237,185,19622,5,2,0:2:0:0:
298,125,19791,2,0,P|344:137|377:145,1,72.0000000000001,0|0,3:2|2:0,2:0:0:0:
197,260,20128,2,0,P|151:248|118:240,1,72.0000000000001,10|0,0:2|2:0,2:0:0:0:
102,234,20381,1,0,1:2:0:0:
102,234,20465,1,2,0:2:0:0:
40,384,20633,1,0,3:2:0:0:
35,179,20802,2,0,P|15:217|36:292,1,108,10|0,0:2|2:0,2:0:0:0:
48,300,21139,6,0,P|82:308|117:317,1,72.0000000000001,2|0,3:2|2:0,2:0:0:0:
188,142,21476,1,10,0:2:0:0:
85,107,21645,1,2,0:2:0:0:
85,107,21729,1,8,0:2:0:0:
85,107,21813,1,0,3:2:0:0:
35,179,21982,1,2,3:2:0:0:
206,259,22150,2,0,P|233:215|247:187,1,72.0000000000001,10|0,0:2|2:0,2:0:0:0:
252,71,22487,5,2,3:2:0:0:
164,168,22656,1,2,0:2:0:0:
330,276,22824,1,10,0:2:0:0:
332,134,22993,1,2,0:2:0:0:
332,134,23077,1,8,0:2:0:0:
332,134,23162,1,2,3:2:0:0:
247,184,23330,1,0,3:2:0:0:
409,299,23499,5,10,0:2:0:0:
417,95,23667,1,2,0:2:0:0:
328,63,23836,6,0,P|324:98|331:133,1,72.0000000000001,6|0,3:2|2:0,2:0:0:0:
311,328,24173,2,0,B|250:314|242:358|163:342,1,132,8|0,0:2|2:0,2:0:0:0:
158,334,24510,1,2,3:2:0:0:
158,334,24678,1,0,3:2:0:0:
93,209,24847,2,0,B|154:195|162:239|221:226,1,132,8|0,0:2|2:0,2:0:0:0:
236,220,25184,6,0,P|239:184|232:149,1,72.0000000000001,2|0,3:2|3:2,2:0:0:0:
268,23,25521,2,0,B|199:8|207:59|118:43,1,144,12|0,0:2|2:0,2:0:0:0:
111,30,25858,1,2,3:2:0:0:
26,162,26027,1,8,0:2:0:0:
236,220,26195,1,10,0:2:0:0:
236,220,26364,1,2,0:2:0:0:
266,45,26532,6,0,P|216:52|184:124,1,120,6|0,3:2|2:0,2:0:0:0:
181,128,26869,5,10,0:2:0:0:
353,70,27038,1,2,3:2:0:0:
325,216,27206,5,8,0:2:0:0:
266,45,27375,1,2,3:2:0:0:
459,0,27544,1,8,0:2:0:0:
481,206,27712,6,0,B|409:184|394:241|308:210,1,160,6|2,3:2|1:2,2:0:0:0:
431,367,28218,2,0,P|436:307|447:272,1,80,2|0,3:2|1:2,2:0:0:0:
269,282,28555,1,2,1:2:0:0:
301,364,28723,1,0,3:2:0:0:
242,193,28892,2,0,B|212:178|212:178|178:188|156:246|193:288,1,144,14|0,0:2|2:0,2:0:0:0:
192,292,29229,1,6,3:2:0:0:
192,292,29903,6,0,P|186:323|181:361,2,60.0000000000001,2|2|2,0:2|0:2|0:2,2:0:0:0:
76,167,30409,2,0,B|56:210|113:241|155:212|152:206|192:183|239:217,1,192,6|0,3:2|3:2,2:0:0:0:
365,250,30914,2,0,P|372:210|386:173,1,80,10|2,0:2|3:2,2:0:0:0:
407,4,31251,6,0,P|453:12|474:54,1,96,10|0,0:2|2:0,2:0:0:0:
378,82,31504,2,0,P|361:37|387:-1,1,96,10|0,0:2|2:0,2:0:0:0:
490,141,31757,2,0,P|463:129|440:124,1,48,10|0,0:2|2:0,2:0:0:0:
315,194,31926,6,0,P|361:225|323:290,1,120,2|0,0:2|2:0,2:0:0:0:
331,287,32263,2,0,B|289:277|289:277|261:245|267:198|313:170,1,144,12|0,0:2|2:0,2:0:0:0:
305,170,32600,1,0,3:2:0:0:
409,250,32768,1,2,3:2:0:0:
257,384,32937,1,10,0:2:0:0:
166,192,33105,6,0,B|92:180|81:228|-3:205,1,160,2|0,3:2|3:2,2:0:0:0:
134,273,33611,2,0,P|140:319|138:361,1,80,8|0,0:2|2:0,2:0:0:0:
137,374,33864,1,8,0:2:0:0:
137,374,33948,1,0,3:2:0:0:
7,285,34117,1,8,0:2:0:0:
2,266,34201,1,8,0:2:0:0:
1,246,34285,1,2,3:2:0:0:
4,226,34369,1,8,0:2:0:0:
9,207,34454,1,8,0:2:0:0:
41,52,34622,6,0,P|52:90|39:133,1,80,2|0,3:2|3:2,2:0:0:0:
122,16,34959,2,0,B|186:-3|193:29|259:14,1,132,12|0,0:2|2:0,2:0:0:0:
278,1,35296,1,2,3:2:0:0:
278,1,35465,1,0,3:2:0:0:
355,146,35633,2,0,B|290:126|284:159|217:144,1,132,12|0,0:2|2:0,2:0:0:0:
204,146,35971,6,0,P|193:184|206:227,1,80,2|0,3:2|3:2,2:0:0:0:
130,336,36308,2,0,B|199:317|205:369|290:334,1,144,12|0,0:2|2:0,2:0:0:0:
288,331,36645,1,2,3:2:0:0:
317,159,36813,1,0,1:2:0:0:
156,237,36982,1,10,0:2:0:0:
156,237,37150,1,2,3:2:0:0:
353,239,37319,6,0,P|307:190|254:198,1,120,6|0,3:2|2:0,2:0:0:0:
243,202,37656,5,14,0:2:0:0:
390,343,37824,1,2,3:2:0:0:
361,129,37993,5,12,0:2:0:0:
273,294,38162,1,2,3:2:0:0:
479,271,38330,1,8,0:2:0:0:
435,94,38499,6,0,B|370:75|350:121|276:101,1,160,6|0,3:2|3:2,2:0:0:0:
140,12,39004,2,0,P|193:30|240:43,1,80,10|0,0:2|2:0,2:0:0:0:
317,22,39341,1,10,0:2:0:0:
166,146,39510,1,0,1:2:0:0:
254,203,39678,1,2,3:2:0:0:
192,271,39847,1,2,3:2:0:0:
277,368,40015,5,2,1:2:0:0:
277,368,40521,1,2,1:2:0:0:
254,203,40858,1,0,1:2:0:0:
94,284,41027,1,10,0:2:0:0:
188,344,41195,2,0,P|183:286|180:246,1,80,2|0,3:2|2:0,2:0:0:0:
74,115,41532,2,0,P|77:155|81:195,1,80,6|8,3:2|0:2,2:0:0:0:
113,38,41869,6,0,B|57:8|57:8|22:9|-8:33|1:72,1,160,6|0,3:2|2:0,2:0:0:0:
169,184,42375,2,0,P|165:144|162:104,1,80,14|2,0:2|0:2,2:0:0:0:
320,27,42712,6,0,P|266:53|274:158,1,160,6|8,3:2|0:2,2:0:0:0:
357,238,43218,2,0,P|360:198|363:158,1,80,2|0,0:2|3:2,2:0:0:0:
469,84,43555,1,2,1:2:0:0:
462,195,43723,1,10,0:2:0:0:
320,27,43892,2,0,P|363:39|399:33,1,80,2|0,3:2|2:0,2:0:0:0:
206,130,44229,2,0,P|249:118|285:123,1,80,2|8,1:2|0:2,2:0:0:0:
102,13,44566,6,0,B|118:41|118:41|124:82|90:128,1,96,6|0,3:2|3:2,2:0:0:0:
91,121,44819,1,0,1:2:0:0:
84,144,44903,1,0,1:2:0:0:
85,168,44987,1,0,1:2:0:0:
94,190,45072,1,12,0:2:0:0:
94,190,45409,6,0,P|103:235|71:277,1,96,2|0,3:2|2:0,2:0:0:0:
0,205,45662,2,0,P|34:174|86:181,1,96,10|0,0:2|2:0,2:0:0:0:
187,138,45914,2,0,P|185:161|180:186,1,48,10|0,0:2|2:0,2:0:0:0:
173,351,46083,6,0,P|164:306|196:264,1,96,2|0,3:2|2:0,2:0:0:0:
267,336,46336,2,0,P|232:366|180:359,1,96,10|0,0:2|2:0,2:0:0:0:
289,195,46589,2,0,P|291:218|295:243,1,48,10|0,0:2|2:0,2:0:0:0:
424,192,46757,6,0,P|380:245|384:312,1,132,6|0,3:2|2:0,2:0:0:0:
386,323,47094,5,2,3:2:0:0:
492,262,47263,1,8,0:2:0:0:
298,173,47431,1,2,3:2:0:0:
362,312,47600,1,8,0:2:0:0:
501,148,47768,1,2,3:2:0:0:
342,79,47937,1,8,0:2:0:0:
224,268,48105,6,0,P|252:274|280:286,3,44.0000013427735,6|0|8|0,3:2|2:0|0:2|2:0,2:0:0:0:
142,303,48442,2,0,P|136:331|124:359,3,44,0|0|8|8,3:2|1:2|0:2|0:2,2:0:0:0:
107,221,48780,2,0,P|79:215|51:203,3,44,8|8|8|8,3:2|0:2|0:2|0:2,2:0:0:0:
189,186,49117,2,0,P|195:158|207:130,3,44,8|8|8|8,3:2|0:2|0:2|0:2,2:0:0:0:
269,86,49454,6,0,P|276:106|280:128,1,44,8|8,3:2|0:2,2:0:0:0:
191,20,49622,2,0,P|211:12|233:8,1,44,8|8,0:2|0:2,2:0:0:0:
364,125,49791,1,8,3:2:0:0:
363,146,49875,1,8,0:2:0:0:
356,167,49959,1,8,0:2:0:0:
345,186,50044,1,8,0:2:0:0:
328,200,50128,6,0,P|320:220|316:242,3,44,8|0|2|0,3:2|3:2|1:2|1:2,2:0:0:0:
336,325,50465,2,0,P|343:345|347:367,3,44,10|0|2|0,3:2|1:2|1:2|1:2,2:0:0:0:
416,259,50802,5,4,3:2:0:0:
233,300,50971,2,0,L|176:312,2,44,0|0|0,1:2|1:2|3:2,2:0:0:0:
295,142,51308,5,12,0:2:0:0:
336,325,51476,2,0,L|348:382,2,44,0|0|0,1:2|1:2|3:2,2:0:0:0:
291,121,51813,5,8,0:2:0:0:
469,216,51982,2,0,B|402:202|398:251|319:233,1,144,4|0,3:2|2:0,2:0:0:0:
314,229,52319,5,4,3:2:0:0:
270,25,52487,1,0,3:2:0:0:
270,25,52824,5,6,3:2:0:0:
204,155,52993,1,8,0:2:0:0:
193,142,53077,1,8,0:2:0:0:
187,128,53162,1,10,3:2:0:0:
183,112,53246,1,8,0:2:0:0:
183,96,53330,1,8,0:2:0:0:
187,81,53414,1,8,0:2:0:0:
194,66,53499,6,0,B|263:48|268:97|346:77,1,144,6|0,3:2|2:0,2:0:0:0:
374,1,53836,2,0,P|367:65|362:163,1,144,12|0,0:2|2:0,2:0:0:0:
363,168,54173,1,2,3:2:0:0:
452,74,54341,1,2,3:2:0:0:
505,250,54510,1,8,0:2:0:0:
426,325,54678,2,0,P|421:278|420:230,1,96,2|0,3:2|2:0,2:0:0:0:
272,149,55015,2,0,P|276:196|277:244,1,96,2|8,3:2|0:2,2:0:0:0:
288,379,55353,1,2,1:2:0:0:
288,379,55437,1,0,1:2:0:0:
288,379,55521,6,0,P|240:379|192:384,1,96,0|0,3:2|3:2,2:0:0:0:
47,259,55858,1,10,0:2:0:0:
70,384,56027,1,2,0:2:0:0:
149,225,56195,6,0,B|124:222|87:190|87:190|31:207|43:250,1,144,2|0,3:2|2:0,2:0:0:0:
47,259,56532,1,10,0:2:0:0:
215,298,56701,1,2,1:2:0:0:
215,298,56785,1,0,1:2:0:0:
215,298,56869,2,0,P|262:302|310:302,1,96,0|0,3:2|3:2,2:0:0:0:
214,131,57206,1,10,0:2:0:0:
149,225,57375,1,2,0:2:0:0:
302,165,57544,5,0,3:2:0:0:
146,64,57712,1,0,3:2:0:0:
149,225,57881,5,8,0:2:0:0:
251,45,58049,1,8,0:2:0:0:
358,86,58218,6,0,P|410:83|466:81,1,96,2|0,3:2|3:2,2:0:0:0:
302,165,58555,2,0,P|250:168|194:170,1,96,10|0,0:2|2:0,2:0:0:0:
387,317,58892,6,0,P|411:246|397:177,1,144,6|0,3:2|3:2,2:0:0:0:
386,170,59229,1,8,0:2:0:0:
318,246,59397,1,2,0:2:0:0:
251,45,59566,2,0,B|323:28|330:67|398:49,1,144,2|0,3:2|3:2,2:0:0:0:
406,32,59903,1,10,0:2:0:0:
269,133,60072,6,0,P|210:118|161:109,1,96,2|0,0:2|3:2,2:0:0:0:
35,39,60409,1,0,2:0:0:0:
35,39,60493,1,0,3:2:0:0:
35,39,60577,2,0,P|44:86|56:132,1,96,10|0,0:2|2:0,2:0:0:0:
107,283,60914,1,6,3:2:0:0:
128,292,60998,1,8,0:2:0:0:
152,291,61082,1,8,0:2:0:0:
173,279,61166,1,8,0:2:0:0:
187,260,61251,2,0,P|192:236|197:213,3,47.9999985351563,2|8|8|8,3:2|0:2|0:2|0:2,0:0:0:0:
247,319,61589,5,6,3:2:0:0:
83,208,61757,1,0,1:2:0:0:
269,169,61926,1,8,0:2:0:0:
185,376,62094,6,0,B|155:352|155:352|137:311|166:268|208:248,1,144,6|0,3:2|2:0,2:0:0:0:
201,249,62431,1,2,1:2:0:0:
141,80,62600,1,8,0:2:0:0:
5,172,62768,6,0,B|73:148|78:196|154:168,1,144,6|0,3:2|2:0,2:0:0:0:
170,157,63105,1,2,3:2:0:0:
113,0,63274,1,8,0:2:0:0:
83,208,63442,5,6,1:2:0:0:
249,118,63611,1,2,3:2:0:0:
178,68,63780,1,8,0:2:0:0:
169,81,63864,1,8,0:2:0:0:
163,96,63948,1,0,3:2:0:0:
160,111,64032,1,0,1:2:0:0:
160,127,64117,1,10,0:2:0:0:
163,143,64201,1,8,0:2:0:0:
170,157,64285,6,0,P|183:227|176:301,1,144,6|0,3:2|3:2,2:0:0:0:
166,320,64622,1,14,0:2:0:0:
76,377,64791,2,0,P|67:329|71:279,1,96,2|0,0:2|3:2,2:0:0:0:
260,262,65128,2,0,P|255:313|235:364,1,96,2|8,3:2|0:2,2:0:0:0:
251,166,65465,6,0,B|308:166|355:140|355:140|392:164|379:214,1,192,2|2,3:2|3:2,2:0:0:0:
247,81,65971,1,8,0:2:0:0:
394,233,66139,1,2,0:2:0:0:
394,233,66223,1,8,0:2:0:0:
394,233,66308,2,0,P|457:227|507:222,1,96,0|0,3:2|3:2,2:0:0:0:
359,122,66645,1,10,0:2:0:0:
321,301,66813,1,10,0:2:0:0:
461,84,66982,6,0,B|385:56|368:107|272:76,1,192,2|10,3:2|0:2,2:0:0:0:
183,131,67487,1,2,3:2:0:0:
199,18,67656,1,8,0:2:0:0:
272,158,67824,1,2,3:2:0:0:
144,244,67993,1,8,0:2:0:0:
93,160,68162,6,0,P|38:147|-18:137,1,96,6|0,3:2|2:0,2:0:0:0:
144,244,68499,2,0,P|96:253|50:264,1,96,6|8,3:2|0:2,2:0:0:0:
50,264,68836,1,6,3:2:0:0:
229,226,69004,1,0,3:2:0:0:
289,320,69170,1,8,0:2:0:0:
289,320,69254,1,8,0:2:0:0:
289,320,69337,2,0,P|283:355|276:381,3,48,0|8|0|0,3:2|2:0|3:2|1:2,2:0:0:0:
333,240,69670,6,0,P|375:258|387:303,1,96,10|0,3:2|2:0,2:0:0:0:
289,320,69920,2,0,P|283:273|316:241,1,96,10|0,3:2|2:0,2:0:0:0:
462,319,70170,2,0,P|447:356|434:376,1,48,10|0,3:2|2:0,2:0:0:0:
333,240,70337,1,10,3:2:0:0:
512,168,70674,1,4,1:2:0:0:
512,168,71011,6,0,P|516:112|460:79,1,96,10|0,3:2|2:0,2:0:0:0:
421,161,71263,2,0,P|467:192|524:160,1,96,10|0,3:2|2:0,2:0:0:0:
351,109,71516,2,0,P|335:145|330:169,1,48,10|0,3:2|2:0,2:0:0:0:
408,56,71685,1,2,3:2:0:0:
389,40,71769,1,0,1:2:0:0:
367,32,71853,1,0,1:2:0:0:
343,30,71937,1,8,0:2:0:0:
320,35,72022,1,10,0:2:0:0:
159,175,72190,6,0,B|212:152|251:187|251:187|271:240|329:238,1,192,6|0,3:2|3:2,2:0:0:0:
238,89,72696,1,8,0:2:0:0:
178,263,72864,1,0,2:0:0:0:
178,263,72949,1,8,0:2:0:0:
178,263,73033,2,0,P|129:270|64:280,1,96,0|2,3:2|3:2,2:0:0:0:
264,249,73370,1,14,0:2:0:0:
83,276,73539,1,0,3:2:0:0:
218,151,73707,5,2,3:2:0:0:
161,368,73877,1,8,0:2:0:0:
49,176,74047,1,8,0:2:0:0:
49,176,74388,5,2,1:2:0:0:
264,249,74559,1,2,0:2:0:0:
264,249,74644,1,8,0:2:0:0:
264,249,74729,1,10,0:2:0:0:
192,90,74900,6,0,B|143:81|143:81|108:122|136:197|197:215,1,191.430394140625,6|2,3:2|3:2,2:0:0:0:
172,203,75405,1,8,0:2:0:0:
316,368,75573,6,0,B|222:336|220:395|106:353,1,192,6|2,3:2|3:2,2:0:0:0:
127,361,76079,1,8,0:2:0:0:
256,191,76247,6,0,P|229:277|139:280,1,192,6|2,3:2|3:2,2:0:0:0:
256,191,76753,1,12,0:2:0:0:
349,263,76922,6,0,P|402:253|455:239,1,96,2|0,3:2|3:2,2:0:0:0:
404,62,77259,1,2,1:2:0:0:
404,62,77343,1,0,1:2:0:0:
404,62,77427,1,2,3:2:0:0:
298,89,77596,1,2,0:2:0:0:
480,150,77764,6,0,P|482:87|485:46,1,96,6|0,3:2|3:2,2:0:0:0:
325,10,78101,1,2,3:2:0:0:
388,202,78270,6,0,P|397:155|383:106,1,96,14|0,0:2|3:2,2:0:0:0:
211,41,78607,1,2,3:2:0:0:
261,242,78775,1,8,0:2:0:0:
312,60,78944,6,0,B|226:36|215:98|108:68,1,191.423994140625,6|0,3:2|1:2,2:0:0:0:
50,16,79443,1,0,3:2:0:0:
29,124,79610,1,0,3:2:0:0:
174,228,79776,1,2,3:2:0:0:
123,71,79943,1,8,0:2:0:0:
116,85,80026,1,8,0:2:0:0:
112,100,80110,1,2,3:2:0:0:
110,116,80193,1,8,3:2:0:0:
112,132,80276,1,10,0:2:0:0:
116,148,80360,1,8,0:2:0:0:
123,162,80444,5,6,3:2:0:0:
29,361,80781,1,2,0:2:0:0:
171,335,80949,6,0,B|129:328|89:294|89:294|34:301|29:364,1,192,6|10,3:2|0:2,2:0:0:0:
174,228,81455,1,8,0:2:0:0:
81,84,81623,6,0,B|40:55|-1:106|19:162|60:162|62:159|100:192|81:220,1,191.999994140625,6|0,3:2|3:2,2:0:0:0:
168,25,82133,2,0,P|170:77|174:118,1,80,12|8,0:2|0:2,2:0:0:0:
175,129,82389,1,8,0:2:0:0:
175,129,82474,1,2,3:2:0:0:
333,19,82645,1,0,1:2:0:0:
333,19,82730,1,2,0:2:0:0:
333,19,82815,1,12,0:2:0:0:
350,141,82986,1,2,0:2:0:0:
168,25,83157,5,6,3:2:0:0:
310,251,83494,1,10,0:2:0:0:
327,123,83662,6,0,B|288:111|288:111|262:149|270:211|318:260,1,192,6|10,3:2|0:2,2:0:0:0:
396,339,84168,1,8,0:2:0:0:
227,283,84336,2,0,B|137:261|132:308|32:282,1,192,6|0,3:2|3:2,2:0:0:0:
81,103,84842,2,0,P|88:167|85:209,1,96,12|0,0:2|3:2,2:0:0:0:
65,377,85179,1,2,3:2:0:0:
0,199,85348,1,10,0:2:0:0:
180,185,85516,2,0,P|154:243|130:278,1,96,10|0,0:2|3:2,2:0:0:0:
175,106,85853,6,0,B|245:88|253:133|332:104,1,144,6|0,3:2|2:0,2:0:0:0:
332,94,86190,1,10,0:2:0:0:
180,185,86359,2,0,P|108:168|92:93,1,144,6|0,3:2|2:0,2:0:0:0:
92,91,86696,1,2,3:2:0:0:
251,18,86864,1,8,0:2:0:0:
312,204,87033,6,0,P|295:250|291:371,1,144,6|0,3:2|2:0,2:0:0:0:
284,361,87370,1,2,1:2:0:0:
451,294,87539,2,0,P|411:285|372:276,1,80,2|0,3:2|3:2,2:0:0:0:
248,160,87876,6,0,B|201:86|287:33|362:62|362:154|352:150|390:203|464:186,1,320,10|6,0:2|3:2,2:0:0:0:
256,192,88634,12,0,89898,2:0:0:0:
