osu file format v14

[General]
AudioFilename: audio.mp3
AudioLeadIn: 0
PreviewTime: 71659
Countdown: 0
SampleSet: Soft
StackLeniency: 0.3
Mode: 0
LetterboxInBreaks: 0
WidescreenStoryboard: 0

[Editor]
Bookmarks: 118260,207249
DistanceSpacing: 0.4
BeatDivisor: 4
GridSize: 32
TimelineZoom: 2.1

[Metadata]
Title:Ashita no Kimi sae Ireba Ii.
TitleUnicode:明日の君さえいればいい。
Artist:ChouCho
ArtistUnicode:ChouCho
Creator:SayuCat_
Version:Kowayu's Domestic Angels
Source:妹さえいればいい。
Tags:ちょうちょ imoto sae ireba ii. imouto opening op カントク Kantoku 平坂読 Hirasaka Yomi pop jpop j-pop japanese anime imosae female vocal vocalist twil_furano koyorin koyorin-sama didah lit120 -hakurei- dahkjdas
BeatmapID:3847864
BeatmapSetID:1870200

[Difficulty]
HPDrainRate:5
CircleSize:4.5
OverallDifficulty:9
ApproachRate:9.3
SliderMultiplier:1.78
SliderTickRate:1

[Events]
//Background and Video events
0,0,"bg.jpg",0,0
//Break Periods
//Storyboard Layer 0 (Background)
//Storyboard Layer 1 (Fail)
//Storyboard Layer 2 (Pass)
//Storyboard Layer 3 (Foreground)
//Storyboard Layer 4 (Overlay)
//Storyboard Sound Samples

[TimingPoints]
958,674.157303370787,4,2,1,35,1,0
958,-133.333333333333,4,2,1,35,0,0
16969,-133.333333333333,4,2,1,5,0,0
17137,-133.333333333333,4,2,1,35,0,0
21182,337.078651685393,4,2,1,45,1,0
21182,-133.333333333333,4,2,1,45,0,0
24130,-133.333333333333,4,2,1,5,0,0
24215,-133.333333333333,4,2,1,45,0,0
28007,-133.333333333333,4,2,1,5,0,0
28092,-133.333333333333,4,2,1,45,0,0
29356,-133.333333333333,4,2,1,5,0,0
30620,-133.333333333333,4,2,1,45,0,0
31968,-95.2380952380952,4,2,1,85,0,0
32220,-95.2380952380952,4,2,1,5,0,0
32305,-95.2380952380952,4,2,1,85,0,0
33400,-95.2380952380952,4,2,1,5,0,0
33485,-95.2380952380952,4,2,1,85,0,0
34917,-95.2380952380952,4,2,1,5,0,0
35002,-95.2380952380952,4,2,1,85,0,0
36096,-95.2380952380952,4,2,1,5,0,0
36181,-95.2380952380952,4,2,1,85,0,0
36771,-95.2380952380952,4,2,1,5,0,0
36856,-95.2380952380952,4,2,1,85,0,0
37361,-111.111111111111,4,2,1,75,0,0
38962,-111.111111111111,4,2,1,5,0,0
39047,-111.111111111111,4,2,1,75,0,0
42670,-111.111111111111,4,2,1,5,0,0
42755,-111.111111111111,4,2,1,75,0,0
43007,-111.111111111111,4,2,1,5,0,0
43092,-111.111111111111,4,2,1,75,0,0
44355,-111.111111111111,4,2,1,5,0,0
44440,-111.111111111111,4,2,1,75,0,0
44692,-111.111111111111,4,2,1,5,0,0
44777,-111.111111111111,4,2,1,75,0,0
45366,-111.111111111111,4,2,1,5,0,0
45451,-111.111111111111,4,2,1,75,0,0
45703,-111.111111111111,4,2,1,5,0,0
45788,-111.111111111111,4,2,1,75,0,0
48063,-111.111111111111,4,2,1,5,0,0
48148,-111.111111111111,4,2,1,65,0,0
48232,-111.111111111111,4,2,1,5,0,0
49328,-111.111111111111,4,2,1,75,0,0
50085,-111.111111111111,4,2,1,5,0,0
50170,-111.111111111111,4,2,1,75,0,0
50254,-111.111111111111,4,2,1,5,0,0
50423,-111.111111111111,4,2,1,75,0,0
50507,-111.111111111111,4,2,1,5,0,0
50676,-111.111111111111,4,2,1,75,0,0
50760,-111.111111111111,4,2,1,5,0,0
50844,-111.111111111111,4,2,1,75,0,0
51096,-111.111111111111,4,2,1,5,0,0
51181,-111.111111111111,4,2,1,75,0,0
52951,-111.111111111111,4,2,1,5,0,0
53035,-111.111111111111,4,2,1,75,0,0
54130,-111.111111111111,4,2,1,5,0,0
54215,-111.111111111111,4,2,1,75,0,0
54804,-111.111111111111,4,2,1,5,0,0
54889,-111.111111111111,4,2,1,75,0,0
56490,-111.111111111111,4,2,1,5,0,0
56575,-111.111111111111,4,2,1,75,0,0
58175,-111.111111111111,4,2,1,5,0,0
58260,-111.111111111111,4,2,1,75,0,0
59018,-111.111111111111,4,2,1,5,0,0
59440,-111.111111111111,4,2,1,75,0,0
59524,-111.111111111111,4,2,1,5,0,0
59777,-111.111111111111,4,2,1,75,0,0
60030,-111.111111111111,4,2,1,5,0,0
60114,-111.111111111111,4,2,1,75,0,0
60535,-111.111111111111,4,2,1,5,0,0
60620,-111.111111111111,4,2,1,75,0,0
61125,-111.111111111111,4,2,1,5,0,0
61294,-111.111111111111,4,2,1,75,0,0
61546,-111.111111111111,4,2,1,5,0,0
61631,-111.111111111111,4,2,1,75,0,0
63569,-111.111111111111,4,2,1,5,0,0
63653,-111.111111111111,4,2,1,75,0,0
64242,-111.111111111111,4,2,1,5,0,0
64328,-105.263157894737,4,2,1,75,0,0
64496,-105.263157894737,4,2,1,5,0,0
64580,-105.263157894737,4,2,1,75,0,0
64748,-105.263157894737,4,2,1,5,0,0
64833,-105.263157894737,4,2,1,75,0,0
65170,-105.263157894737,4,2,1,5,0,0
65254,-105.263157894737,4,2,1,75,0,0
65422,-105.263157894737,4,2,1,5,0,0
65507,-105.263157894737,4,2,1,75,0,0
65928,-105.263157894737,4,2,1,5,0,0
66013,-105.263157894737,4,2,1,75,0,0
67024,-100,4,2,1,75,0,0
67276,-100,4,2,1,5,0,0
67361,-100,4,2,1,75,0,0
70142,-100,4,2,1,5,0,0
70226,-100,4,2,1,75,0,0
70648,-100,4,2,1,5,0,0
70732,-100,4,2,1,75,0,0
70901,-86.9565217391304,4,2,1,75,0,0
71153,-86.9565217391304,4,2,1,5,0,0
71238,-86.9565217391304,4,2,1,75,0,0
71322,-86.9565217391304,4,2,1,5,0,0
71406,-86.9565217391304,4,2,1,75,0,0
71490,-86.9565217391304,4,2,1,5,0,0
71743,-86.9565217391304,4,2,1,75,0,0
72417,-86.9565217391304,4,2,1,85,0,1
72669,-86.9565217391304,4,2,1,5,0,1
72755,-86.9565217391304,4,2,1,85,0,1
73849,-86.9565217391304,4,2,1,5,0,1
73934,-86.9565217391304,4,2,1,85,0,1
75366,-86.9565217391304,4,2,1,5,0,1
75451,-86.9565217391304,4,2,1,85,0,1
76714,-86.9565217391304,4,2,1,5,0,1
76799,-86.9565217391304,4,2,1,85,0,1
80591,-86.9565217391304,4,2,1,5,0,1
80676,-86.9565217391304,4,2,1,85,0,1
80760,-86.9565217391304,4,2,1,5,0,1
80844,-86.9565217391304,4,2,1,85,0,1
81265,-86.9565217391304,4,2,1,5,0,1
81350,-86.9565217391304,4,2,1,85,0,1
81939,-86.9565217391304,4,2,1,5,0,1
82024,-86.9565217391304,4,2,1,85,0,1
84636,-86.9565217391304,4,2,1,5,0,1
84721,-86.9565217391304,4,2,1,85,0,1
86153,-86.9565217391304,4,2,1,5,0,1
86238,-86.9565217391304,4,2,1,85,0,1
87164,-86.9565217391304,4,2,1,5,0,1
87417,-86.9565217391304,4,2,1,85,0,1
87501,-86.9565217391304,4,2,1,5,0,1
87586,-86.9565217391304,4,2,1,85,0,1
88007,-86.9565217391304,4,2,1,5,0,1
88092,-86.9565217391304,4,2,1,85,0,1
88765,-86.9565217391304,4,2,1,5,0,1
88850,-86.9565217391304,4,2,1,85,0,1
89018,-86.9565217391304,4,2,1,5,0,1
89103,-86.9565217391304,4,2,1,85,0,1
89187,-86.9565217391304,4,2,1,5,0,1
89271,-86.9565217391304,4,2,1,85,0,1
89608,-260.416666666667,4,2,1,85,0,1
89860,-260.416666666667,4,2,1,5,0,1
89946,-86.9565217391304,4,2,1,85,0,1
90114,-86.9565217391304,4,2,1,5,0,1
90199,-86.9565217391304,4,2,1,85,0,1
90367,-86.9565217391304,4,2,1,5,0,1
90452,-86.9565217391304,4,2,1,85,0,1
90536,-86.9565217391304,4,2,1,5,0,1
90620,-86.9565217391304,4,2,1,85,0,1
91041,-86.9565217391304,4,2,1,5,0,1
91125,-86.9565217391304,4,2,1,85,0,1
91377,-86.9565217391304,4,2,1,5,0,1
91462,-86.9565217391304,4,2,1,85,0,1
92557,-86.9565217391304,4,2,1,5,0,1
92642,-86.9565217391304,4,2,1,85,0,1
92726,-86.9565217391304,4,2,1,5,0,1
92811,-86.9565217391304,4,2,1,85,0,1
92895,-86.9565217391304,4,2,1,5,0,1
92979,-86.9565217391304,4,2,1,85,0,1
93063,-86.9565217391304,4,2,1,5,0,1
93316,-86.9565217391304,4,2,1,85,0,1
94074,-86.9565217391304,4,2,1,5,0,1
94159,-86.9565217391304,4,2,1,85,0,1
94496,-80,4,2,1,85,0,1
94748,-80,4,2,1,5,0,1
94833,-80,4,2,1,85,0,1
95170,-74.0740740740741,4,2,1,85,0,1
95422,-74.0740740740741,4,2,1,5,0,1
95507,-74.0740740740741,4,2,1,85,0,1
95760,-74.0740740740741,4,2,1,5,0,1
95844,-86.9565217391304,4,2,1,85,0,1
96687,-68.9655172413793,4,2,1,85,0,1
96939,-68.9655172413793,4,2,1,5,0,1
97024,-86.9565217391304,4,2,1,85,0,1
97446,-86.9565217391304,4,2,1,5,0,1
97530,-86.9565217391304,4,2,1,85,0,1
97867,-68.9655172413793,4,2,1,85,0,1
98119,-68.9655172413793,4,2,1,5,0,1
98204,-68.9655172413793,4,2,1,85,0,1
99384,-86.9565217391304,4,2,1,85,0,1
99468,-86.9565217391304,4,2,1,5,0,1
99889,-86.9565217391304,4,2,1,85,0,1
100141,-86.9565217391304,4,2,1,5,0,1
100226,-86.9565217391304,4,2,1,85,0,1
100816,-86.9565217391304,4,2,1,5,0,1
100901,-86.9565217391304,4,2,1,85,0,1
102164,-86.9565217391304,4,2,1,5,0,1
102417,-86.9565217391304,4,2,1,85,0,1
102838,-86.9565217391304,4,2,1,5,0,1
102923,-86.9565217391304,4,2,1,85,0,1
105029,-86.9565217391304,4,2,1,5,0,1
105114,-86.9565217391304,4,2,1,85,0,1
106799,-250,4,2,1,85,0,1
107389,-250,4,2,1,5,0,1
107474,-95.2380952380952,4,2,1,85,0,0
107726,-95.2380952380952,4,2,1,5,0,0
107811,-95.2380952380952,4,2,1,85,0,0
113119,-95.2380952380952,4,2,1,5,0,0
113204,-95.2380952380952,4,2,1,85,0,0
114299,-95.2380952380952,4,2,1,5,0,0
114384,-95.2380952380952,4,2,1,85,0,0
118260,-95.2380952380952,4,2,1,55,0,0
122220,-95.2380952380952,4,2,1,5,0,0
122305,-95.2380952380952,4,2,1,55,0,0
122474,-95.2380952380952,4,2,1,65,0,0
123568,-95.2380952380952,4,2,1,5,0,0
123653,-95.2380952380952,4,2,1,65,0,0
124833,-95.2380952380952,4,2,1,5,0,0
125002,-95.2380952380952,4,2,1,65,0,0
126350,-125,4,2,1,75,0,0
129299,-125,4,2,1,5,0,0
129384,-111.111111111111,4,2,1,75,0,0
131658,-111.111111111111,4,2,1,5,0,0
131743,-111.111111111111,4,2,1,75,0,0
134608,-111.111111111111,4,2,1,5,0,0
134693,-111.111111111111,4,2,1,75,0,0
134861,-111.111111111111,4,2,1,5,0,0
134946,-111.111111111111,4,2,1,75,0,0
135282,-111.111111111111,4,2,1,5,0,0
135367,-111.111111111111,4,2,1,75,0,0
135535,-111.111111111111,4,2,1,5,0,0
135620,-111.111111111111,4,2,1,75,0,0
135704,-111.111111111111,4,2,1,5,0,0
135788,-111.111111111111,4,2,1,75,0,0
139243,-111.111111111111,4,2,1,5,0,0
139328,-111.111111111111,4,2,1,75,0,0
140002,-99.9999999999999,4,2,1,75,0,0
142530,-99.9999999999999,4,2,1,85,0,1
142782,-99.9999999999999,4,2,1,5,0,1
142867,-99.9999999999999,4,2,1,85,0,1
143962,-99.9999999999999,4,2,1,5,0,1
144047,-99.9999999999999,4,2,1,85,0,1
149439,-99.9999999999999,4,2,1,5,0,1
149524,-99.9999999999999,4,2,1,85,0,1
150367,-99.9999999999999,4,2,1,5,0,1
150451,-99.9999999999999,4,2,1,85,0,1
154748,-99.9999999999999,4,2,1,5,0,1
154833,-99.9999999999999,4,2,1,85,0,1
158119,-99.9999999999999,4,2,1,5,0,1
158204,-99.9999999999999,4,2,1,85,0,1
158878,-99.9999999999999,4,2,1,5,0,1
158962,-99.9999999999999,4,2,1,85,0,1
159130,-99.9999999999999,4,2,1,5,0,1
159215,-99.9999999999999,4,2,1,85,0,1
159299,-99.9999999999999,4,2,1,5,0,1
159384,-99.9999999999999,4,2,1,85,0,1
160226,-99.9999999999999,4,2,1,5,0,1
160311,-99.9999999999999,4,2,1,85,0,1
160479,-99.9999999999999,4,2,1,5,0,1
160564,-99.9999999999999,4,2,1,85,0,1
160648,-99.9999999999999,4,2,1,5,0,1
160732,-99.9999999999999,4,2,1,85,0,1
163934,-99.9999999999999,4,2,1,85,0,0
169580,-99.9999999999999,4,2,1,5,0,0
169665,-99.9999999999999,4,2,1,85,0,0
175394,-99.9999999999999,4,2,1,5,0,0
175479,-99.9999999999999,4,2,1,85,0,0
185928,-99.9999999999999,4,2,1,5,0,0
186013,-99.9999999999999,4,2,1,85,0,0
204804,-99.9999999999999,4,2,1,5,0,0
204889,-99.9999999999999,4,2,1,85,0,0
207249,-99.9999999999999,4,2,1,55,0,0
211294,-133.333333333333,4,2,1,55,0,0
215002,-266.666666666667,4,2,1,55,0,0
215254,-266.666666666667,4,2,1,5,0,0
215339,-117.647058823529,4,2,1,65,0,0
216687,-111.111111111111,4,2,1,65,0,0
218035,-105.263157894737,4,2,1,65,0,0
219384,-100,4,2,1,65,0,0
220647,-100,4,2,1,5,0,0
220732,-100,4,2,1,75,0,0
223766,-95.2380952380952,4,2,1,75,0,0
224945,-95.2380952380952,4,2,1,5,0,0
225030,-95.2380952380952,4,2,1,75,0,0
225198,-95.2380952380952,4,2,1,5,0,0
225283,-95.2380952380952,4,2,1,75,0,0
225451,-86.9565217391304,4,2,1,75,0,0
225619,-86.9565217391304,4,2,1,5,0,0
225704,-86.9565217391304,4,2,1,75,0,0
225872,-86.9565217391304,4,2,1,5,0,0
225957,-86.9565217391304,4,2,1,75,0,0
226041,-86.9565217391304,4,2,1,5,0,0
227474,-86.9565217391304,4,2,1,75,0,0
228063,-86.9565217391304,4,2,1,5,0,0
228148,-86.9565217391304,4,2,1,75,0,0
228737,-86.9565217391304,4,2,1,5,0,0
228990,-86.9565217391304,4,2,1,75,0,0
229074,-86.9565217391304,4,2,1,5,0,0
229328,-86.9565217391304,4,2,1,75,0,0
229412,-86.9565217391304,4,2,1,5,0,0
229496,-86.9565217391304,4,2,1,75,0,0
230085,-86.9565217391304,4,2,1,5,0,0
230170,-133.333333333333,4,2,1,75,0,0
232867,-86.9565217391303,4,2,1,85,0,1
233119,-86.9565217391303,4,2,1,5,0,1
233204,-86.9565217391303,4,2,1,85,0,1
234467,-86.9565217391303,4,2,1,5,0,1
234552,-86.9565217391303,4,2,1,85,0,1
235479,-86.9565217391303,4,2,1,5,0,1
235564,-86.9565217391303,4,2,1,85,0,1
235648,-86.9565217391303,4,2,1,5,0,1
235732,-86.9565217391303,4,2,1,85,0,1
236321,-86.9565217391303,4,2,1,5,0,1
236406,-86.9565217391303,4,2,1,85,0,1
236995,-86.9565217391303,4,2,1,5,0,1
237080,-86.9565217391303,4,2,1,85,0,1
238512,-86.9565217391303,4,2,1,5,0,1
238597,-86.9565217391303,4,2,1,85,0,1
239692,-86.9565217391303,4,2,1,5,0,1
239777,-86.9565217391303,4,2,1,85,0,1
240873,-86.9565217391303,4,2,1,5,0,1
240957,-86.9565217391303,4,2,1,85,0,1
242221,-86.9565217391303,4,2,1,5,0,1
242474,-86.9565217391303,4,2,1,85,0,1
242558,-86.9565217391303,4,2,1,5,0,1
242811,-86.9565217391303,4,2,1,85,0,1
243063,-86.9565217391303,4,2,1,5,0,1
243148,-86.9565217391303,4,2,1,85,0,1
243821,-86.9565217391303,4,2,1,5,0,1
243906,-86.9565217391303,4,2,1,85,0,1
244074,-86.9565217391303,4,2,1,5,0,1
244159,-86.9565217391303,4,2,1,85,0,1
244243,-86.9565217391303,4,2,1,5,0,1
244328,-86.9565217391303,4,2,1,85,0,1
244665,-261.780104712042,4,2,1,85,0,1
244918,-261.780104712042,4,2,1,5,0,1
245002,-86.9565217391304,4,2,1,85,0,1
245170,-86.9565217391304,4,2,1,5,0,1
245255,-86.9565217391304,4,2,1,85,0,1
245423,-86.9565217391304,4,2,1,5,0,1
245508,-86.9565217391304,4,2,1,85,0,1
245592,-86.9565217391304,4,2,1,5,0,1
245677,-86.9565217391304,4,2,1,85,0,1
246098,-86.9565217391304,4,2,1,5,0,1
246181,-86.9565217391304,4,2,1,85,0,1
246433,-86.9565217391304,4,2,1,5,0,1
246519,-86.9565217391304,4,2,1,85,0,1
247613,-86.9565217391304,4,2,1,5,0,1
247698,-86.9565217391304,4,2,1,85,0,1
247782,-86.9565217391304,4,2,1,5,0,1
247867,-86.9565217391304,4,2,1,85,0,1
247951,-86.9565217391304,4,2,1,5,0,1
248035,-86.9565217391304,4,2,1,85,0,1
248119,-86.9565217391304,4,2,1,5,0,1
248204,-86.9565217391304,4,2,1,85,0,1
249299,-86.9565217391304,4,2,1,5,0,1
249384,-86.9565217391304,4,2,1,85,0,1
250478,-86.9565217391304,4,2,1,5,0,1
250564,-86.9565217391304,4,2,1,85,0,1
251321,-86.9565217391304,4,2,1,5,0,1
251406,-86.9565217391304,4,2,1,85,0,1
251995,-86.9565217391304,4,2,1,5,0,1
252080,-86.9565217391304,4,2,1,85,0,1
253344,-86.9565217391304,4,2,1,5,0,1
253429,-86.9565217391304,4,2,1,85,0,1
254440,-261.780104712042,4,2,1,85,0,1
254777,-86.9565217391304,4,2,1,85,0,1
255029,-86.9565217391304,4,2,1,5,0,1
255114,-86.9565217391304,4,2,1,85,0,1
255704,-86.9565217391304,4,2,1,5,0,1
255788,-86.9565217391304,4,2,1,85,0,1
256377,-86.9565217391304,4,2,1,5,0,1
256462,-86.9565217391304,4,2,1,85,0,1
257894,-86.9565217391304,4,2,1,5,0,1
257979,-86.9565217391304,4,2,1,85,0,1
258568,-86.9565217391304,4,2,1,5,0,1
258653,-86.9565217391304,4,2,1,85,0,1
261265,-86.9565217391304,4,2,1,5,0,1
261350,-86.9565217391304,4,2,1,85,0,1
262782,-86.9565217391304,4,2,1,5,0,1
262867,-86.9565217391304,4,2,1,85,0,1
263794,-86.9565217391304,4,2,1,5,0,1
264047,-86.9565217391304,4,2,1,85,0,1
264131,-86.9565217391304,4,2,1,5,0,1
264215,-86.9565217391304,4,2,1,85,0,1
264636,-86.9565217391304,4,2,1,5,0,1
264721,-86.9565217391304,4,2,1,85,0,1
265394,-86.9565217391304,4,2,1,5,0,1
265479,-86.9565217391304,4,2,1,85,0,1
265647,-86.9565217391304,4,2,1,5,0,1
265732,-86.9565217391304,4,2,1,85,0,1
265816,-86.9565217391304,4,2,1,5,0,1
265901,-86.9565217391304,4,2,1,85,0,1
266238,-261.780104712042,4,2,1,85,0,1
266491,-261.780104712042,4,2,1,5,0,1
266575,-86.9565217391304,4,2,1,85,0,1
266743,-86.9565217391304,4,2,1,5,0,1
266828,-86.9565217391304,4,2,1,85,0,1
266996,-86.9565217391304,4,2,1,5,0,1
267081,-86.9565217391304,4,2,1,85,0,1
267165,-86.9565217391304,4,2,1,5,0,1
267250,-86.9565217391304,4,2,1,85,0,1
267670,-86.9565217391304,4,2,1,5,0,1
267755,-86.9565217391304,4,2,1,85,0,1
268007,-86.9565217391304,4,2,1,5,0,1
268092,-86.9565217391304,4,2,1,85,0,1
269186,-86.9565217391304,4,2,1,5,0,1
269271,-86.9565217391304,4,2,1,85,0,1
269355,-86.9565217391304,4,2,1,5,0,1
269440,-86.9565217391304,4,2,1,85,0,1
269524,-86.9565217391304,4,2,1,5,0,1
269608,-86.9565217391304,4,2,1,85,0,0
269692,-86.9565217391304,4,2,1,5,0,0
270451,-86.9565217391304,4,2,1,85,0,1
270703,-86.9565217391304,4,2,1,5,0,1
270788,-86.9565217391304,4,2,1,85,0,1
271125,-80,4,2,1,85,0,1
271377,-80,4,2,1,5,0,1
271462,-80,4,2,1,85,0,1
271799,-74.0740740740741,4,2,1,85,0,1
272051,-74.0740740740741,4,2,1,5,0,1
272136,-74.0740740740741,4,2,1,85,0,1
272474,-86.9565217391304,4,2,1,85,0,1
272558,-86.9565217391304,4,2,1,5,0,1
272642,-86.9565217391304,4,2,1,85,0,1
273231,-86.9565217391304,4,2,1,5,0,1
273316,-68.9655172413793,4,2,1,85,0,1
273568,-68.9655172413793,4,2,1,5,0,1
273653,-68.9655172413793,4,2,1,85,0,1
274074,-68.9655172413793,4,2,1,5,0,1
274159,-68.9655172413793,4,2,1,85,0,1
274748,-68.9655172413793,4,2,1,5,0,1
274833,-68.9655172413793,4,2,1,85,0,1
275760,-68.9655172413793,4,2,1,5,0,1
276013,-86.9565217391304,4,2,1,85,0,1
276097,-86.9565217391304,4,2,1,5,0,1
276519,-86.9565217391304,4,2,1,85,0,1
276771,-86.9565217391304,4,2,1,5,0,1
276856,-86.9565217391304,4,2,1,85,0,1
277445,-86.9565217391304,4,2,1,5,0,1
277530,-86.9565217391304,4,2,1,85,0,1
278794,-86.9565217391304,4,2,1,5,0,1
279215,-86.9565217391304,4,2,1,85,0,1
279467,-86.9565217391304,4,2,1,5,0,1
279552,-86.9565217391304,4,2,1,85,0,1
281658,-86.9565217391304,4,2,1,5,0,1
281743,-86.9565217391304,4,2,1,85,0,1
283429,-250,4,2,1,85,0,1
284103,-250,4,2,1,85,0,0
286125,-95.2380952380952,4,2,1,85,0,0
287051,-95.2380952380952,4,2,1,5,0,0
287137,-95.2380952380952,4,2,1,85,0,0
289748,-95.2380952380952,4,2,1,5,0,0
289833,-95.2380952380952,4,2,1,85,0,0
292445,-95.2380952380952,4,2,1,5,0,0
292530,-95.2380952380952,4,2,1,85,0,0
294889,-86.9565217391304,4,2,1,85,0,0
295141,-86.9565217391304,4,2,1,5,0,0
295226,-86.9565217391304,4,2,1,85,0,0
296321,-86.9565217391304,4,2,1,5,0,0
296406,-86.9565217391304,4,2,1,85,0,0

[Colours]
Combo1 : 177,162,116
Combo2 : 155,215,225
Combo3 : 207,227,239

[HitObjects]
20,208,958,6,0,B|84:196|84:196|118:217,1,100.125003819466,2|2,0:0|0:0,0:0:0:0:
92,111,1969,2,0,L|1:126,1,66.7500025463105,2|0,0:0|0:0,0:0:0:0:
13,125,2474,1,2,0:0:0:0:
69,283,2980,2,0,L|120:273,1,33.3750012731553,2|2,0:0|0:0,0:0:0:0:
179,311,3317,2,0,L|230:301,1,33.3750012731553,2|2,0:0|0:0,0:0:0:0:
325,383,3654,6,0,B|315:327|315:327|300:309|300:309|286:217,1,166.875006365776,2|0,0:0|0:0,0:0:0:0:
338,84,5002,2,0,P|390:77|453:133,1,133.500005092621,2|2,0:0|0:0,0:0:0:0:
419,203,6014,1,2,0:0:0:0:
285,155,6351,6,0,L|183:172,1,100.125003819466,2|2,0:0|0:0,0:0:0:0:
179,87,7362,2,0,L|250:74,1,66.7500025463105,2|0,0:0|0:0,0:0:0:0:
257,72,7868,1,2,0:0:0:0:
266,244,8373,2,0,L|225:251,1,33.3750012731553,2|2,0:0|0:0,0:0:0:0:
160,290,8710,2,0,L|119:298,1,33.3750012731553,2|2,0:0|0:0,0:0:0:0:
68,379,9047,6,0,B|51:359|30:353|30:353|53:232,1,166.875006365776,2|0,0:0|0:0,0:0:0:0:
17,82,10396,2,0,P|77:91|136:38,1,133.500005092621,2|2,0:0|0:0,0:0:0:0:
59,11,11407,1,0,0:0:0:0:
223,15,11744,6,0,L|201:135,1,100.125003819466,2|2,0:0|0:0,0:0:0:0:
372,145,12755,2,0,L|278:66,1,100.125003819466,2|2,0:0|0:0,0:0:0:0:
269,170,13766,1,2,0:0:0:0:
63,376,14441,6,0,B|65:314|53:281|-27:308|-15:243|3:203|45:184|69:192|83:212|90:227|90:227|94:235|103:237|111:232|111:232|124:222|146:209|173:215|205:258|197:301|165:353|111:316|85:330|88:350,1,500.625019097329,2|0,0:0|0:0,0:0:0:0:
256,192,17137,12,0,19665,0:0:0:0:
232,157,21182,6,0,B|199:136|199:136|106:153,1,133.500005092621,2|2,0:0|0:0,0:0:0:0:
184,224,21687,2,0,L|114:236,1,66.7500025463105,2|0,0:0|0:0,0:0:0:0:
40,164,22025,1,2,0:0:0:0:
40,164,22193,2,0,L|109:151,1,66.7500025463105,0|2,0:0|0:0,0:0:0:0:
100,32,22530,6,0,P|147:77|212:74,1,133.500005092621,2|0,0:0|0:0,0:0:0:0:
411,105,23204,2,0,P|417:55|424:6,2,100.125003819466,2|2|2,0:0|0:0|0:0,0:0:0:0:
479,162,23878,6,0,P|422:143|372:168,1,100.125003819466,2|0,0:0|0:0,0:0:0:0:
376,164,24215,1,2,0:0:0:0:
440,292,24384,2,0,P|437:259|431:227,1,66.7500025463105,2|0,0:0|0:0,0:0:0:0:
357,312,24721,2,0,P|350:280|348:247,1,66.7500025463105,2|0,0:0|0:0,0:0:0:0:
285,357,25058,1,2,0:0:0:0:
285,357,25226,6,0,B|197:345|242:392|143:382,1,133.500005092621,2|0,0:0|0:0,0:0:0:0:
69,222,25901,2,0,P|33:213|0:210,2,66.7500025463105,2|2|2,0:0|0:0|0:0,0:0:0:0:
127,41,26575,6,0,B|176:47|211:17|211:17|231:38|263:55,1,133.500005092621,2|2,0:0|0:0,0:0:0:0:
161,120,27080,2,0,P|132:127|89:118,1,66.7500025463105,2|0,0:0|0:0,0:0:0:0:
245,125,27417,2,0,P|266:150|276:181,1,66.7500025463105,2|0,0:0|0:0,0:0:0:0:
244,44,27755,2,0,P|292:4|353:8,1,100.125003819466,2|0,0:0|0:0,0:0:0:0:
341,2,28092,1,2,0:0:0:0:
320,80,28260,1,2,0:0:0:0:
398,250,28597,2,0,P|448:256|497:263,2,100.125003819466,2|2|2,0:0|0:0|0:0,0:0:0:0:
341,158,29271,6,0,L|338:193,1,33.3750012731553,2|0,0:0|0:0,0:0:0:0:
130,20,30620,5,2,0:3:0:0:
130,20,30957,1,2,0:3:0:0:
62,87,31294,5,8,0:3:0:0:
64,97,31379,1,8,0:3:0:0:
66,111,31463,1,8,0:0:0:0:
68,128,31547,1,8,0:0:0:0:
71,148,31631,1,8,0:0:0:0:
75,172,31716,1,8,0:3:0:0:
80,199,31800,1,4,0:3:0:0:
85,229,31884,1,4,0:3:0:0:
90,261,31968,6,0,B|131:259|156:293|128:291|162:324|205:329,1,140.174995722199,4|0,3:2|0:0,0:0:0:0:
288,207,32305,2,0,P|243:216|212:250,1,93.4499971481324,12|0,0:0|0:0,0:0:0:0:
325,384,32642,1,0,3:2:0:0:
452,258,32811,2,0,P|393:249|344:242,1,93.4499971481324,2|0,3:2|0:0,3:2:0:0:
176,124,33148,6,0,B|165:76|165:41|165:41|185:0|226:-8,1,140.174995722199,10|0,0:0|0:0,0:0:0:0:
359,68,33485,1,0,3:2:0:0:
349,77,33569,1,0,3:2:0:0:
336,83,33653,2,0,P|284:71|232:63,1,93.4499971481324,8|0,0:0|0:0,0:0:0:0:
134,215,33990,1,10,0:0:0:0:
52,36,34159,1,2,3:2:0:0:
244,65,34328,1,10,0:0:0:0:
40,184,34496,1,2,0:0:0:0:
37,197,34580,1,2,0:0:0:0:
35,211,34665,6,0,B|15:311|15:311|33:316|48:333,1,140.174995722199,6|0,3:2|0:0,0:0:0:0:
119,362,35002,2,0,P|124:317|104:276,1,93.4499971481324,8|0,0:0|0:0,0:0:0:0:
271,211,35339,1,2,3:2:0:0:
241,224,35423,1,0,0:0:0:0:
220,249,35507,1,2,3:2:0:0:
210,280,35591,1,2,0:0:0:0:
212,312,35676,2,0,L|276:300,1,46.7249985740662,2|2,0:0|0:0,0:0:0:0:
489,376,35844,6,0,B|514:331|487:289|487:289|488:265|505:236,1,140.174995722199,12|0,0:0|0:0,0:0:0:0:
505,230,36181,1,0,3:2:0:0:
399,372,36350,1,8,0:0:0:0:
383,166,36519,1,8,0:0:0:0:
385,180,36603,1,8,0:0:0:0:
388,194,36687,6,0,P|392:223|399:251,1,46.7249985740662,6|0,3:2|0:0,0:0:0:0:
509,70,36856,1,8,0:0:0:0:
496,39,36940,1,8,0:0:0:0:
475,19,37024,1,8,0:3:0:0:
454,7,37108,1,8,0:3:0:0:
435,2,37193,1,4,0:3:0:0:
421,2,37277,1,4,0:3:0:0:
412,4,37361,6,0,B|387:43|336:58|336:58|264:41,1,160.199995111084,6|8,3:2|0:0,0:0:0:0:
340,151,37867,1,2,0:0:0:0:
272,43,38035,1,2,3:2:0:0:
233,169,38204,1,2,3:2:0:0:
233,169,38373,2,0,L|250:262,1,80.0999975555421,8|2,0:0|0:0,0:0:0:0:
118,368,38710,6,0,P|59:374|13:338,1,120.149996333313,0|0,3:2|0:0,0:0:0:0:
80,297,39047,2,0,P|132:285|184:277,1,80.0999975555421,10|8,0:0|0:0,0:0:0:0:
177,276,39299,1,8,0:0:0:0:
201,278,39384,1,10,0:0:0:0:
224,284,39468,1,8,0:0:0:0:
245,294,39552,1,0,3:2:0:0:
161,189,39721,2,0,P|200:181|239:172,1,80.0999975555421,10|0,0:0|0:0,0:0:0:0:
358,41,40058,6,0,P|389:93|489:88,1,160.199995111084,2|10,3:2|0:0,0:0:0:0:
457,278,40564,1,10,0:0:0:0:
445,279,40648,1,8,0:0:0:0:
434,280,40732,2,0,P|395:288|356:297,1,80.0999975555421,0|2,3:2|3:2,0:0:0:0:
423,176,41069,2,0,P|462:184|501:193,1,80.0999975555421,10|0,0:0|0:0,0:0:0:0:
313,116,41406,6,0,B|260:106|260:106|210:116|178:178,1,160.199995111084,2|10,3:2|0:0,0:0:0:0:
115,31,41912,1,10,0:0:0:0:
126,35,41996,1,8,0:0:0:0:
137,38,42080,2,0,P|184:42|222:21,1,80.0999975555421,2|2,3:2|3:2,0:0:0:0:
27,14,42417,1,10,0:0:0:0:
112,162,42586,2,0,L|104:121,1,40.049998777771,2|0,0:0|0:0,0:0:0:0:
6,354,42755,6,0,P|55:312|111:320,1,120.149996333313,6|0,3:2|0:0,0:0:0:0:
176,371,43092,2,0,P|184:332|193:293,1,80.0999975555421,8|2,0:0|0:0,0:0:0:0:
312,383,43429,1,2,3:2:0:0:
312,383,43597,1,0,3:2:0:0:
267,220,43766,2,0,P|275:259|284:298,1,80.0999975555421,8|0,0:0|0:0,0:0:0:0:
502,259,44103,6,0,B|472:252|455:224|455:224|431:249|398:246,1,120.149996333313,2|0,3:2|0:0,0:0:0:0:
415,305,44440,2,0,P|426:238|437:174,1,120.149996333313,12|0,0:0|0:0,0:0:0:0:
439,175,44777,1,2,3:2:0:0:
369,126,44946,1,8,0:0:0:0:
436,35,45114,2,0,B|397:51|375:93|375:93|369:127,1,120.149996333313,10|0,0:0|0:0,0:0:0:0:
322,191,45451,6,0,B|276:185|257:203|257:203|244:176|217:160,1,120.149996333313,6|0,3:2|0:0,0:0:0:0:
216,154,45788,1,10,0:0:0:0:
136,332,45957,1,2,3:2:0:0:
136,332,46041,1,0,3:2:0:0:
136,332,46125,1,8,0:0:0:0:
219,294,46294,1,2,3:2:0:0:
250,379,46462,1,8,0:0:0:0:
59,265,46631,6,0,B|38:141|38:141|55:168|78:179,1,160.199995111084,6|0,3:2|3:2,0:0:0:0:
221,184,47137,2,0,P|181:193|142:201,1,80.0999975555421,10|8,0:0|0:3,0:0:0:0:
134,208,47389,1,8,0:3:0:0:
134,208,47474,1,8,0:3:0:0:
159,106,47642,1,0,3:2:0:0:
363,249,47811,2,0,P|316:212|317:140,1,120.149996333313,14|0,0:0|0:0,0:0:0:0:
422,172,48148,6,0,P|402:174|383:177,1,40.049998777771,6|0,3:2|0:0,0:0:0:0:
100,10,49328,6,0,B|64:46|64:46|175:26,1,160.199995111084,6|0,3:2|3:2,0:0:0:0:
300,70,49833,2,0,B|320:105|320:105|305:183,1,120.149996333313,10|0,0:2|0:0,0:0:0:0:
238,118,50170,6,0,L|229:161,1,40.049998777771,10|0,0:2|0:0,0:0:0:0:
16,196,50423,6,0,L|23:235,1,40.049998777771,10|0,0:2|0:0,0:0:0:0:
167,79,50676,6,0,L|159:118,1,40.049998777771,10|0,0:2|0:0,0:0:0:0:
98,263,50844,6,0,B|88:307|67:344|67:344|89:329|127:344,1,120.149996333313,10|0,0:2|0:0,0:0:0:0:
164,378,51181,2,0,P|175:339|167:300,1,80.0999975555421,12|0,0:2|0:0,0:0:0:0:
125,172,51519,1,0,3:2:0:0:
291,247,51687,1,2,3:2:0:0:
167,300,51856,1,10,0:2:0:0:
228,170,52024,6,0,P|238:90|258:13,1,160.199995111084,2|0,3:2|3:2,0:0:0:0:
356,134,52530,1,8,0:2:0:0:
463,72,52698,1,8,0:2:0:0:
462,84,52783,1,8,0:2:0:0:
460,95,52867,2,0,P|455:121|448:152,1,40.049998777771,0|0,3:2|0:0,0:0:0:0:
371,205,53035,5,8,0:2:0:0:
366,181,53119,1,8,0:2:0:0:
361,157,53203,1,2,3:2:0:0:
356,134,53287,1,8,0:2:0:0:
351,110,53372,1,8,0:2:0:0:
283,298,53541,5,2,3:2:0:0:
247,198,53710,1,0,3:2:0:0:
93,383,53878,2,0,B|118:355|144:341|144:341|197:331,1,120.149996333313,12|0,0:2|0:0,0:0:0:0:
209,332,54215,1,2,3:2:0:0:
173,232,54384,1,0,3:2:0:0:
363,147,54552,2,0,B|337:174|311:188|311:188|258:198,1,120.149996333313,12|0,0:2|0:0,0:0:0:0:
201,129,54889,6,0,L|280:116,1,80.0999975555421,2|0,3:2|3:2,0:0:0:0:
124,2,55226,1,12,0:2:0:0:
9,50,55395,1,2,0:2:0:0:
9,50,55479,1,0,0:0:0:0:
9,50,55564,1,2,3:2:0:0:
14,140,55732,1,8,0:3:0:0:
90,91,55901,1,8,0:3:0:0:
275,265,56238,6,0,P|333:250|392:243,1,120.149996333313,6|0,3:2|0:0,0:0:0:0:
404,242,56575,1,14,0:2:0:0:
263,364,56743,1,2,3:2:0:0:
237,173,56912,1,12,0:2:0:0:
417,241,57080,1,2,3:2:0:0:
275,265,57249,1,8,0:2:0:0:
150,81,57417,6,0,B|87:49|53:108|53:108|76:90|111:95,1,160.199995111084,6|0,3:2|3:2,3:0:0:0:
261,39,57923,2,0,P|246:97|239:156,1,120.149996333313,14|0,0:2|0:0,0:0:0:0:
237,173,58260,1,10,0:2:0:0:
314,224,58429,1,8,0:3:0:0:
319,130,58598,1,4,0:3:0:0:
314,224,58766,1,0,3:2:0:0:
477,79,58934,6,0,L|469:119,1,40.049998777771,8|0,0:3|0:0,0:0:0:0:
436,339,59440,6,0,L|429:380,1,40.049998777771,8|0,0:3|0:0,0:0:0:0:
452,205,59777,5,4,0:3:0:0:
477,79,59946,2,0,L|469:119,1,40.049998777771,10|0,0:0|0:0,0:0:0:0:
297,13,60114,6,0,L|217:29,1,80.0999975555421,6|0,3:2|0:0,0:0:0:0:
326,100,60451,2,0,L|286:108,1,40.049998777771,6|0,3:2|0:0,0:0:0:0:
209,125,60620,1,8,0:2:0:0:
400,166,60788,6,0,P|378:247|369:330,1,160.199995111084,6|0,3:2|0:0,0:0:0:0:
181,373,61294,2,0,B|146:374|129:382|129:382|108:364|108:364|84:369|52:359,1,120.149996333313,14|0,0:2|0:0,0:0:0:0:
150,295,61631,6,0,P|132:246|32:229,1,160.199995111084,6|8,3:2|0:2,0:0:0:0:
155,147,62137,2,0,P|195:153|234:165,1,80.0999975555421,2|0,0:2|3:2,0:0:0:0:
150,295,62474,1,4,0:3:0:0:
231,259,62642,1,10,0:2:0:0:
395,353,62811,6,0,B|404:307|404:307|384:264,1,80.0999975555421,6|0,3:2|0:0,0:0:0:0:
485,375,63148,1,4,0:3:0:0:
481,243,63316,1,8,0:2:0:0:
320,161,63485,6,0,L|310:212,1,40.049998777771,6|0,3:2|0:0,0:0:0:0:
387,92,63653,1,8,0:2:0:0:
368,77,63737,1,8,0:3:0:0:
346,68,63821,1,4,0:3:0:0:
322,65,63905,1,4,0:3:0:0:
298,70,63990,2,0,B|219:65|253:105|173:101,1,120.149996333313,12|0,0:2|0:0,0:0:0:0:
27,116,64328,6,0,P|68:120|109:131,1,84.5499977422715,10|0,0:2|0:0,0:0:0:0:
3,208,64580,2,0,P|7:166|18:125,1,84.5499977422715,10|0,0:2|0:0,0:0:0:0:
85,206,64833,1,10,0:2:0:0:
30,383,65002,6,0,P|71:378|112:367,1,84.5499977422715,10|0,0:2|0:0,0:0:0:0:
6,290,65254,2,0,P|10:331|21:372,1,84.5499977422715,10|0,0:2|0:0,0:0:0:0:
88,292,65507,1,10,0:2:0:0:
282,381,65676,6,0,B|306:337|290:290|290:290|284:310|255:330,1,126.824996613407,14|0,3:2|0:0,0:0:0:0:
260,322,66013,1,10,3:2:0:0:
209,186,66181,1,8,0:2:0:0:
397,262,66350,1,10,3:2:0:0:
283,129,66518,1,8,0:2:0:0:
499,150,66687,1,10,3:2:0:0:
315,44,66855,1,8,0:2:0:0:
397,276,67024,6,0,P|404:208|422:142,1,133.5,14|0,3:2|0:0,0:0:0:0:
425,134,67361,5,8,3:2:0:0:
401,107,67445,1,8,0:0:0:0:
368,94,67529,1,8,0:2:0:0:
333,96,67613,1,8,0:0:0:0:
303,114,67698,5,8,3:2:0:0:
283,144,67783,1,8,0:2:0:0:
276,178,67867,1,8,0:2:0:0:
285,212,67951,1,8,0:2:0:0:
308,238,68035,5,8,3:2:0:0:
326,268,68120,1,8,0:2:0:0:
327,303,68204,1,8,0:2:0:0:
315,336,68288,1,8,0:2:0:0:
286,358,68373,6,0,L|233:352,3,44.5,8|8|8|8,3:2|0:2|0:2|0:2,0:0:0:0:
150,381,68710,2,0,L|97:375,3,44.5,8|8|8|8,3:2|0:2|0:2|0:2,0:0:0:0:
172,219,69047,1,8,3:2:0:0:
174,232,69131,1,8,0:2:0:0:
174,245,69215,2,0,L|168:297,1,44.5,8|8,0:3|0:2,0:0:0:0:
23,331,69384,1,8,3:2:0:0:
18,318,69468,1,8,0:3:0:0:
16,304,69552,1,4,0:3:0:0:
17,290,69637,1,4,0:3:0:0:
21,277,69721,6,0,P|33:233|32:176,1,89,12|8,0:2|0:3,0:0:0:0:
80,63,69974,1,8,0:3:0:0:
77,76,70058,2,0,P|70:99|68:128,1,44.5,4|0,0:3|0:0,0:0:0:0:
174,245,70226,6,0,P|219:250|272:216,1,89,12|8,0:2|0:3,0:0:0:0:
368,307,70479,1,8,0:3:0:0:
355,303,70564,2,0,P|326:293|299:293,1,44.5,4|0,0:3|0:0,0:0:0:0:
244,364,70732,1,8,0:2:0:0:
482,384,70901,6,0,P|487:321|506:216,1,153.525002928257,6|0,3:2|0:0,0:0:0:0:
384,8,71238,2,0,P|392:35|395:60,1,51.1750009760857,10|0,0:2|0:0,0:0:0:0:
502,232,71406,2,0,P|506:203|512:176,1,51.1750009760857,10|0,0:2|0:0,0:0:0:0:
244,364,71743,5,2,3:2:0:0:
151,379,71912,1,10,0:2:0:0:
152,343,71996,1,10,0:2:0:0:
166,311,72080,1,10,0:2:0:0:
191,286,72164,1,10,0:2:0:0:
223,271,72249,1,10,0:2:0:0:
258,270,72333,1,10,0:2:0:0:
290,284,72417,6,0,B|314:246|314:246|293:125,1,153.525002928257,6|0,3:2|0:0,0:0:0:0:
197,0,72755,2,0,P|245:14|274:56,1,102.350001952171,12|0,0:2|0:0,0:0:0:0:
0,194,73092,1,2,3:2:0:0:
193,82,73260,1,2,3:2:0:0:
27,28,73429,1,8,0:2:0:0:
154,224,73597,6,0,B|258:246|218:174|320:193,1,153.525002928257,2|0,3:2|0:0,0:0:0:0:
394,256,73934,2,0,P|344:264|294:274,1,102.350001952171,2|8,3:2|0:2,0:0:0:0:
188,384,74271,1,10,0:2:0:0:
188,384,74356,1,8,0:2:0:0:
188,384,74440,1,0,3:2:0:0:
304,192,74608,1,0,3:2:0:0:
53,205,74777,2,0,P|106:213|153:223,1,102.350001952171,10|2,0:2|0:2,0:0:0:0:
320,16,75114,6,0,P|372:3|445:77,1,153.525002928257,2|0,3:2|0:0,0:0:0:0:
442,84,75451,1,10,0:2:0:0:
304,192,75620,1,10,0:2:0:0:
284,199,75704,1,8,0:2:0:0:
263,205,75788,2,0,P|210:197|160:185,1,102.350001952171,0|0,3:2|3:2,0:0:0:0:
62,12,76125,1,10,0:2:0:0:
14,233,76294,1,2,0:2:0:0:
18,211,76378,1,2,0:0:0:0:
25,191,76462,6,0,P|78:146|162:176,1,153.525002928257,0|0,3:2|0:0,0:0:0:0:
162,185,76799,1,10,0:2:0:0:
274,379,76968,1,10,0:2:0:0:
256,197,77137,2,0,L|236:306,1,102.350001952171,2|0,3:2|3:2,0:0:0:0:
144,84,77474,2,0,L|163:193,1,102.350001952171,10|8,0:2|0:0,0:0:0:0:
63,65,77726,1,8,0:0:0:0:
72,47,77811,6,0,P|125:2|228:71,1,204.700003904343,6|8,3:2|0:2,0:0:0:0:
108,257,78316,1,2,0:2:0:0:
8,216,78485,2,0,B|0:163|0:163|12:112,1,102.350001952171,2|0,3:2|0:0,0:0:0:0:
21,324,78822,1,10,0:2:0:0:
189,173,78990,1,2,0:2:0:0:
206,162,79075,1,2,0:2:0:0:
224,154,79159,6,0,B|290:127|325:188|325:188|285:176|260:205,1,153.525002928257,2|0,3:2|3:2,0:0:0:0:
235,255,79496,2,0,L|252:355,1,102.350001952171,10|2,0:2|0:2,0:0:0:0:
472,384,79833,1,2,3:2:0:0:
485,190,80002,1,8,0:2:0:0:
475,224,80086,1,8,0:2:0:0:
454,253,80170,1,10,3:2:0:0:
424,272,80254,1,8,0:2:0:0:
389,278,80339,1,8,0:2:0:0:
354,271,80423,1,8,0:2:0:0:
325,251,80507,6,0,L|315:195,1,51.1750009760857,6|0,3:2|0:0,0:0:0:0:
425,45,80676,2,0,L|415:101,1,51.1750009760857,0|0,3:2|0:0,0:0:0:0:
398,179,80844,1,8,0:2:0:0:
214,18,81013,6,0,B|168:-2|119:31|119:31|104:49|57:35,1,153.525002928257,6|0,3:2|0:0,0:0:0:0:
49,30,81350,1,4,0:3:0:0:
180,105,81519,1,8,0:2:0:0:
104,378,81687,6,0,B|115:316|115:316|109:294|109:294|121:226,1,153.525002928257,6|0,3:2|0:0,0:0:0:0:
123,207,82024,1,2,3:2:0:0:
216,268,82193,1,8,0:2:0:0:
0,336,82361,1,14,0:2:0:0:
13,227,82530,1,2,3:2:0:0:
213,376,82698,1,8,0:2:0:0:
248,369,82782,1,8,0:2:0:0:
283,363,82866,1,8,3:2:0:0:
318,357,82950,1,8,0:2:0:0:
354,351,83035,1,8,0:2:0:0:
389,345,83120,1,8,0:2:0:0:
425,339,83204,6,0,B|448:298|427:260|427:260|390:245|377:195,1,153.525002928257,6|0,3:2|3:2,0:0:0:0:
380,188,83541,1,14,0:2:0:0:
495,68,83710,2,0,P|487:119|476:169,1,102.350001952171,2|0,0:2|3:2,0:0:0:0:
272,164,84047,1,2,3:2:0:0:
412,0,84215,1,8,0:2:0:0:
380,188,84384,6,0,B|312:176|312:176|283:184|283:184|217:172,1,153.525002928257,6|0,3:2|0:0,0:0:0:0:
209,178,84721,1,2,3:2:0:0:
270,381,84889,1,8,0:2:0:0:
380,188,85058,1,10,0:2:0:0:
388,169,85142,1,8,0:2:0:0:
391,148,85226,2,0,P|393:97|363:56,1,102.350001952171,0|0,3:2|3:2,0:0:0:0:
256,271,85564,1,10,0:2:0:0:
296,131,85732,1,10,0:2:0:0:
382,353,85901,6,0,B|291:336|322:392|228:376,1,153.525002928257,2|0,3:2|0:0,0:0:0:0:
216,368,86238,1,10,0:2:0:0:
29,206,86406,1,2,3:2:0:0:
29,206,86490,1,0,3:2:0:0:
29,206,86575,1,8,0:2:0:0:
110,384,86743,1,4,0:3:0:0:
218,209,86912,1,8,0:2:0:0:
51,0,87080,6,0,L|43:51,1,51.1750009760857,6|0,3:2|0:0,0:0:0:0:
46,337,87417,6,0,L|38:286,1,51.1750009760857,6|0,3:2|0:0,0:0:0:0:
29,206,87586,1,8,0:2:0:0:
182,139,87755,2,0,B|211:125|211:76|211:76|253:77|275:118,1,153.525002928257,6|0,3:2|0:0,0:0:0:0:
235,243,88092,2,0,L|243:192,1,51.1750009760857,8|8,0:2|0:2,0:0:0:0:
344,52,88260,1,8,3:2:0:0:
355,85,88344,1,8,0:3:0:0:
379,111,88428,1,4,0:3:0:0:
411,126,88512,1,4,0:3:0:0:
447,126,88597,6,0,P|490:157|502:218,1,102.350001952171,10|0,0:2|0:0,0:0:0:0:
337,234,88850,2,0,P|333:183|360:140,1,102.350001952171,10|0,0:2|0:0,0:0:0:0:
427,255,89103,2,0,L|418:205,1,51.1750009760857,10|0,0:2|0:0,0:0:0:0:
390,56,89271,1,10,0:2:0:0:
85,255,89608,6,0,L|94:205,1,51.1750009760857,2|0,3:3|0:0,0:0:0:0:
65,126,89946,6,0,P|22:157|10:218,1,102.350001952171,10|0,0:2|0:0,0:0:0:0:
175,234,90199,2,0,P|179:183|152:140,1,102.350001952171,10|0,0:2|0:0,0:0:0:0:
85,255,90452,2,0,L|94:205,1,51.1750009760857,10|0,0:2|0:0,0:0:0:0:
122,56,90620,1,8,0:3:0:0:
356,145,90873,1,8,0:2:0:0:
356,145,90957,2,0,L|347:195,1,51.1750009760857,10|0,0:2|0:0,0:0:0:0:
446,97,91125,6,0,B|413:272,1,153.525002928257,6|0,3:2|0:0,0:0:0:0:
415,267,91462,1,0,3:2:0:0:
223,161,91631,1,8,0:2:0:0:
336,333,91799,1,8,0:2:0:0:
336,333,91884,1,8,0:2:0:0:
336,333,91968,1,0,3:2:0:0:
194,255,92137,1,2,3:2:0:0:
190,275,92221,1,2,3:2:0:0:
196,294,92305,6,0,B|169:332|186:379|186:379|143:351|100:357,1,153.525002928257,14|0,0:2|0:0,0:0:0:0:
56,303,92642,6,0,P|42:337|40:372,1,51.1750009760857,10|0,0:2|0:0,0:0:0:0:
49,187,92811,6,0,P|13:198|-14:219,1,51.1750009760857,10|0,0:2|0:0,0:0:0:0:
139,111,92979,6,0,P|107:91|73:83,1,51.1750009760857,10|0,0:2|0:0,0:0:0:0:
314,381,93316,2,0,P|364:373|414:363,1,102.350001952171,8|10,0:3|0:2,0:0:0:0:
438,361,93569,1,8,0:2:0:0:
438,361,93653,1,10,0:2:0:0:
508,146,93822,6,0,B|463:127|472:69|472:69|457:96|408:111,1,153.525002928257,6|0,3:2|0:0,0:0:0:0:
404,109,94159,1,2,3:2:0:0:
404,24,94328,1,8,0:2:0:0:
199,245,94496,6,0,B|239:215|217:159|217:159|244:198|287:188,1,166.875,6|0,3:2|0:0,0:0:0:0:
298,188,94833,1,2,3:2:0:0:
283,96,95002,1,8,0:2:0:0:
509,367,95170,6,0,B|459:346|469:282|469:282|453:312|399:328,1,180.225000687504,6|0,3:2|0:0,0:0:0:0:
382,332,95507,1,2,3:2:0:0:
378,218,95676,2,0,P|397:230|370:238,1,60.0750002291679,12|0,0:2|0:0,0:0:0:0:
254,366,95844,2,0,B|201:383|201:383|145:353,1,102.350001952171,2|8,3:2|0:2,0:0:0:0:
221,183,96181,1,8,0:3:0:0:
221,183,96266,1,8,0:3:0:0:
221,183,96350,1,4,0:3:0:0:
210,279,96519,1,4,0:3:0:0:
12,33,96687,6,0,B|80:29|109:106|109:106|60:94|24:116,1,193.57500590744,14|0,0:0|0:0,0:0:0:0:
25,119,97024,1,2,3:2:0:0:
39,381,97193,6,0,L|64:229,1,153.525002928257,14|0,0:0|0:0,0:0:0:0:
69,203,97530,1,2,3:2:0:0:
129,379,97698,1,8,0:0:0:0:
170,124,97867,6,0,B|167:182|206:203|206:203|233:143|303:156,1,193.57500590744,6|0,3:2|0:0,0:0:0:0:
305,174,98204,1,8,0:0:0:0:
365,368,98373,1,8,0:0:0:0:
482,198,98541,1,8,0:0:0:0:
361,382,98710,1,2,3:2:0:0:
395,154,98878,5,8,0:0:0:0:
381,121,98962,1,10,0:0:0:0:
356,95,99046,1,8,3:2:0:0:
324,79,99130,1,8,0:0:0:0:
289,75,99215,1,10,0:0:0:0:
255,85,99299,1,8,0:0:0:0:
228,109,99384,6,0,L|239:45,1,51.1750009760857,2|0,3:2|0:0,0:0:0:0:
0,319,99889,6,0,B|60:348|117:335|117:335|97:330|69:303,1,153.525002928257,6|0,3:2|0:0,0:0:0:0:
77,301,100226,1,10,0:0:0:0:
137,137,100395,1,8,0:0:0:0:
264,382,100564,6,0,B|254:330|254:330|232:285|165:247,1,153.525002928257,6|0,3:2|0:0,0:0:0:0:
168,246,100901,1,2,3:2:0:0:
350,154,101069,1,10,0:0:0:0:
385,160,101153,1,8,0:0:0:0:
420,166,101237,1,10,0:0:0:0:
455,172,101321,1,8,0:0:0:0:
491,178,101406,6,0,P|513:234|488:288,1,102.350001952171,10|4,0:0|0:3,0:0:0:0:
319,383,101743,1,12,0:0:0:0:
512,343,101912,1,2,0:2:0:0:
359,103,102080,6,0,L|347:168,1,51.1750009760857,6|0,3:2|0:0,0:0:0:0:
105,375,102417,5,10,0:0:0:0:
176,298,102586,2,0,P|244:280|304:349,1,153.525002928257,2|0,3:2|0:0,0:0:0:0:
307,352,102923,1,10,0:0:0:0:
261,177,103092,1,8,0:0:0:0:
105,375,103260,6,0,B|90:290|90:290|67:259|67:259|51:168,1,204.700003904343,6|0,3:2|3:2,0:0:0:0:
191,55,103766,1,8,0:0:0:0:
152,217,103934,1,0,3:2:0:0:
152,217,104019,1,0,3:2:0:0:
152,217,104103,1,2,3:2:0:0:
81,9,104271,1,10,0:0:0:0:
299,87,104440,2,0,P|348:78|406:63,1,102.350001952171,10|2,0:0|3:2,0:0:0:0:
500,261,104777,6,0,B|440:245|450:190|414:168|359:186,1,153.525002928257,14|0,0:0|0:0,0:0:0:0:
358,186,105114,1,10,0:0:0:0:
269,260,105283,2,0,L|251:159,1,102.350001952171,2|0,3:2|0:0,0:0:0:0:
378,284,105620,1,2,3:2:0:0:
290,384,105788,1,8,0:0:0:0:
162,196,105957,6,0,P|132:251|-5:230,1,204.700003904343,6|8,3:2|0:3,0:0:0:0:
52,79,106462,2,0,P|63:129|71:180,1,102.350001952171,4|0,0:3|3:2,0:0:0:0:
190,8,106799,6,0,B|258:5|220:56|303:55,1,124.6,6|0,3:2|0:2,0:0:0:0:
378,31,107474,6,0,B|414:1|448:43|462:83|423:120,1,140.174995722199,6|0,3:2|0:0,0:0:0:0:
463,204,107811,2,0,P|415:193|366:185,1,93.4499971481324,12|2,0:0|0:0,0:0:0:0:
328,313,108148,1,2,3:2:0:0:
300,117,108316,2,0,P|277:156|275:203,1,93.4499971481324,0|0,3:2|0:0,0:0:0:0:
507,328,108653,6,0,B|397:360|440:283|328:313,1,186.899994296265,10|2,0:0|3:2,0:0:0:0:
92,384,109159,2,0,P|136:390|180:365,1,93.4499971481324,10|10,0:0|0:2,0:0:0:0:
252,347,109412,1,8,0:0:0:0:
252,347,109496,2,0,L|235:251,1,93.4499971481324,0|2,3:2|3:2,0:0:0:0:
152,163,109833,1,10,0:0:0:0:
74,302,110002,1,2,0:2:0:0:
127,67,110170,6,0,B|176:57|176:57|221:87,1,93.4499971481324,2|0,3:2|3:2,0:0:0:0:
326,197,110507,1,8,0:0:0:0:
390,24,110676,1,8,0:0:0:0:
390,24,110760,1,8,0:0:0:0:
390,24,110844,1,2,3:2:0:0:
212,81,111013,2,0,B|261:91|261:91|306:61,1,93.4499971481324,0|0,3:2|0:0,0:0:0:0:
470,171,111350,6,0,P|406:134|319:206,1,186.899994296265,10|2,0:0|3:2,0:0:0:0:
400,329,111856,1,10,0:0:0:0:
405,229,112024,1,10,0:0:0:0:
320,384,112193,1,6,3:2:0:0:
322,192,112361,1,10,0:0:0:0:
303,165,112445,1,8,0:0:0:0:
277,152,112530,1,10,0:0:0:0:
254,148,112614,1,8,0:3:0:0:
235,151,112698,1,8,0:3:0:0:
223,158,112783,1,4,0:3:0:0:
215,164,112867,6,0,B|135:183|154:117|66:142,1,140.174995722199,6|0,3:2|0:0,0:0:0:0:
13,255,113204,2,0,P|58:244|104:236,1,93.4499971481324,8|8,0:0|0:0,0:0:0:0:
126,240,113457,1,8,0:0:0:0:
126,240,113541,1,2,3:2:0:0:
294,307,113710,1,2,3:2:0:0:
129,381,113878,1,2,0:2:0:0:
236,216,114047,6,0,B|293:205|293:205|336:213|387:250,1,140.174995722199,10|0,0:0|0:0,0:0:0:0:
379,252,114384,1,2,3:2:0:0:
440,173,114552,1,10,0:0:0:0:
508,384,114721,1,10,0:2:0:0:
511,365,114805,1,8,0:0:0:0:
512,346,114889,2,0,P|504:299|492:254,1,93.4499971481324,0|2,3:2|3:2,0:0:0:0:
440,173,115226,1,10,0:0:0:0:
422,348,115395,1,10,0:0:0:0:
244,213,115564,6,0,P|197:220|152:232,1,93.4499971481324,2|0,3:2|3:2,0:0:0:0:
330,261,115901,2,0,P|343:202|314:146,1,93.4499971481324,8|0,0:0|3:2,0:0:0:0:
237,20,116238,1,10,0:0:0:0:
229,13,116322,1,2,0:2:0:0:
216,7,116406,1,2,3:2:0:0:
198,2,116490,1,2,0:2:0:0:
174,3,116575,1,2,3:2:0:0:
150,18,116659,1,2,0:2:0:0:
128,42,116743,6,0,B|105:93|132:165|132:165|120:134|70:121,1,186.899994296265,14|0,0:0|3:2,0:0:0:0:
0,286,117249,2,0,L|100:267,1,93.4499971481324,8|8,0:0|0:0,0:0:0:0:
247,379,117586,1,10,0:0:0:0:
176,310,117755,1,8,0:3:0:0:
186,230,117923,1,4,0:3:0:0:
231,189,118092,1,4,0:3:0:0:
272,281,118260,5,6,3:2:0:0:
333,150,121631,5,2,0:3:0:0:
287,215,121968,2,0,P|276:274|270:358,1,140.174995722199,2|0,0:0|0:0,0:0:0:0:
270,353,122305,1,2,0:0:0:0:
368,265,122474,1,8,0:0:0:0:
205,183,122642,1,8,0:0:0:0:
456,248,122811,1,8,0:0:0:0:
354,87,122979,5,10,0:0:0:0:
240,271,123148,1,0,3:2:0:0:
399,166,123316,2,0,P|455:144|496:215,1,140.174995722199,10|0,0:0|0:0,0:0:0:0:
463,272,123653,6,0,B|437:313|434:343|434:343|373:300|313:292|313:292|269:310|232:313,1,280.349991444397,6|2,3:2|0:2,0:0:0:0:
124,332,124328,6,0,P|93:267|257:249,1,280.349991444397,6|0,3:2|0:0,0:0:0:0:
174,266,125002,6,0,L|136:68,1,186.899994296265,6|0,3:2|0:0,0:0:0:0:
119,10,125507,1,2,0:2:0:0:
4,144,125676,5,6,3:2:0:0:
20,64,125844,1,0,3:2:0:0:
88,202,126013,1,8,0:0:0:0:
108,112,126181,1,0,0:0:0:0:
88,202,126350,6,0,P|32:214|6:216,1,71.2,6|0,3:2|3:2,0:0:0:0:
121,361,126687,1,10,0:0:0:0:
217,236,126856,1,2,3:2:0:0:
41,286,127024,1,8,0:0:0:0:
247,369,127193,1,2,3:2:0:0:
247,369,127361,1,8,0:0:0:0:
123,170,127530,6,0,B|107:129|107:129|104:98|104:98|92:67|81:24,1,142.4,6|0,3:2|3:2,0:0:0:0:
217,126,128035,1,0,0:0:0:0:
100,281,128204,1,8,0:0:0:0:
100,281,128288,1,8,0:0:0:0:
100,281,128373,6,0,P|74:285|39:300,2,47.4666666666667,2|8|4,3:2|0:3|0:3,0:0:0:0:
109,188,128710,5,10,0:0:0:0:
157,213,128794,1,8,0:0:0:0:
188,255,128878,1,10,0:0:0:0:
187,308,128962,1,8,0:0:0:0:
171,358,129047,2,0,P|224:350|287:340,1,106.8,6|0,3:2|0:0,0:0:0:0:
370,283,129384,6,0,P|282:304|247:235,1,160.199995111084,12|0,0:0|3:2,0:0:0:0:
234,141,129889,1,0,3:2:0:0:
452,169,130058,1,10,0:0:0:0:
335,54,130226,2,0,P|345:114|345:156,1,80.0999975555421,2|0,3:2|0:0,0:0:0:0:
354,259,130564,5,2,3:2:0:0:
444,141,130732,1,8,0:0:0:0:
281,196,130901,1,10,0:2:0:0:
281,196,130985,1,8,0:2:0:0:
281,196,131069,1,0,3:2:0:0:
449,289,131238,1,0,3:2:0:0:
507,182,131406,2,0,P|448:172|379:146,1,120.149996333313,10|0,0:0|0:0,0:0:0:0:
354,79,131743,6,0,P|292:59|243:140,1,160.199995111084,2|8,3:2|0:0,0:0:0:0:
278,273,132249,1,2,3:2:0:0:
136,194,132417,5,8,0:0:0:0:
219,349,132586,1,8,0:3:0:0:
262,198,132755,1,10,0:0:0:0:
74,297,132923,6,0,P|63:347|59:392,1,80.0999975555421,2|0,3:2|0:0,0:0:0:0:
252,268,133260,2,0,P|247:228|237:189,1,80.0999975555421,2|8,3:2|0:0,0:0:0:0:
135,61,133597,1,6,3:2:0:0:
153,234,133766,1,0,3:2:0:0:
42,151,133934,1,8,0:0:0:0:
43,111,134018,1,8,0:0:0:0:
64,77,134102,1,8,0:0:0:0:
99,58,134186,1,8,0:0:0:0:
139,59,134271,1,8,0:3:0:0:
173,78,134355,1,4,0:3:0:0:
201,110,134440,6,0,P|271:96|295:85,1,80.0999975555421,14|0,0:0|0:0,0:0:0:0:
356,139,134693,2,0,P|374:77|380:38,1,80.0999975555421,10|0,0:0|0:0,0:0:0:0:
325,3,134946,1,10,0:0:0:0:
275,181,135114,6,0,P|289:251|300:275,1,80.0999975555421,14|0,0:0|0:0,0:0:0:0:
246,336,135367,2,0,P|308:354|347:360,1,80.0999975555421,10|0,0:0|0:0,0:0:0:0:
425,312,135620,2,0,P|405:306|386:301,1,40.049998777771,10|0,0:0|0:0,0:0:0:0:
201,231,135788,5,14,0:0:0:0:
247,333,135957,1,8,0:0:0:0:
287,189,136125,1,10,0:0:0:0:
150,345,136294,1,8,0:0:0:0:
144,133,136462,5,10,0:0:0:0:
335,249,136631,1,8,0:0:0:0:
121,278,136799,1,10,0:0:0:0:
233,65,136968,1,8,0:0:0:0:
344,163,137137,5,14,0:0:0:0:
381,175,137221,1,8,0:0:0:0:
419,163,137305,1,8,0:0:0:0:
444,133,137389,1,8,0:0:0:0:
447,93,137474,1,8,0:0:0:0:
427,59,137558,1,8,0:0:0:0:
393,38,137642,1,8,0:0:0:0:
353,37,137726,1,8,0:0:0:0:
314,47,137811,5,8,3:2:0:0:
284,73,137895,1,8,0:2:0:0:
246,87,137979,1,8,0:2:0:0:
206,95,138064,1,8,0:2:0:0:
166,99,138148,1,8,3:2:0:0:
126,94,138232,1,8,0:2:0:0:
87,83,138316,1,8,0:2:0:0:
51,64,138401,1,8,0:2:0:0:
24,33,138485,2,0,P|34:77|34:130,1,80.0999975555421,8|4,3:2|0:3,0:0:0:0:
111,209,138822,5,8,3:2:0:0:
126,245,138906,1,8,0:2:0:0:
123,284,138990,1,8,0:2:0:0:
102,318,139074,1,8,0:2:0:0:
68,338,139159,2,0,P|33:346|3:349,1,40.049998777771,8|0,0:3|0:0,0:0:0:0:
3,246,139328,2,0,P|27:248|59:252,1,40.049998777771,8|8,0:0|0:2,0:0:0:0:
209,314,139496,5,8,3:2:0:0:
211,323,139580,1,8,0:3:0:0:
213,333,139664,1,4,0:3:0:0:
215,343,139748,1,4,0:3:0:0:
218,353,139833,1,12,0:2:0:0:
329,209,140002,2,0,P|293:223|264:228,1,44.5,8|8,0:3|0:3,0:0:0:0:
128,246,140170,1,4,0:3:0:0:
279,135,140339,5,12,0:2:0:0:
217,312,140507,2,0,P|211:270|203:247,1,44.5,8|8,0:3|0:3,0:0:0:0:
144,103,140676,1,4,0:3:0:0:
113,220,140844,5,8,0:2:0:0:
347,74,141013,2,0,B|405:59|453:94|453:94|483:33,1,178,6|10,3:2|0:2,0:0:0:0:
336,177,141519,2,0,P|284:168|244:141,1,89,10|0,0:2|3:2,0:0:0:0:
225,12,141855,2,0,P|266:2|297:-3,1,44.5,12|2,0:2|0:2,0:0:0:0:
466,55,142024,1,10,0:2:0:0:
493,89,142108,1,10,0:2:0:0:
500,133,142192,1,10,0:2:0:0:
486,174,142276,1,8,0:3:0:0:
453,204,142361,1,4,0:3:0:0:
410,214,142445,1,4,0:3:0:0:
367,217,142530,6,0,B|321:216|281:202|281:202|298:271,1,133.5,6|0,3:2|0:0,0:0:0:0:
439,291,142867,6,0,P|448:247|452:192,1,89,12|0,0:2|0:0,0:0:0:0:
336,300,143204,1,2,3:2:0:0:
497,363,143373,1,2,3:2:0:0:
318,289,143541,1,8,0:2:0:0:
489,149,143710,6,0,P|451:187|370:172,1,133.5,2|0,3:2|0:0,0:0:0:0:
312,133,144047,2,0,P|259:148|215:165,1,89,2|8,3:2|0:2,0:0:0:0:
70,259,144384,1,10,0:2:0:0:
70,259,144468,1,8,0:2:0:0:
70,259,144552,1,0,3:2:0:0:
154,86,144721,1,0,3:2:0:0:
30,122,144889,1,10,0:2:0:0:
177,296,145058,1,2,0:2:0:0:
20,352,145226,6,0,P|34:292|47:247,1,89,2|0,3:2|3:2,0:0:0:0:
211,163,145564,1,10,0:2:0:0:
51,58,145732,1,10,0:2:0:0:
66,100,145816,1,8,0:2:0:0:
79,140,145901,1,0,3:2:0:0:
116,266,146069,1,0,3:2:0:0:
202,95,146238,1,10,0:2:0:0:
14,206,146406,6,0,B|73:161|149:173|149:173|183:213,1,178,2|0,0:2|3:2,0:0:0:0:
278,341,146912,2,0,P|258:266|251:224,1,89,10|10,0:2|0:2,0:0:0:0:
331,97,147249,1,2,3:2:0:0:
441,204,147417,1,0,3:2:0:0:
245,162,147586,1,10,0:2:0:0:
367,10,147755,5,8,0:0:0:0:
367,10,147839,1,8,0:0:0:0:
367,10,147923,2,0,P|382:57|373:146,1,133.5,6|0,3:2|3:2,0:0:0:0:
375,139,148260,1,8,0:2:0:0:
250,225,148429,1,2,0:2:0:0:
482,99,148597,2,0,B|434:84|434:84|373:95|373:95|278:73,1,178,2|10,3:2|0:2,0:0:0:0:
156,4,149103,1,2,0:2:0:0:
313,173,149271,6,0,P|330:219|331:270,1,89,2|0,3:2|0:0,0:0:0:0:
332,258,149524,1,0,3:2:0:0:
335,265,149608,1,10,0:2:0:0:
415,215,149777,1,0,0:0:0:0:
504,365,149946,2,0,P|440:314|358:344,1,133.5,2|2,3:2|3:2,0:0:0:0:
326,354,150283,6,0,P|299:348|276:340,1,44.5,10|0,0:2|0:0,0:0:0:0:
150,262,150451,1,8,0:2:0:0:
118,262,150535,1,8,0:2:0:0:
87,273,150620,5,6,3:2:0:0:
129,166,150788,1,0,3:2:0:0:
49,339,150957,1,8,0:2:0:0:
213,313,151125,2,0,B|259:258|236:192|236:192|250:144,1,178,6|4,3:2|0:3,0:0:0:0:
146,240,151631,1,8,0:2:0:0:
326,179,151799,6,0,B|383:153|451:148|451:148|405:202,1,178,6|2,3:2|3:2,0:0:0:0:
271,78,152305,2,0,P|223:68|163:35,1,89,12|14,0:2|0:2,0:0:0:0:
56,0,152642,1,2,3:2:0:0:
19,25,152726,1,8,0:0:0:0:
0,64,152810,1,4,0:3:0:0:
1,108,152894,1,4,0:3:0:0:
24,146,152979,1,8,3:2:0:0:
61,168,153063,1,8,0:3:0:0:
105,170,153147,1,4,0:3:0:0:
146,154,153232,1,4,0:3:0:0:
187,128,153316,6,0,P|261:98|314:85,1,133.5,6|0,3:2|3:2,0:0:0:0:
238,61,153653,2,0,P|188:44|143:19,1,89,14|2,0:2|0:2,0:0:0:0:
396,12,153990,1,0,3:2:0:0:
298,124,154159,1,2,3:2:0:0:
442,104,154328,1,8,0:2:0:0:
300,16,154496,6,0,P|319:105|336:157,1,133.5,6|0,3:2|0:0,0:0:0:0:
371,209,154833,2,0,P|358:278|345:322,1,89,2|8,3:2|0:2,0:0:0:0:
247,362,155170,1,10,0:2:0:0:
247,362,155255,1,8,0:2:0:0:
247,362,155339,1,0,3:2:0:0:
427,303,155507,1,0,3:2:0:0:
296,213,155676,1,14,0:2:0:0:
168,303,155844,5,10,0:2:0:0:
168,303,155929,1,8,0:0:0:0:
168,303,156013,2,0,P|96:316|22:223,1,178,2|10,3:2|0:2,0:0:0:0:
216,211,156519,2,0,P|229:160|251:106,1,89,2|8,3:2|0:2,0:0:0:0:
206,15,156856,1,2,3:2:0:0:
119,186,157024,1,2,3:2:0:0:
20,44,157193,6,0,P|78:58|116:60,1,89,10|0,0:2|3:2,0:0:0:0:
324,23,157530,2,0,P|287:74|265:126,1,89,10|0,0:2|3:2,0:0:0:0:
209,312,157867,2,0,P|186:236|158:167,1,133.5,6|0,3:2|0:0,0:0:0:0:
128,162,158204,1,8,0:2:0:0:
80,163,158288,1,8,0:2:0:0:
49,199,158373,1,8,3:2:0:0:
48,248,158457,1,8,0:3:0:0:
72,283,158541,1,4,0:3:0:0:
122,290,158625,1,4,0:3:0:0:
168,286,158710,6,0,P|242:263|263:260,1,89,10|0,0:2|0:0,0:0:0:0:
298,194,158962,2,0,P|341:203|383:218,1,89,10|0,0:2|0:0,0:0:0:0:
348,335,159215,2,0,P|344:313|341:291,1,44.5,10|0,0:2|0:0,0:0:0:0:
423,147,159384,6,0,P|462:201|415:301,1,178,10|2,0:2|3:3,0:0:0:0:
424,298,160058,2,0,B|380:289|380:289|327:264,1,89,10|0,0:2|0:0,0:0:0:0:
267,312,160311,2,0,B|258:266|258:266|263:216,1,89,10|0,0:2|0:0,0:0:0:0:
348,146,160564,2,0,L|338:200,1,44.5,10|0,0:2|0:0,0:0:0:0:
188,298,160732,2,0,P|120:316|78:322,1,89,8|8,0:3|0:2,0:0:0:0:
68,320,160985,1,8,0:2:0:0:
37,310,161069,1,10,0:2:0:0:
154,76,161238,6,0,B|199:126|178:200|178:200|127:237,1,178,6|0,3:2|3:2,0:0:0:0:
71,153,161743,1,8,0:2:0:0:
255,82,161912,1,0,3:2:0:0:
131,5,162080,1,0,3:2:0:0:
210,187,162249,1,2,3:2:0:0:
335,93,162417,1,14,0:2:0:0:
251,268,162586,1,0,3:2:0:0:
145,127,162755,5,10,0:2:0:0:
338,222,162923,1,10,0:2:0:0:
379,2,163092,1,10,0:2:0:0:
379,2,163429,2,0,P|390:64|401:106,1,89,8|10,0:3|0:2,0:0:0:0:
450,137,163681,2,0,L|507:147,1,44.5,8|8,0:2|0:2,0:0:0:0:
238,193,163934,6,0,B|173:177|173:177|123:190|123:190|60:174,1,178,6|0,3:2|3:2,0:0:0:0:
268,291,164440,2,0,P|284:199|321:111,1,178,12|0,0:2|3:2,0:0:0:0:
363,237,164946,1,0,3:2:0:0:
212,159,165114,1,10,0:2:0:0:
337,337,165283,6,0,P|276:366|175:289,1,178,2|0,3:2|3:2,0:0:0:0:
87,161,165788,2,0,P|72:211|62:265,1,89,8|0,0:2|0:0,0:0:0:0:
50,371,166125,1,2,3:2:0:0:
196,245,166294,1,2,3:2:0:0:
196,245,166378,1,0,3:2:0:0:
196,245,166462,1,8,0:2:0:0:
0,170,166631,6,0,B|63:142|103:175|176:140,1,178,6|0,3:2|3:2,0:0:0:0:
292,12,167137,1,8,0:2:0:0:
120,63,167305,1,0,0:0:0:0:
82,56,167389,1,8,0:2:0:0:
52,32,167474,1,0,3:2:0:0:
254,83,167642,1,0,3:2:0:0:
102,193,167811,1,10,0:2:0:0:
342,147,167979,6,0,B|377:93|361:8|361:8|329:48,1,178,2|0,3:2|3:2,0:0:0:0:
262,211,168485,2,0,P|274:267|280:314,1,89,8|8,0:2|0:2,0:0:0:0:
266,327,168738,1,0,3:0:0:0:
246,351,168822,1,2,3:2:0:0:
342,147,168990,1,10,0:2:0:0:
383,133,169074,1,8,0:2:0:0:
427,137,169158,1,8,0:2:0:0:
466,160,169242,1,8,0:2:0:0:
491,196,169328,6,0,P|495:263|450:322,1,133.5,6|0,3:2|0:0,0:0:0:0:
383,327,169665,2,0,P|311:313|266:297,1,89,2|8,3:2|0:2,0:0:0:0:
152,189,170002,2,0,L|166:248,1,44.5,2|8,3:2|0:2,0:0:0:0:
189,362,170171,1,0,3:2:0:0:
292,199,170339,1,2,3:2:0:0:
292,199,170423,1,0,3:2:0:0:
292,199,170507,1,8,0:2:0:0:
84,316,170676,6,0,B|42:298|42:298|10:222|51:156,1,178,6|0,3:2|3:2,0:0:0:0:
181,23,171181,2,0,P|207:115|231:178,1,133.5,10|8,0:2|0:2,0:0:0:0:
154,104,171519,2,0,P|104:83|54:64,1,89,2|0,3:2|3:2,0:0:0:0:
280,18,171856,1,14,0:2:0:0:
228,180,172024,1,2,0:2:0:0:
384,71,172193,6,0,P|402:130|414:180,1,89,2|0,3:2|3:2,0:0:0:0:
319,350,172530,1,10,0:2:0:0:
489,229,172698,1,0,3:2:0:0:
319,189,172867,1,10,0:2:0:0:
480,323,173035,1,2,3:2:0:0:
304,174,173204,1,0,3:2:0:0:
487,60,173373,6,0,B|516:119|476:192|476:192|416:178,1,178,14|0,0:2|3:2,0:0:0:0:
273,89,173878,2,0,P|323:72|366:46,1,89,12|0,0:2|3:2,0:0:0:0:
453,2,174215,1,10,0:2:0:0:
359,181,174384,1,10,0:2:0:0:
359,181,174721,6,0,B|337:315|337:315|383:285,1,178,6|0,3:2|3:2,0:0:0:0:
230,181,175226,2,0,P|248:244|254:287,1,89,8|0,0:2|0:0,0:0:0:0:
251,267,175479,1,8,0:2:0:0:
253,275,175564,1,2,3:2:0:0:
26,263,175732,1,0,3:2:0:0:
190,207,175901,1,10,0:2:0:0:
0,111,176069,6,0,P|35:169|137:124,1,178,2|0,3:2|3:2,0:0:0:0:
277,0,176575,2,0,P|257:68|257:118,1,89,8|8,0:2|0:0,0:0:0:0:
255,85,176828,1,8,0:2:0:0:
255,85,176912,1,2,3:2:0:0:
299,238,177080,2,0,L|359:263,2,44.5,0|0|10,3:2|3:2|0:2,0:0:0:0:
89,68,177417,6,0,B|154:29|212:73|212:73|243:134,1,178,2|2,3:2|3:2,0:0:0:0:
119,292,177923,2,0,P|137:223|157:177,1,89,8|2,0:2|3:2,0:0:0:0:
143,206,178176,1,8,0:2:0:0:
143,206,178260,1,2,3:2:0:0:
317,157,178429,1,2,3:2:0:0:
204,322,178597,1,10,0:2:0:0:
458,258,178766,6,0,B|402:226|336:257|336:257|262:236,1,178,6|2,3:2|3:2,0:0:0:0:
429,380,179271,2,0,P|461:327|449:240,1,133.5,10|8,0:2|0:2,0:0:0:0:
498,174,179608,2,0,P|485:110|483:70,1,89,2|0,3:2|3:2,0:0:0:0:
357,202,179946,1,10,0:2:0:0:
427,0,180114,6,0,B|394:59|396:127|396:127|348:114,1,178,6|0,3:2|3:2,0:0:0:0:
175,58,180620,2,0,P|238:37|278:24,1,89,8|8,0:2|0:0,0:0:0:0:
259,29,180873,1,8,0:2:0:0:
259,29,180957,1,2,3:2:0:0:
186,158,181125,1,0,3:2:0:0:
316,184,181294,1,10,0:2:0:0:
134,71,181462,6,0,B|84:63|22:43|22:43|58:104,1,178,6|0,3:2|3:2,0:0:0:0:
119,251,181968,2,0,P|105:312|76:377,1,133.5,8|8,0:2|0:2,0:0:0:0:
76,376,182305,1,2,3:2:0:0:
18,260,182474,1,0,3:2:0:0:
210,201,182642,1,14,0:2:0:0:
183,358,182811,1,0,0:0:0:0:
18,162,182979,5,6,3:2:0:0:
178,255,183148,1,2,3:2:0:0:
48,250,183316,5,8,0:2:0:0:
262,146,183485,1,2,3:2:0:0:
109,97,183653,5,8,0:2:0:0:
220,293,183822,1,2,3:2:0:0:
359,146,183990,1,0,3:2:0:0:
123,265,184159,6,0,P|195:242|277:298,1,178,14|8,0:2|0:2,0:0:0:0:
409,301,184665,2,0,P|384:366|380:408,1,89,10|0,0:2|3:2,0:0:0:0:
512,164,185002,1,10,0:2:0:0:
474,186,185086,1,2,0:2:0:0:
431,198,185170,1,10,0:2:0:0:
387,200,185254,1,10,0:2:0:0:
343,192,185339,1,10,0:2:0:0:
303,173,185423,1,10,0:2:0:0:
267,146,185507,1,10,0:2:0:0:
241,109,185592,1,10,0:2:0:0:
216,71,185676,2,0,P|147:50|116:99,1,133.5,6|0,3:2|0:0,0:0:0:0:
281,24,186013,6,0,P|336:13|390:-9,1,89,12|2,0:2|0:2,0:0:0:0:
494,111,186350,2,0,B|423:100|378:89|378:89|419:170,1,178,2|2,3:2|3:2,0:0:0:0:
411,359,186856,6,0,P|471:342|452:235,1,178,8|0,0:2|3:2,0:0:0:0:
320,291,187361,2,0,P|251:302|172:304,1,133.5,8|10,0:2|0:2,0:0:0:0:
119,341,187698,2,0,P|64:330|16:320,1,89,2|0,3:2|3:2,0:0:0:0:
63,249,187951,2,0,P|54:214|48:174,1,44.5,2|8,0:2|0:2,0:0:0:0:
181,77,188204,5,2,0:2:0:0:
181,77,188288,1,2,0:0:0:0:
181,77,188373,1,2,3:2:0:0:
140,202,188541,1,2,3:2:0:0:
32,37,188710,2,0,P|111:52|154:2,1,133.5,10|8,0:2|0:2,0:0:0:0:
235,18,189047,2,0,P|286:26|321:36,1,89,2|0,3:2|3:2,0:0:0:0:
365,194,189384,1,2,0:2:0:0:
197,229,189552,6,0,B|191:168|255:109|255:109|276:167,1,178,8|2,0:2|3:2,0:0:0:0:
344,286,190058,2,0,P|350:339|356:383,1,89,10|8,0:2|0:0,0:0:0:0:
354,374,190311,1,8,0:2:0:0:
354,374,190395,1,2,3:2:0:0:
419,180,190564,1,2,3:2:0:0:
278,239,190732,1,10,0:2:0:0:
477,282,190901,1,2,0:2:0:0:
385,93,191069,5,2,3:2:0:0:
385,93,191238,1,0,3:2:0:0:
400,266,191406,2,0,P|407:219|426:162,1,89,10|10,0:2|0:2,0:0:0:0:
504,19,191743,2,0,B|371:59|371:59|382:10,1,178,2|2,3:2|0:2,0:0:0:0:
499,134,192249,1,8,0:2:0:0:
271,53,192417,5,2,0:2:0:0:
344,183,192586,1,2,3:2:0:0:
378,4,192755,1,10,0:2:0:0:
212,137,192923,5,10,0:2:0:0:
212,137,193007,1,8,0:2:0:0:
212,137,193092,1,2,3:2:0:0:
402,190,193260,1,2,3:2:0:0:
255,251,193429,1,10,0:2:0:0:
460,254,193597,1,0,0:0:0:0:
363,119,193766,6,0,P|352:177|339:224,1,89,2|2,3:2|3:2,0:0:0:0:
200,337,194103,2,0,P|184:277|178:238,1,89,8|2,0:2|3:2,0:0:0:0:
42,103,194440,2,0,P|75:62|195:96,1,178,10|2,0:2|3:2,0:0:0:0:
350,237,194946,6,0,B|291:224|291:224|242:232|242:232|157:213,1,178,10|0,0:2|3:2,0:0:0:0:
26,111,195451,1,8,0:2:0:0:
114,317,195620,1,2,3:2:0:0:
187,177,195788,1,12,0:2:0:0:
43,236,195957,2,0,P|19:242|-8:243,2,44.5,8|8|8,0:2|0:2|0:2,0:0:0:0:
243,320,196294,5,8,0:2:0:0:
243,320,196378,1,8,0:2:0:0:
243,320,196462,2,0,P|303:337|347:353,1,89,6|2,3:2|3:2,0:0:0:0:
126,377,196799,2,0,B|101:318|134:243|134:243|185:229,1,178,14|2,0:2|3:2,0:0:0:0:
317,196,197305,1,2,3:2:0:0:
126,137,197474,1,2,0:2:0:0:
284,7,197642,6,0,P|268:74|254:111,1,89,10|2,0:2|0:2,0:0:0:0:
261,92,197895,1,2,0:2:0:0:
261,92,197979,1,2,3:2:0:0:
200,252,198148,1,10,0:2:0:0:
133,120,198316,5,10,0:2:0:0:
133,120,198401,1,8,0:2:0:0:
133,120,198485,1,2,3:2:0:0:
311,207,198653,1,2,3:2:0:0:
111,112,198822,1,10,0:2:0:0:
266,27,198990,1,2,0:2:0:0:
170,221,199159,6,0,P|109:240|62:247,1,89,2|0,3:2|3:2,0:0:0:0:
9,72,199496,2,0,P|55:32|152:63,1,133.5,10|8,0:2|0:2,0:0:0:0:
189,84,199833,2,0,P|244:67|285:47,1,89,2|0,3:2|3:2,0:0:0:0:
440,176,200170,1,2,0:2:0:0:
431,0,200339,6,0,B|370:39|365:117|365:117|418:79,1,178,10|0,0:2|3:2,0:0:0:0:
477,256,200844,2,0,P|410:237|336:230,1,133.5,10|10,0:2|0:2,0:0:0:0:
275,257,201181,1,2,3:2:0:0:
424,331,201350,2,0,P|431:358|441:399,2,44.5,0|2|12,3:2|0:2|0:2,0:0:0:0:
366,148,201687,1,2,0:2:0:0:
232,280,201856,5,2,3:2:0:0:
400,230,202024,1,2,3:2:0:0:
208,173,202193,1,10,0:2:0:0:
307,345,202361,5,10,0:2:0:0:
332,309,202446,1,8,0:2:0:0:
332,263,202530,1,2,3:2:0:0:
269,91,202698,1,2,3:2:0:0:
168,227,202867,1,2,0:2:0:0:
354,130,203035,6,0,P|287:170|190:122,1,178,10|2,0:2|3:2,0:0:0:0:
236,26,203457,2,0,P|237:49|240:71,1,44.5,0|10,0:0|0:2,0:0:0:0:
295,251,203710,5,10,0:2:0:0:
298,257,203794,1,8,0:2:0:0:
301,263,203878,1,2,3:2:0:0:
208,177,204047,1,2,3:2:0:0:
162,384,204215,1,10,0:2:0:0:
390,265,204384,1,10,0:2:0:0:
178,256,204552,6,0,P|126:241|44:199,1,133.5,6|0,3:2|0:0,0:0:0:0:
8,276,204889,2,0,P|62:260|119:248,1,89,8|2,0:2|3:2,0:0:0:0:
250,193,205226,1,8,0:2:0:0:
32,101,205395,1,0,3:2:0:0:
184,278,205564,1,2,3:2:0:0:
277,51,205732,6,0,B|337:14|412:32|412:32|436:85,1,178,12|8,0:2|0:2,0:0:0:0:
427,66,206153,1,8,0:2:0:0:
427,66,206238,1,8,0:2:0:0:
477,191,206406,1,8,0:3:0:0:
340,162,206575,1,8,0:3:0:0:
445,266,206743,1,8,0:3:0:0:
343,298,206912,1,4,0:3:0:0:
491,343,207080,1,4,0:3:0:0:
420,384,207249,5,6,3:2:0:0:
338,384,208597,1,2,0:0:0:0:
266,343,209946,1,2,0:0:0:0:
224,271,210451,1,2,0:0:0:0:
223,187,210788,1,2,0:0:0:0:
264,113,211294,2,0,B|312:95|356:126|356:126|386:166|438:158|438:158|392:163|349:197,1,267.000010185242,0|2,0:0|0:0,0:0:0:0:
206,54,212642,6,0,B|201:14|157:6|157:6|123:28|110:75|150:107|150:107|166:148|122:174,1,267.000010185242,2|2,0:0|0:0,0:0:0:0:
306,54,213990,2,0,B|311:14|355:6|355:6|389:28|402:75|362:107|362:107|346:148|390:174,1,267.000010185242,2|2,0:0|0:0,0:0:0:0:
131,145,215002,2,0,P|105:140|83:130,1,50.0625019097329,2|0,0:3|0:0,0:0:0:0:
205,99,215339,6,0,P|244:82|303:101,1,75.6500014429093,10|0,0:2|0:0,0:0:0:0:
228,234,215676,2,0,P|223:276|177:317,1,75.6500014429093,2|2,3:2|0:2,0:0:0:0:
256,160,216013,2,0,P|290:185|303:245,1,75.6500014429093,8|2,0:2|0:2,0:0:0:0:
151,242,216350,2,0,P|112:259|53:240,1,75.6500014429093,0|2,3:2|0:2,0:0:0:0:
238,383,216687,6,0,L|325:367,1,80.0999975555421,10|0,0:2|0:0,0:0:0:0:
453,220,217024,2,0,L|374:206,1,80.0999975555421,0|0,3:2|0:0,0:0:0:0:
416,384,217361,2,0,L|402:305,1,80.0999975555421,8|0,0:2|3:2,0:0:0:0:
288,154,217698,2,0,L|274:232,1,80.0999975555421,4|2,0:3|3:2,0:0:0:0:
90,299,218035,6,0,P|46:274|22:230,1,84.5499977422715,10|0,0:2|0:0,0:0:0:0:
127,125,218373,2,0,P|110:163|113:205,1,84.5499977422715,2|2,3:2|0:2,0:0:0:0:
336,300,218710,2,0,P|310:266|273:247,1,84.5499977422715,8|2,0:2|0:2,0:0:0:0:
207,179,219047,2,0,P|242:156|284:152,1,84.5499977422715,0|2,3:2|0:2,0:0:0:0:
419,96,219384,6,0,B|434:48|434:48|419:0,1,89,8|0,0:2|0:0,0:0:0:0:
277,146,219721,2,0,B|262:194|262:194|277:242,1,89,2|0,3:2|3:2,0:0:0:0:
326,44,220058,2,0,B|278:29|278:29|230:44,1,89,10|2,0:2|3:2,0:0:0:0:
378,198,220395,2,0,B|531:225,1,133.5,4|0,0:3|0:0,0:0:0:0:
512,238,220732,5,14,0:2:0:0:
500,333,220901,1,8,0:0:0:0:
416,202,221069,5,8,0:2:0:0:
421,311,221238,1,8,0:2:0:0:
317,206,221406,5,10,0:2:0:0:
344,328,221575,1,10,0:2:0:0:
228,247,221743,5,10,0:2:0:0:
282,379,221912,1,8,0:2:0:0:
86,306,222080,5,10,0:2:0:0:
237,243,222249,1,10,0:2:0:0:
74,174,222417,5,10,0:2:0:0:
247,246,222586,1,10,0:2:0:0:
63,173,222755,5,10,0:2:0:0:
261,90,222924,1,8,0:2:0:0:
43,0,223092,5,10,0:2:0:0:
270,95,223261,1,10,0:2:0:0:
391,10,223429,5,10,0:2:0:0:
430,8,223513,1,8,0:3:0:0:
465,26,223597,1,0,3:2:0:0:
486,59,223681,1,4,0:3:0:0:
488,98,223766,2,0,L|438:89,1,46.7249985740662,8|8,0:2|3:2,0:0:0:0:
303,51,223934,5,10,0:2:0:0:
263,49,224018,1,8,0:3:0:0:
228,67,224102,1,0,3:2:0:0:
207,100,224186,1,4,0:3:0:0:
206,139,224271,2,0,L|255:130,1,46.7249985740662,8|0,0:2|3:2,0:0:0:0:
379,228,224440,5,10,0:2:0:0:
395,263,224524,1,8,0:3:0:0:
395,309,224608,1,4,0:3:0:0:
376,355,224693,1,0,3:2:0:0:
328,377,224777,6,0,P|278:379|233:338,1,93.4499971481324,10|0,0:2|0:0,0:0:0:0:
227,278,225030,2,0,P|255:240|325:228,1,93.4499971481324,10|0,0:2|0:0,0:0:0:0:
379,228,225283,1,10,0:2:0:0:
256,89,225451,6,0,P|200:118|150:108,1,102.350001952171,10|0,0:2|0:0,0:0:0:0:
8,5,225704,2,0,P|52:28|75:73,1,102.350001952171,10|0,0:2|0:0,0:0:0:0:
62,213,225957,2,0,P|69:188|84:168,1,51.1750009760857,14|0,0:2|0:0,0:0:0:0:
311,380,227474,6,0,B|346:334|328:266|268:240|219:259|219:259|253:215|223:152|223:152|237:171|261:178,1,358.2250068326,6|0,3:2|0:0,0:0:0:0:
333,184,228148,1,8,0:2:0:0:
411,132,228316,1,8,0:3:0:0:
379,45,228485,1,4,0:3:0:0:
227,71,228653,6,0,P|196:62|170:58,1,51.1750009760857,6|0,3:2|0:0,0:0:0:0:
0,261,228990,6,0,P|25:265|49:273,1,51.1750009760857,2|0,3:2|0:0,0:0:0:0:
204,81,229328,6,0,P|173:72|147:68,1,51.1750009760857,6|0,3:2|0:0,0:0:0:0:
104,130,229496,2,0,P|73:139|47:143,3,51.1750009760857,8|8|4|0,0:2|0:3|0:3|3:2,0:0:0:0:
241,198,229833,2,0,P|185:187|123:251,1,153.525002928257,14|0,0:2|0:0,0:0:0:0:
199,265,230170,5,6,3:2:0:0:
167,334,230339,1,0,3:2:0:0:
260,309,230507,1,10,0:2:0:0:
266,384,230676,1,2,3:2:0:0:
335,302,230844,1,8,0:2:0:0:
377,363,231013,1,0,3:2:0:0:
383,240,231181,1,10,0:2:0:0:
470,264,231350,1,6,3:2:0:0:
470,264,231434,1,2,0:0:0:0:
470,264,231519,5,2,0:0:0:0:
467,228,231603,1,2,0:0:0:0:
452,196,231687,1,10,0:2:0:0:
427,173,231771,1,0,0:0:0:0:
391,161,231856,1,2,3:2:0:0:
356,164,231940,1,10,0:2:0:0:
324,180,232024,1,10,0:2:0:0:
301,207,232108,1,10,0:2:0:0:
294,242,232193,5,10,0:2:0:0:
272,274,232277,1,10,0:2:0:0:
235,294,232361,1,10,0:2:0:0:
189,296,232446,1,10,0:2:0:0:
144,276,232530,1,10,0:2:0:0:
114,233,232614,1,10,0:2:0:0:
113,177,232698,1,10,0:2:0:0:
146,127,232783,1,10,0:2:0:0:
209,104,232867,6,0,B|254:102|281:132|281:132|262:79|288:48,1,153.525002928257,6|0,3:2|0:0,0:0:0:0:
290,42,233204,1,8,0:2:0:0:
473,90,233373,1,10,0:2:0:0:
468,109,233457,1,8,0:2:0:0:
463,128,233541,2,0,P|450:181|443:232,1,102.350001952171,2|0,3:2|3:2,0:0:0:0:
387,29,233878,1,10,0:2:0:0:
296,259,234047,1,2,3:2:0:0:
300,238,234131,1,2,3:2:0:0:
312,222,234215,6,0,P|382:190|447:238,1,153.525002928257,2|0,0:0|0:0,0:0:0:0:
484,318,234552,2,0,P|431:305|380:298,1,102.350001952171,10|8,0:2|0:0,0:0:0:0:
367,306,234805,1,8,0:2:0:0:
367,306,234889,1,2,3:2:0:0:
190,251,235058,1,8,0:2:0:0:
154,250,235142,1,8,0:2:0:0:
122,265,235226,1,2,3:2:0:0:
100,293,235310,1,8,0:2:0:0:
93,328,235395,2,0,L|98:382,1,51.1750009760857,8|0,0:2|0:0,0:0:0:0:
239,262,235564,6,0,P|214:256|189:250,1,51.1750009760857,6|0,3:2|0:0,0:0:0:0:
28,133,235732,2,0,P|40:182|51:233,1,102.350001952171,0|8,3:2|0:2,0:0:0:0:
194,6,236069,6,0,B|231:43|218:102|218:102|191:65|145:73,1,153.525002928257,6|0,3:2|0:0,0:0:0:0:
157,73,236406,1,4,0:3:0:0:
311,22,236575,1,8,0:2:0:0:
197,230,236743,6,0,B|180:280|180:280|184:336|221:377,1,153.525002928257,6|0,3:2|0:0,0:0:0:0:
232,384,237080,1,2,3:2:0:0:
393,229,237249,1,8,0:2:0:0:
276,293,237417,1,6,3:2:0:0:
468,379,237586,1,6,3:2:0:0:
483,197,237755,1,8,0:2:0:0:
464,166,237839,1,8,0:2:0:0:
436,144,237923,1,8,0:2:0:0:
402,134,238007,1,8,0:2:0:0:
366,137,238092,1,10,0:2:0:0:
334,153,238176,1,8,0:2:0:0:
313,181,238260,6,0,P|239:160|153:150,1,153.525002928257,6|0,3:2|0:0,0:0:0:0:
142,153,238597,1,14,0:2:0:0:
0,29,238766,2,0,P|54:13|109:6,1,102.350001952171,10|0,0:2|3:2,0:0:0:0:
59,204,239103,1,2,3:2:0:0:
190,32,239272,1,8,0:2:0:0:
274,256,239440,6,0,B|236:234|202:252|202:252|168:290|120:286,1,153.525002928257,6|0,3:2|0:0,0:0:0:0:
113,286,239777,1,2,3:2:0:0:
303,382,239946,1,8,0:2:0:0:
307,193,240114,1,10,0:2:0:0:
299,173,240198,1,8,0:2:0:0:
290,155,240283,2,0,P|279:213|273:259,1,102.350001952171,0|0,3:2|3:2,0:0:0:0:
512,276,240620,2,0,P|461:215|381:233,1,153.525002928257,14|0,0:2|0:2,0:0:0:0:
436,290,240957,6,0,P|449:223|441:169,1,102.350001952171,6|0,3:2|3:2,0:0:0:0:
306,19,241294,1,10,0:2:0:0:
445,189,241462,1,10,0:2:0:0:
445,189,241547,1,8,0:0:0:0:
445,189,241631,1,0,3:2:0:0:
240,232,241799,1,4,0:3:0:0:
306,19,241968,1,8,0:2:0:0:
356,302,242137,6,0,P|351:257|344:235,1,51.1750009760857,2|0,3:2|0:0,0:0:0:0:
149,71,242474,6,0,P|144:116|137:138,1,51.1750009760857,2|0,3:2|0:0,0:0:0:0:
67,377,242811,6,0,B|39:349|45:316|45:316|80:295|86:236,1,153.525002928257,2|0,3:2|0:0,0:0:0:0:
88,223,243148,1,8,0:2:0:0:
120,236,243232,1,8,0:2:0:0:
155,239,243316,1,10,0:2:0:0:
188,226,243401,1,8,0:3:0:0:
211,199,243485,1,4,0:3:0:0:
221,164,243569,1,4,0:3:0:0:
211,129,243653,6,0,B|250:146|250:146|328:131,1,102.350001952171,10|0,0:2|0:0,0:0:0:0:
349,215,243906,2,0,B|383:189|383:189|409:114,1,102.350001952171,10|0,0:2|0:0,0:0:0:0:
485,109,244159,2,0,B|475:80|475:80|445:48,1,51.1750009760857,10|0,0:2|0:0,0:0:0:0:
393,8,244328,1,10,0:2:0:0:
485,275,244665,6,0,B|475:303|475:303|445:335,1,51.1750009760857,6|0,3:3|0:0,0:0:0:0:
211,255,245002,6,0,B|250:238|250:238|328:253,1,102.350001952171,10|0,0:2|0:0,0:0:0:0:
349,169,245255,2,0,B|383:194|383:194|409:269,1,102.350001952171,10|0,0:2|0:0,0:0:0:0:
485,275,245508,2,0,B|475:303|475:303|445:335,1,51.1750009760857,10|0,0:2|0:0,0:0:0:0:
393,377,245677,1,10,0:2:0:0:
106,136,245929,1,8,0:2:0:0:
106,136,246014,2,0,P|96:167|97:197,1,51.1750009760857,10|0,0:2|0:0,0:0:0:0:
51,71,246181,6,0,P|14:156|13:235,1,153.525002928257,6|0,3:2|0:0,0:0:0:0:
15,236,246519,1,0,3:2:0:0:
224,176,246687,1,8,0:2:0:0:
6,140,246856,1,8,0:2:0:0:
6,140,246940,1,8,0:2:0:0:
6,140,247024,1,0,3:2:0:0:
225,40,247193,1,2,3:2:0:0:
229,59,247277,1,0,3:2:0:0:
239,77,247361,6,0,B|242:85|272:94|272:94|213:108|165:64,1,153.525002928257,14|0,0:2|0:0,0:0:0:0:
126,184,247698,6,0,L|118:134,1,51.1750009760857,10|0,0:2|0:0,0:0:0:0:
215,226,247867,6,0,L|223:175,1,51.1750009760857,10|0,0:2|0:0,0:0:0:0:
128,322,248035,6,0,L|137:272,1,51.1750009760857,10|0,0:2|0:0,0:0:0:0:
209,380,248204,1,8,0:2:0:0:
209,380,248288,1,8,0:2:0:0:
209,380,248373,5,10,0:2:0:0:
231,352,248457,1,8,0:2:0:0:
263,337,248541,1,8,0:3:0:0:
298,337,248625,1,8,0:2:0:0:
331,351,248710,5,10,0:2:0:0:
298,365,248794,1,8,0:3:0:0:
262,360,248878,1,4,0:3:0:0:
235,335,248962,1,4,0:3:0:0:
221,301,249047,6,0,B|217:243|266:222|266:222|248:157,1,153.525002928257,6|0,3:2|0:0,0:0:0:0:
75,172,249384,2,0,P|126:180|176:192,1,102.350001952171,12|0,0:2|0:0,0:0:0:0:
303,7,249721,1,2,3:2:0:0:
176,192,249889,1,2,3:2:0:0:
160,30,250058,1,10,0:2:0:0:
345,157,250226,6,0,B|403:146|454:187|454:187|426:180|381:204,1,153.525002928257,2|0,3:2|0:0,0:0:0:0:
358,241,250564,2,0,P|402:267|452:263,1,102.350001952171,2|8,3:2|0:2,0:0:0:0:
271,377,250901,1,10,0:2:0:0:
251,381,250985,1,8,0:2:0:0:
230,383,251069,6,0,B|218:318|218:318|202:291|202:291|192:233,1,153.525002928257,0|0,3:2|0:0,0:0:0:0:
189,215,251406,1,10,0:2:0:0:
83,36,251575,1,10,0:2:0:0:
95,21,251659,1,8,0:2:0:0:
113,11,251743,6,0,P|174:-6|237:61,1,153.525002928257,2|0,3:2|0:0,0:0:0:0:
237,70,252080,1,10,0:2:0:0:
20,109,252249,1,10,0:2:0:0:
113,11,252417,1,0,3:2:0:0:
144,168,252586,1,0,3:2:0:0:
336,60,252755,1,10,0:2:0:0:
475,231,252923,1,10,0:2:0:0:
455,223,253007,1,8,0:0:0:0:
435,217,253092,6,0,B|395:259|395:259|394:305|427:367,1,153.525002928257,0|0,3:2|0:0,0:0:0:0:
429,368,253429,1,10,0:2:0:0:
340,182,253597,1,10,0:2:0:0:
242,376,253766,2,0,P|178:362|121:353,1,102.350001952171,2|8,3:2|0:2,0:0:0:0:
160,275,254019,1,8,0:2:0:0:
160,275,254103,2,0,P|224:289|281:298,1,102.350001952171,10|4,0:2|0:3,0:0:0:0:
404,121,254440,6,0,P|379:103|348:99,1,50.997002801349,6|0,3:2|3:2,0:0:0:0:
460,130,254777,6,0,P|414:78|322:58,1,153.525002928257,12|0,0:2|0:0,0:0:0:0:
315,62,255114,1,2,3:2:0:0:
271,148,255283,1,0,3:2:0:0:
23,207,255451,6,0,P|69:155|161:135,1,153.525002928257,14|0,0:2|0:2,0:0:0:0:
168,139,255788,1,2,3:2:0:0:
212,225,255957,2,0,L|204:280,1,51.1750009760857,0|0,3:2|3:2,0:0:0:0:
457,286,256125,6,0,P|411:234|319:214,1,153.525002928257,14|0,0:2|0:0,0:0:0:0:
312,218,256462,1,2,3:2:0:0:
134,313,256631,1,8,0:2:0:0:
161,336,256716,1,8,0:2:0:0:
195,348,256800,1,8,0:2:0:0:
231,347,256884,1,8,0:3:0:0:
264,334,256968,2,0,L|270:394,1,51.1750009760857,4|4,0:3|0:3,0:0:0:0:
483,384,257137,6,0,P|504:324|471:270,1,102.350001952171,6|0,3:2|3:2,0:0:0:0:
363,383,257474,1,8,0:2:0:0:
392,115,257642,6,0,P|381:221|375:285,1,153.525002928257,6|0,3:2|0:0,0:0:0:0:
373,288,257979,1,2,3:2:0:0:
482,144,258148,1,8,0:2:0:0:
257,35,258316,6,0,B|244:81|191:88|191:88|171:55|118:53,1,153.525002928257,6|0,3:2|0:0,0:0:0:0:
118,55,258653,1,2,3:2:0:0:
6,232,258822,1,14,0:2:0:0:
6,7,258990,1,10,0:2:0:0:
14,42,259075,1,8,0:2:0:0:
23,76,259159,1,2,3:2:0:0:
31,110,259243,1,8,0:2:0:0:
40,144,259328,1,8,0:2:0:0:
16,371,259496,2,0,L|25:317,1,51.1750009760857,8|8,0:2|0:3,0:0:0:0:
107,263,259665,2,0,L|116:316,1,51.1750009760857,4|4,0:3|0:3,0:0:0:0:
317,382,259833,6,0,B|336:338|299:310|299:310|253:316|248:357,1,153.525002928257,6|0,3:2|3:2,0:0:0:0:
248,374,260170,1,14,0:2:0:0:
465,258,260339,2,0,P|399:246|344:239,1,102.350001952171,2|0,0:2|3:2,0:0:0:0:
250,201,260676,1,2,3:2:0:0:
404,78,260844,1,8,0:2:0:0:
127,37,261013,6,0,B|156:55|173:124|173:124|162:176,1,153.525002928257,6|0,3:2|0:0,0:0:0:0:
156,195,261350,1,2,3:2:0:0:
33,62,261519,1,8,0:2:0:0:
248,0,261687,1,10,0:2:0:0:
260,15,261771,1,8,0:2:0:0:
269,33,261856,2,0,P|257:80|249:143,1,102.350001952171,0|0,3:2|3:2,0:0:0:0:
286,337,262193,1,10,0:2:0:0:
156,195,262361,1,10,0:2:0:0:
358,382,262530,6,0,P|301:353|196:352,1,153.525002928257,6|0,3:2|0:0,0:0:0:0:
194,358,262867,1,14,0:2:0:0:
395,263,263035,1,2,3:2:0:0:
217,135,263204,1,12,0:2:0:0:
16,230,263372,1,2,3:2:0:0:
16,230,263457,1,0,3:2:0:0:
16,230,263541,1,0,3:2:0:0:
308,186,263710,6,0,P|334:182|359:177,1,51.1750009760857,10|0,0:2|0:0,0:0:0:0:
143,52,264047,6,0,P|113:48|80:40,1,51.1750009760857,10|0,0:2|0:0,0:0:0:0:
2,23,264215,1,0,3:2:0:0:
140,223,264384,6,0,B|156:270|156:270|152:334|110:374,1,153.525002928257,10|0,0:2|0:0,0:0:0:0:
16,292,264721,2,0,L|67:301,1,51.1750009760857,8|8,0:2|0:2,0:0:0:0:
226,370,264889,1,8,0:2:0:0:
259,382,264973,1,8,0:3:0:0:
294,379,265057,1,4,0:3:0:0:
325,361,265141,1,4,0:3:0:0:
345,331,265226,6,0,B|323:299|323:299|321:261|350:232,1,102.350001952171,10|0,0:2|0:0,0:0:0:0:
508,326,265479,2,0,B|491:361|491:361|459:382|431:374,1,102.350001952171,10|0,0:2|0:0,0:0:0:0:
431,211,265732,2,0,P|456:219|476:234,1,51.1750009760857,10|0,0:2|0:0,0:0:0:0:
419,292,265901,1,10,0:2:0:0:
80,211,266238,6,0,P|55:219|35:234,1,51.1750009760857,2|0,3:3|0:0,0:0:0:0:
167,331,266575,6,0,B|189:299|189:299|191:261|162:232,1,102.350001952171,10|0,0:2|0:0,0:0:0:0:
3,326,266828,2,0,B|20:361|20:361|52:382|81:374,1,102.350001952171,10|0,0:2|0:0,0:0:0:0:
80,211,267081,2,0,P|55:219|35:234,1,51.1750009760857,10|0,0:2|0:0,0:0:0:0:
93,292,267250,1,10,0:2:0:0:
98,292,267333,1,8,0:3:0:0:
93,287,267417,1,4,0:3:0:0:
92,142,267586,2,0,P|87:167|83:192,1,51.1750009760857,10|0,0:2|0:0,0:0:0:0:
251,18,267755,6,0,P|278:64|381:66,1,153.525002928257,6|0,3:2|0:0,0:0:0:0:
387,60,268092,1,0,3:2:0:0:
296,206,268260,1,8,0:2:0:0:
251,18,268429,1,8,0:2:0:0:
251,18,268513,1,8,0:2:0:0:
251,18,268597,1,0,3:2:0:0:
428,166,268766,1,2,3:2:0:0:
419,184,268850,1,0,3:2:0:0:
408,201,268934,6,0,B|438:237|438:237|433:292|393:360,1,153.525002928257,14|0,0:2|0:0,0:0:0:0:
322,383,269271,6,0,P|316:350|304:326,1,51.1750009760857,10|0,0:2|0:0,0:0:0:0:
261,253,269440,6,0,P|235:228|201:215,1,51.1750009760857,10|0,0:2|0:0,0:0:0:0:
131,195,269608,6,0,P|104:197|62:213,1,51.1750009760857,10|0,0:2|0:0,0:0:0:0:
444,69,270451,6,0,B|399:91|399:91|344:88|295:48,1,153.525002928257,6|0,3:2|0:0,0:0:0:0:
296,35,270788,1,2,3:2:0:0:
383,10,270957,1,8,0:2:0:0:
438,305,271125,6,0,B|413:255|413:255|417:195|460:142,1,166.875,6|0,3:2|0:0,0:0:0:0:
475,143,271462,1,2,3:2:0:0:
502,237,271631,1,8,0:2:0:0:
184,315,271799,6,0,B|237:289|237:289|302:292|359:339,1,180.225000687504,6|0,3:2|0:0,0:0:0:0:
359,355,272136,1,2,3:2:0:0:
257,384,272305,1,8,0:2:0:0:
283,149,272474,2,0,P|288:178|290:208,1,51.1750009760857,6|0,3:2|0:0,0:0:0:0:
184,315,272642,1,8,0:2:0:0:
150,302,272726,1,8,0:2:0:0:
115,304,272810,1,8,0:3:0:0:
84,321,272894,1,4,0:3:0:0:
63,350,272979,6,0,B|101:378|101:378|110:331|79:263,1,153.525002928257,14|0,0:2|0:0,0:0:0:0:
45,175,273316,6,0,B|12:233|12:233|66:172|128:204,1,193.57500590744,14|0,0:0|0:0,0:0:0:0:
145,217,273653,1,0,3:2:0:0:
318,0,273822,6,0,B|351:58|351:58|297:-3|235:29,1,193.57500590744,14|0,0:0|0:0,0:0:0:0:
218,42,274159,1,0,3:2:0:0:
245,246,274328,1,8,0:0:0:0:
502,168,274496,6,0,P|411:147|304:137,1,193.57500590744,6|0,3:2|0:0,0:0:0:0:
286,144,274833,1,8,0:0:0:0:
478,67,275002,1,8,0:0:0:0:
263,153,275170,1,8,0:0:0:0:
467,256,275339,1,10,0:2:0:0:
428,256,275423,1,8,0:3:0:0:
390,266,275507,1,4,0:3:0:0:
358,289,275592,1,4,0:3:0:0:
341,323,275676,2,0,L|414:333,1,64.5250019691468,12|0,0:2|0:0,0:0:0:0:
182,131,276013,6,0,L|174:188,1,51.1750009760857,2|0,3:2|0:0,0:0:0:0:
10,353,276519,6,0,B|54:380|54:380|108:380|153:340,1,153.525002928257,6|0,3:2|0:0,0:0:0:0:
158,327,276856,1,10,0:0:0:0:
0,261,277024,1,8,0:0:0:0:
150,53,277193,6,0,P|127:116|108:214,1,153.525002928257,6|0,3:2|0:0,0:0:0:0:
107,221,277530,1,2,3:2:0:0:
254,81,277698,1,10,0:0:0:0:
289,76,277783,1,8,0:0:0:0:
322,86,277867,1,10,0:0:0:0:
347,110,277951,1,8,0:0:0:0:
356,144,278035,2,0,P|343:203|334:263,1,102.350001952171,10|0,0:0|3:2,0:0:0:0:
427,378,278373,1,12,0:0:0:0:
253,263,278541,1,2,0:2:0:0:
455,92,278710,6,0,P|446:125|440:155,1,51.1750009760857,6|0,3:2|0:0,0:0:0:0:
289,383,279215,2,0,B|265:341|222:341|222:341|200:366|160:372,1,153.525002928257,2|0,3:2|0:0,0:0:0:0:
140,369,279552,1,10,0:0:0:0:
10,244,279721,1,8,0:0:0:0:
271,255,279889,6,0,B|202:214|152:219|152:219|206:210|250:185,1,204.700003904343,6|0,3:2|3:2,0:0:0:0:
318,42,280395,1,8,0:0:0:0:
404,243,280564,1,0,3:2:0:0:
404,243,280648,1,0,3:2:0:0:
404,243,280732,1,2,3:2:0:0:
469,39,280901,1,10,0:0:0:0:
277,131,281069,2,0,P|214:117|160:107,1,102.350001952171,10|2,0:0|3:2,0:0:0:0:
25,316,281406,6,0,B|51:265|51:265|42:323|62:376,1,153.525002928257,14|0,0:0|0:0,0:0:0:0:
62,380,281743,1,10,0:0:0:0:
240,320,281912,2,0,P|169:307|116:304,1,102.350001952171,2|0,3:2|0:0,0:0:0:0:
10,181,282249,1,2,3:2:0:0:
138,304,282417,1,8,0:0:0:0:
129,28,282586,6,0,B|153:80|153:80|158:144|101:230,1,204.700003904343,6|8,3:2|0:3,0:0:0:0:
59,99,283092,2,0,P|47:38|35:-4,1,102.350001952171,4|0,0:3|3:2,0:0:0:0:
246,142,283429,6,0,B|331:117|303:188|388:164,1,142.4,6|6,3:2|3:2,0:0:0:0:
338,84,286125,6,0,P|340:61|350:36,3,46.7249985740662,8|8|4|8,0:2|0:2|0:3|0:2,0:0:0:0:
401,133,286462,6,0,P|414:114|435:97,3,46.7249985740662,8|8|4|4,0:2|0:3|0:3|0:3,0:0:0:0:
259,114,286799,6,0,P|193:101|116:91,1,140.174995722199,6|0,3:2|0:0,0:0:0:0:
7,185,287137,2,0,P|53:176|99:168,1,93.4499971481324,12|2,0:2|0:2,0:0:0:0:
266,235,287474,1,2,3:2:0:0:
150,362,287642,2,0,P|104:353|58:345,1,93.4499971481324,2|0,3:2|0:0,0:0:0:0:
314,384,287979,6,0,B|294:279|367:319|345:207,1,186.899994296265,8|2,0:2|3:2,0:0:0:0:
291,41,288485,2,0,P|255:18|187:27,1,93.4499971481324,10|0,0:2|3:2,0:0:0:0:
191,28,288738,1,0,3:2:0:0:
191,28,288822,1,10,0:2:0:0:
352,119,288990,1,2,3:2:0:0:
169,171,289159,1,10,0:2:0:0:
366,114,289328,1,2,0:2:0:0:
384,110,289412,1,2,0:0:0:0:
401,105,289496,6,0,B|435:131|435:131|441:180|410:246,1,140.174995722199,2|0,3:2|0:0,0:0:0:0:
341,186,289833,2,0,P|335:232|350:276,1,93.4499971481324,8|2,0:2|3:2,0:0:0:0:
366,292,290086,1,8,0:2:0:0:
367,292,290170,1,2,3:2:0:0:
211,377,290339,2,0,P|148:366|107:360,1,93.4499971481324,2|2,3:2|0:2,0:0:0:0:
16,177,290676,6,0,P|31:231|153:250,1,186.899994296265,8|2,0:2|3:2,0:0:0:0:
199,83,291181,1,8,0:2:0:0:
106,176,291350,1,0,0:0:0:0:
278,146,291519,1,10,0:2:0:0:
100,77,291687,1,0,3:2:0:0:
277,28,291856,1,10,0:2:0:0:
308,21,291940,1,2,0:0:0:0:
340,27,292024,1,2,0:2:0:0:
366,46,292108,1,2,0:0:0:0:
383,74,292193,6,0,B|397:157|397:157|368:212,1,140.174995722199,6|0,3:2|0:0,0:0:0:0:
357,219,292530,1,8,0:2:0:0:
478,95,292698,1,10,0:2:0:0:
478,95,292783,1,8,0:2:0:0:
478,95,292867,1,0,3:2:0:0:
494,266,293035,2,0,P|485:312|475:360,1,93.4499971481324,0|2,3:2|0:2,0:0:0:0:
243,384,293373,6,0,B|207:343|240:286|240:286|271:261|269:208,1,186.899994296265,8|2,0:2|3:2,0:0:0:0:
111,35,293878,1,8,0:2:0:0:
178,218,294047,1,0,0:0:0:0:
103,18,294215,1,10,0:2:0:0:
288,73,294384,1,0,3:2:0:0:
90,138,294552,2,0,P|29:126|-18:120,1,93.4499971481324,10|0,0:2|0:0,0:0:0:0:
25,377,294889,6,0,P|78:327|162:352,1,153.525002928257,12|0,0:2|0:0,0:0:0:0:
161,360,295226,2,0,P|155:296|175:235,1,102.350001952171,8|2,0:2|3:2,0:0:0:0:
381,347,295564,1,10,0:2:0:0:
163,259,295732,1,2,3:2:0:0:
380,185,295901,1,10,0:2:0:0:
168,11,296069,6,0,B|201:51|192:103|192:103|165:71|128:73,1,153.525002928257,6|0,3:2|0:0,0:0:0:0:
125,70,296406,1,0,3:2:0:0:
288,145,296575,1,8,0:2:0:0:
163,259,296743,1,10,0:2:0:0:
368,189,296912,5,2,3:2:0:0:
79,169,297080,1,8,0:3:0:0:
383,68,297249,5,10,0:2:0:0:
40,292,297417,1,10,0:2:0:0:
