osu file format v14

[General]
AudioFilename: audio.mp3
AudioLeadIn: 0
PreviewTime: 51507
Countdown: 0
SampleSet: Soft
StackLeniency: 0.5
Mode: 0
LetterboxInBreaks: 0
WidescreenStoryboard: 0

[Editor]
Bookmarks: 11811,17209,27996,38782,52266,87316
DistanceSpacing: 1
BeatDivisor: 4
GridSize: 4
TimelineZoom: 1

[Metadata]
Title:Ashita no Kimi sae Ireba Ii.
TitleUnicode:明日の君さえいればいい。
Artist:ChouCho
ArtistUnicode:ChouCho
Creator:Meg
Version:Insane
Source:妹さえいればいい。
Tags:ちょうちょ IMOTO SAE IREBA II. imouto opening op iMage-- カントク Kantoku 平坂読 Hirasaka Yomi
BeatmapID:1436435
BeatmapSetID:679369

[Difficulty]
HPDrainRate:6
CircleSize:4
OverallDifficulty:8
ApproachRate:9
SliderMultiplier:1.78
SliderTickRate:1

[Events]
//Background and Video events
0,0,"imouto.jpg",0,0
//Break Periods
//Storyboard Layer 0 (Background)
//Storyboard Layer 1 (Fail)
//Storyboard Layer 2 (Pass)
//Storyboard Layer 3 (Foreground)
//Storyboard Sound Samples

[TimingPoints]
1025,342.857142857143,4,2,2,50,1,0
1025,-133.333333333333,4,2,2,50,0,0
1882,337.078651685393,4,2,2,50,1,0
1882,-133.333333333333,4,2,2,50,0,0
3061,333.333333333333,4,2,2,50,1,0
3061,-133.333333333333,4,2,2,50,0,0
3727,338.983050847458,4,2,2,50,1,0
3727,-133.333333333333,4,2,2,50,0,0
5082,337.078651685393,4,2,2,50,1,0
5082,-133.333333333333,4,2,2,50,0,0
9126,340.909090909091,4,2,2,60,1,0
10489,-100,4,2,1,60,0,0
11137,337.078651685393,4,2,1,60,1,0
11811,342.857142857143,4,2,1,60,1,0
12668,329.67032967033,4,2,1,60,1,0
12997,337.078651685393,4,2,1,60,1,0
12997,-100,4,2,1,60,0,0
13165,337.078651685393,4,2,1,60,1,0
27659,-83.3333333333333,4,2,1,60,0,0
27996,-83.3333333333333,4,2,2,40,0,0
29176,-83.3333333333333,4,2,1,60,0,0
29513,-100,4,2,1,60,0,0
33389,-111.111111111111,4,2,1,60,0,0
33726,-90.9090909090909,4,2,1,60,0,0
34063,-111.111111111111,4,2,1,60,0,0
34400,-90.9090909090909,4,2,1,60,0,0
35412,-111.111111111111,4,2,1,60,0,0
36086,-90.9090909090909,4,2,1,60,0,0
38445,-111.111111111111,4,2,1,60,0,0
39962,-90.9090909090908,4,2,1,60,0,0
40636,-100,4,2,1,60,0,0
41479,-90.9090909090909,4,2,1,60,0,0
42659,-111.111111111111,4,2,1,60,0,0
43839,-83.3333333333333,4,2,1,60,0,0
44176,-90.9090909090909,4,2,1,60,0,0
44850,-83.3333333333333,4,2,1,60,0,0
45524,-100,4,2,1,60,0,0
49569,-90.9090909090909,4,2,1,60,0,0
52266,-90.9090909090909,4,2,1,70,0,1
60356,-83.3333333333333,4,2,1,70,0,1
63052,-90.9090909090909,4,2,1,70,0,1
67771,333.333333333333,4,2,1,70,1,1
67771,-90.9090909090909,4,2,1,70,0,1
68437,333.333333333333,4,2,1,70,1,1
68437,-90.9090909090909,4,2,1,70,0,1
69104,337.078651685393,4,2,1,70,1,1
69778,337.078651685393,4,2,1,70,1,1
69778,-90.9090909090909,4,2,1,70,0,1
72474,340.909090909091,4,2,1,70,1,1
72474,-90.9090909090909,4,2,1,70,0,1
73667,337.078651685393,4,2,1,70,1,1
73667,-90.9090909090909,4,2,1,70,0,1
73835,337.078651685393,4,2,1,70,1,1
73835,-90.9090909090909,4,2,1,70,0,1
77711,333.333333333333,4,2,1,70,1,1
77711,-90.9090909090909,4,2,1,70,0,1
77877,333.333333333333,4,2,1,70,1,1
79211,337.078651685393,4,2,1,70,1,1
79716,-83.3333333333333,4,2,1,70,0,1
80390,340.909090909091,4,2,1,70,1,1
80390,-83.3333333333333,4,2,1,70,0,1
80560,340.909090909091,4,2,1,70,1,1
80560,-83.3333333333333,4,2,1,70,0,1
81924,337.078651685393,4,2,1,70,1,1
81924,-83.3333333333333,4,2,1,70,0,1
84620,337.078651685393,4,2,1,70,1,1
86642,-133.333333333333,4,2,1,70,0,1
87316,-133.333333333333,4,2,1,60,0,0
87653,-133.333333333333,4,2,1,40,0,0
87990,-133.333333333333,4,2,1,20,0,0
88327,-133.333333333333,4,2,1,10,0,0
88664,-133.333333333333,4,2,1,5,0,0

[Colours]
Combo1 : 255,255,0
Combo2 : 255,157,206
Combo3 : 254,174,27
Combo4 : 0,181,181

[HitObjects]
465,104,1025,6,0,P|409:70|344:81,1,133.500005092621,2|0,0:0|0:0,0:0:0:0:
243,125,1539,2,0,L|229:190,1,66.7500025463105,2|0,0:0|0:0,0:0:0:0:
374,298,1882,2,0,L|361:233,1,66.7500025463105,2|0,0:0|0:0,0:0:0:0:
157,243,2219,1,0,0:0:0:0:
157,243,2387,6,0,P|214:277|278:265,1,133.500005092621,2|0,0:0|0:0,0:0:0:0:
277,265,2893,1,2,0:0:0:0:
82,353,3061,2,0,P|73:288|77:221,1,133.500005092621,2|0,0:0|0:0,0:0:0:0:
102,39,3560,1,0,0:0:0:0:
23,82,3727,6,0,P|73:124|138:121,1,133.500005092621,2|2,0:0|0:0,0:0:0:0:
263,40,4235,2,0,P|295:50|328:57,1,66.7500025463105,2|0,0:0|0:0,0:0:0:0:
440,135,4574,2,0,P|407:142|375:151,1,66.7500025463105,2|0,0:0|0:0,0:0:0:0:
277,265,4913,1,2,0:0:0:0:
277,265,5082,6,0,B|257:200|257:200|276:137,1,133.500005092621,2|0,0:0|0:0,0:0:0:0:
275,137,5587,1,2,0:0:0:0:
381,279,5756,2,0,P|369:310|352:339,2,66.7500025463105,2|0|0,0:0|0:0|0:0,0:0:0:0:
124,282,6430,6,0,P|189:293|256:301,1,133.500005092621,2|0,0:0|0:0,0:0:0:0:
101,190,6935,2,0,P|70:202|46:224,1,66.7500025463105,2|0,0:0|0:0,0:0:0:0:
236,185,7273,2,0,P|229:152|227:118,1,66.7500025463105,2|0,0:0|0:0,0:0:0:0:
124,282,7610,1,2,0:0:0:0:
236,373,7778,6,0,P|271:319|335:306,1,133.500005092621,2|0,0:0|0:0,0:0:0:0:
492,256,8452,2,0,L|502:355,2,100.125003819466,2|0|0,0:0|0:0|0:0,0:0:0:0:
481,156,9126,5,2,0:0:0:0:
135,273,10489,5,2,3:0:0:0:
377,111,10830,1,2,3:0:0:0:
371,248,11137,6,0,P|349:243|327:238,3,44.5,4|4|4|4,0:3|0:3|0:3|0:3,0:0:0:0:
305,218,11474,1,12,0:3:0:0:
261,224,11558,1,12,0:3:0:0:
227,252,11642,1,12,0:3:0:0:
212,293,11726,1,12,0:3:0:0:
221,336,11811,6,0,P|244:274|229:210,1,133.5,6|0,0:0|0:0,0:0:0:0:
148,174,12153,2,0,L|59:184,1,89,12|0,0:0|0:0,0:0:0:0:
327,238,12496,1,0,3:0:0:0:
265,63,12668,2,0,L|255:151,1,89,0|2,3:0|3:2,0:0:0:0:
304,331,12997,6,0,P|387:313|422:235,1,178,12|0,0:0|0:0,0:0:0:0:
256,152,13502,1,8,0:0:0:0:
327,238,13670,1,0,0:0:0:0:
327,238,13754,1,2,0:0:0:0:
327,238,13839,1,8,0:0:0:0:
292,50,14007,1,0,0:0:0:0:
148,174,14176,1,8,0:0:0:0:
256,152,14344,1,0,0:0:0:0:
77,58,14513,6,0,B|38:94|38:94|10:152|49:212,1,178,4|8,0:0|0:0,0:0:0:0:
147,348,15018,1,0,0:0:0:0:
168,343,15103,1,0,0:0:0:0:
190,338,15187,1,8,0:0:0:0:
388,301,15356,1,2,0:0:0:0:
364,263,15440,1,0,0:0:0:0:
327,238,15524,1,0,0:0:0:0:
284,230,15608,1,0,0:0:0:0:
241,239,15693,6,0,L|260:62,1,178,12|0,0:0|0:0,0:0:0:0:
339,160,16198,1,8,0:0:0:0:
162,140,16367,1,8,0:0:0:0:
384,42,16535,1,12,0:0:0:0:
464,141,16704,1,2,0:0:0:0:
464,141,16788,1,8,3:2:0:0:
464,141,16872,2,0,L|457:185,1,44.5,8|0,3:2|0:0,0:0:0:0:
380,232,17041,2,0,L|386:276,1,44.5,8|0,3:2|0:0,0:0:0:0:
463,323,17209,6,0,P|376:305|287:302,1,178,6|8,0:0|0:0,0:0:0:0:
192,180,17715,1,0,0:0:0:0:
98,312,17884,2,0,P|142:307|182:288,1,89,2|0,0:0|0:0,0:0:0:0:
369,143,18221,1,8,0:0:0:0:
287,301,18389,1,0,0:0:0:0:
192,180,18558,6,0,P|149:167|106:155,1,89,2|0,0:0|0:0,0:0:0:0:
324,51,18895,2,0,P|366:63|409:75,1,89,8|0,0:0|0:0,0:0:0:0:
421,90,19148,1,4,3:0:0:0:
433,105,19232,2,0,P|442:147|426:188,1,89,2|2,0:0|0:0,0:0:0:0:
223,338,19569,2,0,P|220:273|268:230,1,133.5,8|0,0:0|0:0,0:0:0:0:
300,230,19906,6,0,L|386:252,1,89,2|0,0:0|0:0,0:0:0:0:
199,115,20243,1,8,0:0:0:0:
102,251,20412,1,0,0:0:0:0:
102,251,20496,1,4,3:0:0:0:
102,251,20580,1,2,0:0:0:0:
59,133,20749,1,2,0:0:0:0:
79,353,20917,2,0,P|122:345|164:329,1,89,8|0,0:0|0:0,0:0:0:0:
300,183,21254,6,0,P|284:271|303:357,1,178,2|8,0:0|0:0,0:0:0:0:
192,180,21760,1,0,0:0:0:0:
170,174,21844,1,4,3:0:0:0:
148,169,21929,2,0,L|59:179,1,89,2|2,0:0|0:0,0:0:0:0:
238,10,22266,2,0,P|250:52|252:97,1,89,8|0,0:0|0:0,0:0:0:0:
138,288,22603,6,0,B|236:268|207:346|305:323,1,178,6|8,0:0|0:0,0:0:0:0:
452,248,23108,1,0,0:0:0:0:
286,167,23277,2,0,L|273:255,1,89,2|2,0:0|0:0,0:0:0:0:
174,52,23614,1,8,0:0:0:0:
174,52,23951,6,0,P|144:109|81:124,1,133.5,2|0,0:0|0:0,0:0:0:0:
0,116,24288,2,0,P|42:129|78:155,1,89,12|0,0:0|0:0,0:0:0:0:
222,308,24625,1,2,0:0:0:0:
73,353,24794,1,8,0:0:0:0:
170,182,24962,1,8,0:0:0:0:
170,182,25047,1,0,0:0:0:0:
170,182,25131,2,0,L|174:226,1,44.5
222,308,25299,6,0,L|309:292,1,89,6|0,0:0|0:0,0:0:0:0:
494,160,25636,2,0,L|406:144,1,89,8|0,0:0|0:0,0:0:0:0:
271,94,25973,1,8,0:0:0:0:
404,247,26142,1,2,0:0:0:0:
471,56,26311,1,2,0:0:0:0:
298,202,26479,6,0,P|280:287|335:353,1,178,6|2,0:0|0:0,0:0:0:0:
509,277,26985,1,8,3:0:0:0:
476,273,27069,1,0,3:0:0:0:
443,269,27153,1,0,3:0:0:0:
410,265,27238,1,0,3:0:0:0:
377,261,27322,1,4,3:3:0:0:
419,169,27490,1,4,0:3:0:0:
334,353,27659,6,0,P|265:313|187:299,1,160.199995111084,12|0,0:0|0:0,0:0:0:0:
80,337,27996,1,6,0:0:0:0:
131,74,29176,6,0,L|289:95,1,160.199995111084,12|0,0:0|0:0,0:0:0:0:
333,101,29513,5,4,0:0:0:0:
177,282,29681,2,0,P|163:240|180:199,1,89
420,142,30018,5,4,1:3:0:0:
216,359,30271,5,4,1:3:0:0:
131,74,30524,5,4,1:3:0:0:
271,228,30693,6,0,L|289:95,1,133.5,8|0,0:0|0:0,0:0:0:0:
348,37,31030,2,0,P|390:49|427:74,1,89,12|0,0:0|0:0,0:0:0:0:
460,279,31367,1,2,0:0:0:0:
271,228,31535,1,0,0:0:0:0:
383,179,31704,1,8,0:0:0:0:
228,322,31872,6,0,B|218:283|190:242|190:242|191:194|224:163,1,178,2|2,0:0|0:0,0:0:0:0:
123,318,32378,2,0,L|35:299,1,89,8|0,0:0|0:0,0:0:0:0:
35,299,32631,1,0,0:0:0:0:
35,299,32715,1,8,0:0:0:0:
130,78,32884,2,0,L|140:121,1,44.5,8|8,0:0|0:0,0:0:0:0:
215,206,33052,2,0,L|225:162,1,44.5,8|8,0:0|0:0,0:0:0:0:
255,32,33221,1,8,0:0:0:0:
450,182,33389,6,0,P|392:199|333:202,1,120.149996333313,10|0,0:0|0:0,0:0:0:0:
225,162,33726,6,0,P|292:146|333:202,1,146.850004481506,12|0,0:0|0:0,0:0:0:0:
239,297,34063,6,0,P|181:314|122:317,1,120.149996333313,10|0,0:0|0:0,0:0:0:0:
14,277,34400,6,0,P|81:261|122:317,1,146.850004481506,12|0,0:0|0:0,0:0:0:0:
115,350,34738,5,10,0:0:0:0:
225,162,34906,1,2,0:0:0:0:
247,380,35075,1,12,0:0:0:0:
103,217,35243,1,0,0:0:0:0:
315,263,35412,6,0,P|353:272|393:266,1,80.0999975555421,8|8,0:0|0:0,0:0:0:0:
266,88,35749,2,0,P|228:79|188:85,1,80.0999975555421,8|0,0:0|0:0,0:0:0:0:
204,309,36086,6,0,L|211:211,1,97.900002987671,6|0,0:0|0:0,0:0:0:0:
373,40,36423,2,0,L|380:137,1,97.900002987671,12|0,0:0|0:0,0:0:0:0:
383,347,36760,2,0,L|431:342,2,48.9500014938355,8|0|0,0:0|3:0|3:0,0:0:0:0:
212,212,37097,1,8,0:0:0:0:
444,240,37266,6,0,P|407:157|316:168,1,195.800005975342,6|0,0:0|0:0,0:0:0:0:
53,156,37771,2,0,L|198:178,1,146.850004481506,10|0,0:0|0:0,0:0:0:0:
212,212,38108,5,4,0:3:0:0:
253,28,38277,1,4,0:3:0:0:
381,138,38445,2,0,P|342:133|302:127,1,80.0999975555421,4|0,0:3|0:0,0:0:0:0:
88,53,38782,5,0,1:0:0:0:
302,280,39288,1,0,1:0:0:0:
212,212,39625,5,8,0:3:0:0:
316,168,39794,1,4,3:0:0:0:
197,324,39962,6,0,P|134:353|78:311,1,146.850004481506,8|0,0:0|0:0,0:0:0:0:
72,204,40299,2,0,L|78:155,2,48.9500014938355,12|8|8,0:0|0:0|0:0,0:0:0:0:
24,364,40636,6,0,P|108:335|197:324,1,178,6|0,0:0|0:0,0:0:0:0:
387,303,41142,2,0,P|343:295|301:279,1,89,12|0,0:0|0:0,0:0:0:0:
385,62,41479,6,0,P|416:125|382:187,1,146.850004481506,6|0,0:0|0:0,0:0:0:0:
361,203,41816,1,8,0:0:0:0:
157,75,41985,2,0,L|254:65,1,97.900002987671,0|0,3:0|3:0,0:0:0:0:
178,163,42322,1,2,3:2:0:0:
58,32,42490,1,2,3:2:0:0:
8,221,42659,5,8,0:0:0:0:
283,180,42996,2,0,L|271:259,1,80.0999975555421,4|4,0:3|0:3,0:0:0:0:
240,25,43333,1,4,0:0:0:0:
361,203,43502,1,8,0:0:0:0:
442,114,43670,1,4,0:3:0:0:
442,114,43754,1,4,0:3:0:0:
442,114,43839,6,0,P|408:49|342:80,1,160.199995111084,12|0,0:0|0:0,0:0:0:0:
282,179,44176,6,0,P|243:151|196:138,1,97.900002987671,8|0,0:0|0:0,0:0:0:0:
130,179,44429,2,0,P|125:227|137:274,1,97.900002987671,8|0,0:0|0:0,0:0:0:0:
205,311,44681,2,0,P|228:304|249:291,1,48.9500014938355,8|0,0:0|0:0,0:0:0:0:
290,175,44850,6,0,P|247:144|196:130,1,106.799996740723,8|0,0:0|0:0,0:0:0:0:
122,174,45103,2,0,P|117:227|130:278,1,106.799996740723,8|0,0:0|0:0,0:0:0:0:
204,320,45356,2,0,P|230:312|253:298,1,53.3999983703614,8|0,0:0|0:0,0:0:0:0:
356,271,45524,6,0,P|354:315|359:359,1,89,6|0,0:0|0:0,0:0:0:0:
480,213,45861,2,0,P|481:168|476:124,1,89,8|8,0:0|0:0,0:0:0:0:
196,130,46198,1,8,0:0:0:0:
387,168,46367,1,8,0:0:0:0:
209,248,46535,1,8,0:0:0:0:
304,78,46704,1,8,0:0:0:0:
325,270,46872,6,0,P|364:288|408:286,1,89,6|0,0:0|0:0,0:0:0:0:
214,169,47209,1,8,0:0:0:0:
170,177,47294,1,8,0:0:0:0:
139,207,47378,1,8,0:0:0:0:
128,250,47462,1,8,0:0:0:0:
142,292,47547,2,0,P|157:308|174:323,1,44.5,8|0,0:0|0:0,0:0:0:0:
325,270,47715,5,8,0:0:0:0:
325,270,47799,1,8,0:0:0:0:
325,270,47884,2,0,L|312:227,1,44.5,8|0,0:0|0:0,0:0:0:0:
214,169,48052,2,0,L|226:126,1,44.5,8|0,0:0|0:0,0:0:0:0:
332,23,48221,5,8,0:0:0:0:
367,48,48305,1,8,0:0:0:0:
376,90,48389,1,8,0:0:0:0:
355,128,48473,1,8,0:0:0:0:
314,142,48558,1,8,0:0:0:0:
270,129,48642,1,8,0:0:0:0:
226,126,48726,1,8,0:0:0:0:
186,146,48811,1,8,0:0:0:0:
163,183,48895,6,0,P|158:205|158:228,3,44.5,8|2|2|2,0:0|0:0|0:0|0:0,0:0:0:0:
255,314,49232,2,0,P|259:292|259:269,3,44.5,8|2|2|2,0:0|0:0|0:0|0:0,0:0:0:0:
133,353,49569,5,12,0:0:0:0:
341,302,49738,1,2,0:0:0:0:
341,302,49822,1,4,0:3:0:0:
341,302,49906,1,4,0:3:0:0:
72,203,50075,5,12,0:0:0:0:
255,314,50243,1,2,0:0:0:0:
255,314,50327,1,4,0:3:0:0:
255,314,50412,1,4,0:3:0:0:
134,53,50580,5,4,0:3:0:0:
185,261,50749,2,0,P|249:292|315:265,1,146.850004481506,8|0,0:0|0:0,0:0:0:0:
360,204,51086,1,12,0:0:0:0:
133,353,51254,1,12,0:0:0:0:
133,353,51591,5,12,0:0:0:0:
5,219,51760,1,8,0:0:0:0:
15,188,51844,1,8,0:0:0:0:
35,162,51929,1,8,0:0:0:0:
62,144,52013,1,8,0:0:0:0:
93,135,52097,1,8,0:0:0:0:
126,136,52181,1,8,0:0:0:0:
155,146,52266,6,0,P|222:177|294:173,1,146.850004481506,6|0,0:0|0:0,0:0:0:0:
385,151,52603,2,0,L|375:248,1,97.900002987671,12|0,0:0|0:0,0:0:0:0:
246,45,52940,1,2,0:0:0:0:
437,52,53108,2,0,P|388:59|339:62,1,97.900002987671,2|8,0:0|0:0,0:0:0:0:
106,203,53445,6,0,P|84:114|165:72,1,195.800005975342,2|0,0:0|0:0,0:0:0:0:
317,251,53951,1,8,0:0:0:0:
212,340,54120,1,0,0:0:0:0:
212,340,54204,1,4,3:0:0:0:
212,340,54288,2,0,P|175:309|128:296,1,97.900002987671,2|2,0:0|0:0,0:0:0:0:
339,155,54625,2,0,L|316:250,1,97.900002987671,8|0,0:0|0:0,0:0:0:0:
453,361,54962,6,0,B|409:290|409:290|424:228,1,146.850004481506,2|0,0:0|0:0,0:0:0:0:
460,205,55299,1,8,0:0:0:0:
307,353,55468,2,0,L|211:339,1,97.900002987671,0|2,0:0|0:0,0:0:0:0:
168,164,55805,1,2,0:0:0:0:
316,250,55973,1,8,0:0:0:0:
104,275,56142,1,0,0:0:0:0:
104,275,56226,1,0,0:0:0:0:
104,275,56311,5,2,0:0:0:0:
188,131,56479,1,0,0:0:0:0:
211,339,56648,1,8,0:0:0:0:
19,254,56816,1,0,0:0:0:0:
218,257,56985,2,0,P|267:256|316:250,1,97.900002987671,2|2,0:0|0:0,0:0:0:0:
429,69,57322,2,0,P|380:70|331:76,1,97.900002987671,8|0,0:0|0:0,0:0:0:0:
306,143,57575,1,0,0:0:0:0:
306,143,57659,6,0,P|264:60|171:58,1,195.800005975342,6|8,0:0|0:0,0:0:0:0:
188,180,58164,1,0,0:0:0:0:
31,128,58333,2,0,P|36:80|46:32,2,97.900002987671,2|2|8,0:0|0:0|0:0,0:0:0:0:
23,284,58839,1,0,0:0:0:0:
31,301,58923,1,0,0:0:0:0:
39,318,59007,6,0,L|184:300,1,146.850004481506,2|0,0:0|0:0,0:0:0:0:
253,361,59344,2,0,P|237:314|213:271,1,97.900002987671,8|0,0:0|0:0,0:0:0:0:
108,156,59681,1,8,0:0:0:0:
127,125,59766,1,8,0:0:0:0:
158,104,59850,1,8,0:0:0:0:
193,97,59934,1,8,0:0:0:0:
229,105,60018,2,0,L|246:150,1,48.9500014938355,8|8,0:0|0:0,0:0:0:0:
350,67,60187,2,0,L|367:21,1,48.9500014938355,8|8,0:0|0:0,0:0:0:0:
471,105,60356,6,0,P|495:180|477:257,1,160.199995111084,12|0,0:0|0:0,0:0:0:0:
453,295,60693,1,8,0:0:0:0:
246,150,60861,1,12,0:0:0:0:
246,150,61198,1,4,3:0:0:0:
366,21,61367,1,4,3:0:0:0:
377,243,61535,6,0,L|218:220,1,160.199995111084,12|0,0:0|0:0,0:0:0:0:
175,212,61872,1,2,0:0:0:0:
319,110,62041,1,8,0:0:0:0:
103,81,62209,1,6,0:0:0:0:
103,81,62294,1,2,0:0:0:0:
103,81,62378,1,2,0:0:0:0:
61,287,62547,5,8,0:0:0:0:
93,304,62631,1,8,0:0:0:0:
127,314,62715,1,8,0:0:0:0:
163,316,62799,1,8,0:0:0:0:
198,311,62884,1,8,0:0:0:0:
231,298,62968,1,8,0:0:0:0:
261,278,63052,6,0,L|253:131,1,146.850004481506,6|0,0:0|0:0,0:0:0:0:
250,99,63389,1,12,0:0:0:0:
414,141,63558,2,0,P|403:189|380:232,1,97.900002987671,0|2,0:0|0:0,0:0:0:0:
198,311,63895,1,2,0:0:0:0:
364,355,64063,1,8,0:0:0:0:
195,214,64232,6,0,P|101:220|45:296,1,195.800005975342,6|2,0:0|0:0,0:0:0:0:
76,131,64738,1,8,0:0:0:0:
198,311,64906,1,4,3:0:0:0:
198,311,64990,1,4,3:0:0:0:
198,310,65075,2,0,P|244:299|276:263,1,97.900002987671,2|2,0:0|0:0,0:0:0:0:
351,157,65412,1,8,0:0:0:0:
392,327,65580,1,8,0:0:0:0:
210,198,65749,6,0,L|239:54,1,146.850004481506,2|0,0:0|0:0,0:0:0:0:
225,27,66086,1,8,0:0:0:0:
444,129,66254,2,0,P|399:148|351:156,1,97.900002987671,0|8,0:0|0:0,0:0:0:0:
149,237,66591,1,0,0:0:0:0:
149,237,66676,1,0,0:0:0:0:
149,237,66760,2,0,P|173:237|197:241,1,48.9500014938355,2|0,0:0|0:0,0:0:0:0:
311,348,66929,5,8,0:0:0:0:
311,348,67266,1,8,0:0:0:0:
351,156,67434,1,4,3:0:0:0:
457,238,67603,1,0,0:0:0:0:
457,238,67687,1,4,3:0:0:0:
457,238,67771,5,2,0:0:0:0:
436,54,67937,1,8,0:0:0:0:
436,54,68021,1,8,0:0:0:0:
436,54,68104,2,0,L|387:63,1,48.9500014938355,8|8,0:0|0:0,0:0:0:0:
283,34,68271,2,0,L|234:43,1,48.9500014938355,4|4,3:0|3:0,0:0:0:0:
109,62,68437,5,0,1:0:0:0:
300,238,68687,5,0,1:0:0:0:
52,315,68937,5,0,1:0:0:0:
152,206,69104,5,0,1:0:0:0:
152,206,69441,1,6,3:0:0:0:
52,315,69778,5,0,1:0:0:0:
300,238,70030,5,0,1:0:0:0:
109,62,70283,5,0,1:0:0:0:
152,206,70452,6,0,P|196:185|222:145,1,97.900002987671,0|0,1:0|0:0,0:0:0:0:
227,118,70704,1,8,0:0:0:0:
224,90,70789,1,8,0:0:0:0:
53,235,70957,6,0,P|149:225|228:279,1,195.800005975342,6|0,0:0|0:0,0:0:0:0:
355,376,71463,1,8,0:0:0:0:
452,249,71631,1,0,0:0:0:0:
452,249,71716,1,4,3:0:0:0:
452,249,71800,1,2,0:0:0:0:
323,155,71969,1,2,0:0:0:0:
227,278,72137,2,0,L|323:263,1,97.900002987671,12|0,0:0|0:0,0:0:0:0:
447,120,72474,5,8,0:0:0:0:
355,376,72644,1,8,0:0:0:0:
179,168,72814,1,8,0:0:0:0:
179,168,73155,6,0,L|275:153,1,97.900002987671
275,153,73411,1,8,0:0:0:0:
275,153,73496,1,8,0:0:0:0:
268,365,73667,6,0,P|227:338|202:296,1,97.900002987671,12|0,0:0|0:0,0:0:0:0:
317,255,74004,1,8,0:0:0:0:
317,255,74172,1,8,0:0:0:0:
118,340,74341,6,0,P|107:292|120:245,1,97.900002987671,12|0,0:0|0:0,0:0:0:0:
317,255,74678,1,8,0:0:0:0:
317,255,74846,1,8,0:0:0:0:
28,217,75015,6,0,P|54:176|96:151,1,97.900002987671,12|0,0:0|0:0,0:0:0:0:
317,255,75352,1,8,0:0:0:0:
317,255,75520,1,8,0:0:0:0:
145,68,75689,5,12,0:0:0:0:
145,68,75773,1,4,3:0:0:0:
145,68,75858,1,4,3:0:0:0:
275,153,76026,1,4,3:0:0:0:
275,153,76110,1,4,3:0:0:0:
275,153,76195,1,4,3:0:0:0:
136,222,76363,1,2,0:0:0:0:
268,55,76532,6,0,L|274:152,1,97.900002987671,12|0,0:0|0:0,0:0:0:0:
145,68,76869,1,2,0:0:0:0:
374,133,77037,6,0,L|346:226,1,97.900002987671,12|0,0:0|0:0,0:0:0:0:
401,39,77374,1,0,0:0:0:0:
401,39,77543,1,8,0:0:0:0:
446,242,77711,6,0,L|387:320,1,97.900002987671,12|0,0:0|0:0,0:0:0:0:
268,55,78044,1,8,0:0:0:0:
346,226,78211,1,8,0:0:0:0:
468,109,78377,1,8,0:0:0:0:
274,152,78544,1,8,0:0:0:0:
387,319,78711,5,8,0:0:0:0:
340,332,78794,1,8,0:0:0:0:
293,319,78877,1,8,0:0:0:0:
257,286,78961,1,8,0:0:0:0:
241,241,79044,1,8,0:0:0:0:
247,193,79127,1,8,0:0:0:0:
274,152,79211,5,12,0:0:0:0:
274,152,79716,2,0,P|266:231|230:302,1,160.199995111084,12|0,0:0|0:0,0:0:0:0:
201,321,80053,1,8,0:0:0:0:
375,262,80222,1,8,0:0:0:0:
128,206,80390,6,0,P|180:121|274:152,1,213.599993481446,6|0,0:0|0:0,0:0:0:0:
201,321,80901,2,0,P|150:304|97:294,1,106.799996740723,12|0,0:0|0:0,0:0:0:0:
58,303,81157,1,8,0:0:0:0:
58,303,81242,1,4,3:0:0:0:
207,196,81412,1,6,3:0:0:0:
73,38,81583,2,0,P|35:108|35:187,1,160.199995111084,12|0,0:0|0:0,0:0:0:0:
49,223,81924,5,12,0:0:0:0:
225,124,82261,1,4,3:0:0:0:
225,124,82429,2,0,P|171:122|119:130,1,106.799996740723,8|0,0:0|0:0,0:0:0:0:
264,283,82766,1,8,0:0:0:0:
366,142,82935,1,8,0:0:0:0:
182,315,83103,6,0,P|240:365|316:351,1,160.199995111084,6|0,0:0|0:0,0:0:0:0:
349,326,83440,1,2,0:0:0:0:
160,229,83609,2,0,P|109:244|56:249,1,106.799996740723,12|0,0:0|0:0,0:0:0:0:
225,124,83946,1,2,0:0:0:0:
264,283,84115,1,8,0:0:0:0:
362,141,84283,1,8,0:0:0:0:
401,266,84452,1,2,0:0:0:0:
451,45,84620,5,12,0:0:0:0:
451,45,84957,1,2,0:0:0:0:
225,124,85125,1,12,0:0:0:0:
225,124,85462,1,8,0:0:0:0:
401,266,85631,1,8,0:0:0:0:
189,346,85799,6,0,P|196:263|276:239,1,178,6|0,0:0|0:0,0:0:0:0:
449,343,86305,2,0,P|406:354|362:346,1,89,2|0,0:0|0:0,0:0:0:0:
391,166,86642,6,0,P|400:215|400:265,2,100.125003819466,4|0|0,0:0|0:0|0:0,0:0:0:0:
225,125,87316,1,4,0:0:0:0:
256,192,87485,12,0,88833,0:0:0:0:
