osu file format v14

[General]
AudioFilename: audio.mp3
AudioLeadIn: 0
PreviewTime: 51507
Countdown: 0
SampleSet: Soft
StackLeniency: 0.5
Mode: 0
LetterboxInBreaks: 0
WidescreenStoryboard: 0

[Editor]
Bookmarks: 11811,17209,27996,38782,52266,87316
DistanceSpacing: 1
BeatDivisor: 2
GridSize: 4
TimelineZoom: 1

[Metadata]
Title:Ashita no Kimi sae Ireba Ii.
TitleUnicode:明日の君さえいればいい。
Artist:ChouCho
ArtistUnicode:ChouCho
Creator:Meg
Version:Normal
Source:妹さえいればいい。
Tags:ちょうちょ IMOTO SAE IREBA II. imouto opening op iMage-- カントク Kantoku 平坂読 Hirasaka Yomi
BeatmapID:1436763
BeatmapSetID:679369

[Difficulty]
HPDrainRate:4
CircleSize:3
OverallDifficulty:4
ApproachRate:5
SliderMultiplier:1.1
SliderTickRate:1

[Events]
//Background and Video events
0,0,"imouto.jpg",0,0
//Break Periods
//Storyboard Layer 0 (Background)
//Storyboard Layer 1 (Fail)
//Storyboard Layer 2 (Pass)
//Storyboard Layer 3 (Foreground)
//Storyboard Sound Samples

[TimingPoints]
1025,342.857142857143,4,2,2,50,1,0
1025,-100,4,2,2,50,0,0
1882,337.078651685393,4,2,2,50,1,0
1882,-100,4,2,2,50,0,0
3061,333.333333333333,4,2,2,50,1,0
3061,-100,4,2,2,50,0,0
3727,338.983050847458,4,2,2,50,1,0
3727,-100,4,2,2,50,0,0
5082,337.078651685393,4,2,2,50,1,0
5082,-100,4,2,2,50,0,0
9126,340.909090909091,4,2,2,60,1,0
10489,-100,4,2,1,60,0,0
11137,337.078651685393,4,2,1,60,1,0
11811,342.857142857143,4,2,1,60,1,0
12668,329.67032967033,4,2,1,60,1,0
12668,-100,4,2,1,60,0,0
12997,337.078651685393,4,2,1,60,1,0
12997,-100,4,2,1,60,0,0
13165,337.078651685393,4,2,1,60,1,0
27659,-100,4,2,1,60,0,0
27996,-100,4,2,2,40,0,0
29176,-100,4,2,1,60,0,0
29513,-100,4,2,1,60,0,0
33389,-100,4,2,1,60,0,0
33726,-100,4,2,1,60,0,0
34063,-100,4,2,1,60,0,0
34400,-100,4,2,1,60,0,0
35412,-100,4,2,1,60,0,0
36086,-100,4,2,1,60,0,0
38445,-100,4,2,1,60,0,0
39962,-100,4,2,1,60,0,0
40636,-100,4,2,1,60,0,0
41479,-100,4,2,1,60,0,0
42659,-100,4,2,1,60,0,0
43839,-100,4,2,1,60,0,0
44176,-100,4,2,1,60,0,0
44850,-100,4,2,1,60,0,0
45524,-100,4,2,1,60,0,0
49569,-100,4,2,1,60,0,0
52266,-100,4,2,1,70,0,1
60356,-100,4,2,1,70,0,1
63052,-100,4,2,1,70,0,1
67771,333.333333333333,4,2,1,70,1,1
67771,-100,4,2,1,70,0,1
68437,333.333333333333,4,2,1,70,1,1
69104,337.078651685393,4,2,1,70,1,1
69778,337.078651685393,4,2,1,70,1,1
69778,-100,4,2,1,70,0,1
72474,340.909090909091,4,2,1,70,1,1
72474,-100,4,2,1,70,0,1
73667,337.078651685393,4,2,1,70,1,1
73667,-100,4,2,1,70,0,1
73835,337.078651685393,4,2,1,70,1,1
77711,333.333333333333,4,2,1,70,1,1
77711,-100,4,2,1,70,0,1
77877,333.333333333333,4,2,1,70,1,1
79211,337.078651685393,4,2,1,70,1,1
79716,-100,4,2,1,70,0,1
80390,340.909090909091,4,2,1,70,1,1
80390,-100,4,2,1,70,0,1
80560,340.909090909091,4,2,1,70,1,1
81924,337.078651685393,4,2,1,70,1,1
81924,-100,4,2,1,70,0,1
84620,337.078651685393,4,2,1,70,1,1
86642,-100,4,2,1,70,0,1
87316,-100,4,2,1,60,0,0
87653,-100,4,2,1,40,0,0
87990,-100,4,2,1,20,0,0
88327,-100,4,2,1,10,0,0
88664,-100,4,2,1,5,0,0

[Colours]
Combo1 : 255,255,0
Combo2 : 255,157,206
Combo3 : 254,174,27
Combo4 : 0,181,181

[HitObjects]
394,320,1025,6,0,P|385:267|397:214,1,110,2|0,0:0|0:0,0:0:0:0:
429,168,1539,1,2,0:0:0:0:
395,61,1882,2,0,P|318:35|248:74,1,165,2|2,0:0|0:0,0:0:0:0:
29,111,3061,2,0,P|62:154|81:205,1,110,2|0,0:0|0:0,0:0:0:0:
51,309,3727,6,0,L|160:295,1,110,2|2,0:0|0:0,0:0:0:0:
209,320,4235,1,2,0:0:0:0:
316,344,4574,2,0,P|369:287|340:214,1,165,2|2,0:0|0:0,0:0:0:0:
155,94,5756,2,0,P|128:101|101:106,2,55,2|0|0,0:0|0:0|0:0,0:0:0:0:
245,33,6430,6,0,P|263:85|253:138,1,110,2|0,0:0|0:0,0:0:0:0:
216,178,6935,2,0,P|198:229|208:282,1,110,2|2,0:0|0:0,0:0:0:0:
242,325,7441,1,0,0:0:0:0:
242,325,7610,2,0,L|406:312,1,165,2|0,0:0|0:0,0:0:0:0:
472,222,8452,2,0,B|486:157|486:157|455:80|362:90,1,220,2|2,0:0|0:0,0:0:0:0:
211,62,10489,5,2,3:0:0:0:
103,84,10830,1,2,3:0:0:0:
31,152,11137,2,0,P|19:206|18:261,1,110,4|12,0:3|0:3,0:0:0:0:
48,307,11642,1,12,0:3:0:0:
48,307,11811,6,0,P|103:302|158:309,1,110,6|12,0:0|0:0,0:0:0:0:
250,247,12496,1,0,3:0:0:0:
250,247,12668,2,0,P|282:277|302:313,1,55,0|2,3:0|3:2,0:0:0:0:
308,335,12997,2,0,P|366:278|446:274,1,165,12|8,0:0|0:0,0:0:0:0:
492,173,13839,2,0,P|483:147|469:123,1,55,8|0,0:0|0:0,0:0:0:0:
443,74,14176,2,0,P|418:61|391:55,1,55,8|0,0:0|0:0,0:0:0:0:
338,39,14513,6,0,L|230:64,1,110,4|8,0:0|0:0,0:0:0:0:
130,108,15187,2,0,P|122:81|121:54,2,55,8|2|0,0:0|0:0|0:0,0:0:0:0:
160,154,15693,2,0,P|106:146|63:178,1,110,12|0,0:0|0:0,0:0:0:0:
46,230,16198,2,0,L|43:284,1,55,8|8,0:0|0:0,0:0:0:0:
40,338,16535,2,0,L|154:344,1,110,12|8,0:0|3:2,0:0:0:0:
236,276,17209,6,0,P|289:291|337:318,1,110,6|8,0:0|0:0,0:0:0:0:
439,360,17884,2,0,L|451:306,1,55,2|2,0:0|0:0,0:0:0:0:
486,264,18221,2,0,L|473:210,1,55,8|0,0:0|0:0,0:0:0:0:
433,173,18558,2,0,P|438:118|470:75,2,110,2|8|2,0:0|0:0|0:0,0:0:0:0:
340,232,19569,2,0,P|316:218|290:209,1,55,8|0,0:0|0:0,0:0:0:0:
236,198,19906,6,0,L|129:224,1,110,2|8,0:0|0:0,0:0:0:0:
73,223,20412,2,0,P|59:171|62:116,1,110,0|2,0:0|0:0,0:0:0:0:
86,66,20917,1,8,0:0:0:0:
190,28,21254,2,0,L|298:45,1,110,2|8,0:0|0:0,0:0:0:0:
350,26,21760,1,0,0:0:0:0:
350,26,21929,2,0,L|364:135,1,110,2|8,0:0|0:0,0:0:0:0:
456,195,22603,6,0,P|431:244|426:298,1,110,6|8,0:0|0:0,0:0:0:0:
443,350,23108,1,0,0:0:0:0:
443,350,23277,2,0,L|333:341,1,110,2|8,0:0|0:0,0:0:0:0:
229,375,23951,2,0,P|226:320|251:272,1,110,2|12,0:0|0:0,0:0:0:0:
289,232,24457,1,0,0:0:0:0:
289,232,24625,2,0,P|291:177|266:129,1,110,2|8,0:0|0:0,0:0:0:0:
178,63,25299,6,0,L|69:81,1,110,6|8,0:0|0:0,0:0:0:0:
33,121,25805,2,0,P|22:147|17:174,1,55,0|8,0:0|0:0,0:0:0:0:
25,229,26142,2,0,P|35:254|51:276,1,55,2|2,0:0|0:0,0:0:0:0:
94,310,26479,2,0,P|148:297|203:298,1,110,6|2,0:0|0:0,0:0:0:0:
254,319,26985,1,8,3:0:0:0:
360,342,27322,2,0,P|382:292|371:239,1,110,4|12,3:3|0:0,0:0:0:0:
333,199,27827,1,0,0:0:0:0:
279,210,27995,5,6,0:0:0:0:
173,83,29176,6,0,L|333:120,1,165,12|0,0:0|0:0,0:0:0:0:
403,204,30018,2,0,P|439:185|476:168,2,82.5,4|4|4,1:3|1:3|1:3,0:0:0:0:
366,247,30693,6,0,L|354:356,1,110,8|12,0:0|0:0,0:0:0:0:
245,370,31367,2,0,L|250:315,1,55,2|0,0:0|0:0,0:0:0:0:
225,265,31704,1,8,0:0:0:0:
225,264,31872,2,0,P|151:295|84:252,1,165,2|8,0:0|0:0,0:0:0:0:
8,172,32715,2,0,L|63:163,1,55,8|8,0:0|0:0,0:0:0:0:
104,127,33052,2,0,L|158:137,1,55,8|8,0:0|0:0,0:0:0:0:
200,172,33389,6,0,P|207:116|191:64,1,110,10|12,0:0|0:0,0:0:0:0:
152,26,33895,1,0,0:0:0:0:
152,26,34063,2,0,L|261:28,1,110,10|12,0:0|0:0,0:0:0:0:
372,35,34738,2,0,P|414:95|428:142,1,110,10|12,0:0|0:0,0:0:0:0:
467,164,35243,1,0,0:0:0:0:
467,164,35412,2,0,L|429:267,1,110,8|8,0:0|0:0,0:0:0:0:
337,327,36086,6,0,P|378:364|431:376,2,110,6|12|8,0:0|0:0|0:0,0:0:0:0:
304,284,36929,2,0,P|277:275|251:269,1,55,0|8,3:0|0:0,0:0:0:0:
194,282,37266,2,0,P|141:297|97:330,1,110,6|2,0:0|0:0,0:0:0:0:
57,367,37771,1,12,0:0:0:0:
8,270,38108,2,0,P|43:227|60:175,1,110,4|4,0:3|0:3,0:0:0:0:
51,120,38614,1,0,0:0:0:0:
37,67,38782,5,0,1:0:0:0:
201,59,39288,2,0,L|308:81,1,110,0|8,1:0|0:3,0:0:0:0:
362,73,39794,1,4,3:0:0:0:
362,73,39962,2,0,P|372:127|356:179,1,110,8|12,0:0|0:0,0:0:0:0:
257,228,40636,2,0,P|234:303|292:356,1,165,6|12,0:0|0:0,0:0:0:0:
339,328,41311,1,0,0:0:0:0:
339,328,41479,6,0,L|462:323,1,110,6|8,0:0|0:0,0:0:0:0:
490,287,41985,1,0,3:0:0:0:
412,209,42322,2,0,P|408:181|416:155,1,55,2|2,3:2|3:2,0:0:0:0:
451,113,42659,2,0,P|430:63|381:39,1,110,8|4,0:0|0:3,0:0:0:0:
333,64,43164,1,4,0:3:0:0:
333,64,43333,2,0,L|223:57,1,110,4|0,0:0|0:0,0:0:0:0:
168,54,43839,1,12,0:0:0:0:
89,130,44176,6,0,P|63:99|40:65,2,82.5,8|8|8,0:0|0:0|0:0,0:0:0:0:
96,185,44850,2,0,P|54:181|14:173,2,82.5,8|8|8,0:0|0:0|0:0,0:0:0:0:
99,240,45524,2,0,P|84:292|59:342,1,110,6|8,0:0|0:0,0:0:0:0:
168,353,46198,2,0,L|221:341,1,55,8|8,0:0|0:0,0:0:0:0:
254,296,46535,2,0,L|300:325,1,55,8|8,0:0|0:0,0:0:0:0:
354,315,46872,6,0,P|396:351|450:357,1,110,6|8,0:0|0:0,0:0:0:0:
495,326,47378,1,8,0:0:0:0:
495,326,47547,2,0,L|486:181,1,110,8|8,0:0|0:0,0:0:0:0:
437,118,48221,1,8,0:0:0:0:
383,131,48389,1,8,0:0:0:0:
348,174,48558,2,0,P|321:181|294:188,1,55,8|8,0:0|0:0,0:0:0:0:
259,230,48895,2,0,P|204:226|149:218,1,110,8|8,0:0|0:0,0:0:0:0:
40,203,49569,6,0,P|41:148|63:98,1,110,12|4,0:0|0:3,0:0:0:0:
90,50,50075,2,0,P|135:82|188:95,1,110,12|4,0:0|0:3,0:0:0:0:
239,74,50580,1,4,0:3:0:0:
239,74,50749,2,0,P|291:56|346:56,1,110,8|12,0:0|0:0,0:0:0:0:
394,81,51254,1,12,0:0:0:0:
456,171,51591,1,12,0:0:0:0:
448,225,51759,1,8,0:0:0:0:
415,269,51929,2,0,L|408:323,1,55,8|8,0:0|0:0,0:0:0:0:
374,367,52266,6,0,P|324:343|269:341,1,110,6|12,0:0|0:0,0:0:0:0:
212,247,52940,1,2,0:0:0:0:
212,247,53108,2,0,L|226:193,1,55,2|8,0:0|0:0,0:0:0:0:
264,154,53445,2,0,P|250:101|207:69,1,110,2|0,0:0|0:0,0:0:0:0:
152,70,53951,2,0,L|42:84,1,110,8|2,0:0|0:0,0:0:0:0:
25,192,54625,2,0,L|29:246,1,55,8|0,0:0|0:0,0:0:0:0:
12,299,54962,6,0,P|66:287|120:296,1,110,2|8,0:0|0:0,0:0:0:0:
147,344,55468,2,0,P|152:289|178:241,1,110,0|2,0:0|0:0,0:0:0:0:
229,220,55973,2,0,L|283:229,2,55,8|0|2,0:0|0:0|0:0,0:0:0:0:
158,134,56648,2,0,P|159:106|163:79,1,55,8|0,0:0|0:0,0:0:0:0:
210,49,56985,2,0,L|319:45,1,110,2|8,0:0|0:0,0:0:0:0:
427,26,57659,6,0,P|421:81|390:125,1,110,6|8,0:0|0:0,0:0:0:0:
339,146,58164,1,0,0:0:0:0:
339,146,58333,2,0,B|326:203|326:203|337:253,1,110,2|8,0:0|0:0,0:0:0:0:
366,299,58839,1,0,0:0:0:0:
366,299,59007,2,0,L|475:301,2,110,2|8|8,0:0|0:0|0:0,0:0:0:0:
267,348,60018,2,0,P|250:325|230:307,1,55,8|8,0:0|0:0,0:0:0:0:
179,284,60356,6,0,P|125:282|83:247,1,110,12|8,0:0|0:0,0:0:0:0:
67,194,60861,1,12,0:0:0:0:
90,86,61198,2,0,P|112:70|139:64,1,55,4|4,3:0|3:0,0:0:0:0:
193,74,61535,2,0,P|208:127|242:170,1,110,12|2,0:0|0:0,0:0:0:0:
328,104,62209,1,12,0:0:0:0:
328,103,62378,2,0,P|374:77|426:89,1,110,4|8,0:0|0:0,0:0:0:0:
465,129,62884,1,8,0:0:0:0:
465,129,63052,6,0,L|472:238,1,110,6|12,0:0|0:0,0:0:0:0:
487,291,63558,1,0,0:0:0:0:
403,362,63895,2,0,P|379:347|353:338,1,55,2|8,0:0|0:0,0:0:0:0:
301,319,64232,2,0,L|192:336,1,110,6|2,0:0|0:0,0:0:0:0:
137,327,64738,1,8,0:0:0:0:
137,327,64906,2,0,P|120:275|129:221,1,110,4|2,3:0|0:0,0:0:0:0:
153,171,65412,1,8,0:0:0:0:
253,128,65749,6,0,P|287:172|337:192,1,110,2|8,0:0|0:0,0:0:0:0:
391,191,66254,2,0,P|418:184|438:166,1,55,0|8,0:0|0:0,0:0:0:0:
458,114,66591,2,0,L|456:59,2,55,0|2|8,0:0|0:0|0:0,0:0:0:0:
502,213,67266,2,0,P|487:237|478:263,1,55,8|4,0:0|3:0,0:0:0:0:
491,316,67603,1,0,0:0:0:0:
491,316,67771,2,0,P|448:281|395:270,1,110,2|8,0:0|0:0,0:0:0:0:
287,292,68437,6,0,L|206:309,2,82.5,0|0|0,1:0|1:0|1:0,0:0:0:0:
317,246,69104,2,0,L|324:136,1,110,0|6,1:0|3:0,0:0:0:0:
260,46,69778,6,0,P|297:29|338:26,2,82.5,0|0|0,1:0|1:0|1:0,0:0:0:0:
221,85,70452,2,0,P|185:44|132:33,1,110,0|8,1:0|0:0,0:0:0:0:
82,55,70957,6,0,L|63:163,1,110,6|0,0:0|0:0,0:0:0:0:
23,201,71463,2,0,P|47:251|64:303,1,110,8|2,0:0|0:0,0:0:0:0:
77,357,71969,1,2,0:0:0:0:
77,357,72137,2,0,P|101:342|127:332,1,55,12|0,0:0|0:0,0:0:0:0:
180,335,72474,6,0,L|232:350,2,55,8|8|8,0:0|0:0|0:0,0:0:0:0:
158,227,73155,2,0,P|149:173|163:120,1,110,0|8,0:0|0:0,0:0:0:0:
207,84,73667,6,0,L|315:98,1,110,12|8,0:0|0:0,0:0:0:0:
365,74,74172,1,8,0:0:0:0:
365,74,74340,2,0,P|417:89|446:134,1,110,12|8,0:0|0:0,0:0:0:0:
444,188,74846,2,0,P|432:214|424:240,1,55,8|12,0:0|0:0,0:0:0:0:
487,329,75351,2,0,P|462:342|435:348,1,55,8|8,0:0|0:0,0:0:0:0:
382,361,75688,2,0,P|351:316|301:295,1,110,12|4,0:0|3:0,0:0:0:0:
246,295,76194,1,4,3:0:0:0:
192,305,76362,1,2,0:0:0:0:
139,321,76531,6,0,L|145:211,1,110,12|2,0:0|0:0,0:0:0:0:
149,156,77037,1,12,0:0:0:0:
231,83,77374,2,0,P|254:98|281:104,1,55,0|8,0:0|0:0,0:0:0:0:
329,74,77711,2,0,P|328:152|400:183,1,165,12|8,0:0|0:0,0:0:0:0:
484,253,78543,2,0,L|463:310,1,55,8|8,0:0|0:0,0:0:0:0:
425,343,78877,2,0,L|371:331,1,55,8|8,0:0|0:0,0:0:0:0:
316,336,79211,6,0,P|283:292|234:267,1,110,12|0,0:0|0:0,0:0:0:0:
180,262,79716,2,0,P|139:299|86:310,1,110,12|8,0:0|0:0,0:0:0:0:
40,281,80222,1,8,0:0:0:0:
40,281,80390,2,0,L|49:171,1,110,6|0,0:0|0:0,0:0:0:0:
51,116,80900,1,12,0:0:0:0:
126,35,81241,2,0,P|180:33|235:39,1,110,4|12,3:0|0:0,0:0:0:0:
347,40,81924,6,0,P|334:94|340:148,1,110,12|4,0:0|3:0,0:0:0:0:
366,196,82429,2,0,L|256:187,1,110,8|8,0:0|0:0,0:0:0:0:
208,159,82935,1,8,0:0:0:0:
208,159,83103,2,0,P|165:227|185:305,1,165,6|12,0:0|0:0,0:0:0:0:
293,330,83946,2,0,P|295:357|292:384,2,55,2|8|8,0:0|0:0|0:0,0:0:0:0:
321,223,84620,6,0,P|391:201|443:220,1,110,12|2,0:0|0:0,0:0:0:0:
460,251,85125,2,0,P|435:202|432:147,1,110,12|8,0:0|0:0,0:0:0:0:
471,108,85631,1,8,0:0:0:0:
471,108,85799,2,0,P|451:57|404:30,1,110,6|0,0:0|0:0,0:0:0:0:
350,37,86305,1,2,0:0:0:0:
267,109,86642,2,0,P|232:89|192:82,2,82.5,4|0|0,0:0|0:0|0:0,0:0:0:0:
295,157,87316,5,4,0:0:0:0:
256,192,87485,12,0,88833,0:0:0:0:
