osu file format v14

[General]
AudioFilename: audio.mp3
AudioLeadIn: 0
PreviewTime: 51507
Countdown: 0
SampleSet: Soft
StackLeniency: 0.5
Mode: 0
LetterboxInBreaks: 0
WidescreenStoryboard: 0

[Editor]
Bookmarks: 11811,17209,27996,38782,52266,87316
DistanceSpacing: 1.3
BeatDivisor: 4
GridSize: 4
TimelineZoom: 1

[Metadata]
Title:Ashita no Kimi sae Ireba Ii.
TitleUnicode:明日の君さえいればいい。
Artist:ChouCho
ArtistUnicode:ChouCho
Creator:Meg
Version:Hard
Source:妹さえいればいい。
Tags:ちょうちょ IMOTO SAE IREBA II. imouto opening op iMage-- カントク Kantoku 平坂読 Hirasaka Yomi
BeatmapID:1436718
BeatmapSetID:679369

[Difficulty]
HPDrainRate:5
CircleSize:3.5
OverallDifficulty:6
ApproachRate:8
SliderMultiplier:1.48
SliderTickRate:1

[Events]
//Background and Video events
0,0,"imouto.jpg",0,0
//Break Periods
//Storyboard Layer 0 (Background)
//Storyboard Layer 1 (Fail)
//Storyboard Layer 2 (Pass)
//Storyboard Layer 3 (Foreground)
//Storyboard Sound Samples

[TimingPoints]
1025,342.857142857143,4,2,2,50,1,0
1025,-125,4,2,2,50,0,0
1882,337.078651685393,4,2,2,50,1,0
1882,-125,4,2,2,50,0,0
3061,333.333333333333,4,2,2,50,1,0
3061,-125,4,2,2,50,0,0
3727,338.983050847458,4,2,2,50,1,0
3727,-125,4,2,2,50,0,0
5082,337.078651685393,4,2,2,50,1,0
5082,-125,4,2,2,50,0,0
9126,340.909090909091,4,2,2,60,1,0
10489,-100,4,2,1,60,0,0
11137,337.078651685393,4,2,1,60,1,0
11811,342.857142857143,4,2,1,60,1,0
12668,329.67032967033,4,2,1,60,1,0
12668,-100,4,2,1,60,0,0
12997,337.078651685393,4,2,1,60,1,0
12997,-100,4,2,1,60,0,0
13165,337.078651685393,4,2,1,60,1,0
27659,-100,4,2,1,60,0,0
27996,-100,4,2,2,40,0,0
29176,-100,4,2,1,60,0,0
29513,-100,4,2,1,60,0,0
33389,-100,4,2,1,60,0,0
33726,-100,4,2,1,60,0,0
34063,-100,4,2,1,60,0,0
34400,-100,4,2,1,60,0,0
35412,-100,4,2,1,60,0,0
36086,-100,4,2,1,60,0,0
38445,-100,4,2,1,60,0,0
39962,-100,4,2,1,60,0,0
40636,-100,4,2,1,60,0,0
41479,-100,4,2,1,60,0,0
42659,-100,4,2,1,60,0,0
43839,-100,4,2,1,60,0,0
44176,-100,4,2,1,60,0,0
44850,-100,4,2,1,60,0,0
45524,-100,4,2,1,60,0,0
49569,-100,4,2,1,60,0,0
52266,-100,4,2,1,70,0,1
60356,-100,4,2,1,70,0,1
63052,-100,4,2,1,70,0,1
67771,333.333333333333,4,2,1,70,1,1
67771,-100,4,2,1,70,0,1
68437,333.333333333333,4,2,1,70,1,1
69104,337.078651685393,4,2,1,70,1,1
69778,337.078651685393,4,2,1,70,1,1
69778,-100,4,2,1,70,0,1
72474,340.909090909091,4,2,1,70,1,1
72474,-100,4,2,1,70,0,1
73667,337.078651685393,4,2,1,70,1,1
73667,-100,4,2,1,70,0,1
73835,337.078651685393,4,2,1,70,1,1
77711,333.333333333333,4,2,1,70,1,1
77711,-100,4,2,1,70,0,1
77877,333.333333333333,4,2,1,70,1,1
79211,337.078651685393,4,2,1,70,1,1
79716,-100,4,2,1,70,0,1
80390,340.909090909091,4,2,1,70,1,1
80390,-100,4,2,1,70,0,1
80560,340.909090909091,4,2,1,70,1,1
81924,337.078651685393,4,2,1,70,1,1
81924,-100,4,2,1,70,0,1
84620,337.078651685393,4,2,1,70,1,1
86642,-100,4,2,1,70,0,1
87316,-100,4,2,1,60,0,0
87653,-100,4,2,1,40,0,0
87990,-100,4,2,1,20,0,0
88327,-100,4,2,1,10,0,0
88664,-100,4,2,1,5,0,0

[Colours]
Combo1 : 255,255,0
Combo2 : 255,157,206
Combo3 : 254,174,27
Combo4 : 0,181,181

[HitObjects]
395,49,1025,6,0,L|378:166,1,118.4,2|0,0:0|0:0,0:0:0:0:
310,224,1539,2,0,P|360:255|417:246,1,118.4,2|2,0:0|0:0,0:0:0:0:
283,129,2219,1,0,0:0:0:0:
283,128,2387,2,0,P|234:161|213:215,1,118.4,2|0,0:0|0:0,0:0:0:0:
220,304,2893,1,2,0:0:0:0:
142,349,3061,2,0,L|24:334,1,118.4,2|0,0:0|0:0,0:0:0:0:
31,160,3727,6,0,P|29:101|63:55,1,118.4,2|2,0:0|0:0,0:0:0:0:
147,27,4235,2,0,P|198:58|256:62,1,118.4,2|2,0:0|0:0,0:0:0:0:
432,33,4913,1,2,0:0:0:0:
432,33,5082,2,0,P|449:90|435:147,1,118.4,2|0,0:0|0:0,0:0:0:0:
459,231,5587,1,2,0:0:0:0:
370,245,5756,2,0,P|360:272|355:301,2,59.2,2|0|0,0:0|0:0|0:0,0:0:0:0:
292,85,6430,6,0,L|174:98,1,118.4,2|0,0:0|0:0,0:0:0:0:
92,135,6935,2,0,P|87:164|85:193,1,59.2,2|0,0:0|0:0,0:0:0:0:
162,238,7273,2,0,P|167:208|169:179,1,59.2,2|0,0:0|0:0,0:0:0:0:
86,285,7610,1,2,0:0:0:0:
86,285,7778,2,0,P|134:319|192:319,1,118.4,2|0,0:0|0:0,0:0:0:0:
348,235,8452,2,0,P|380:205|422:190,2,88.8,2|0|0,0:0|0:0|0:0,0:0:0:0:
322,342,9126,5,2,0:0:0:0:
398,42,10489,6,0,P|362:49|328:63,1,74,2|0,3:0|0:0,0:0:0:0:
236,126,10830,2,0,P|272:133|306:147,1,74,2|0,3:0|0:0,0:0:0:0:
381,197,11137,2,0,L|386:233,7,37,4|4|4|4|12|12|12|12,0:3|0:3|0:3|0:3|0:3|0:3|0:3|0:3,0:0:0:0:
415,271,11811,6,0,P|345:292|299:348,1,148,6|12,0:0|0:0,0:0:0:0:
225,286,12325,1,0,0:0:0:0:
160,358,12496,2,0,P|124:358|87:354,1,74,0|0,3:0|3:0,0:0:0:0:
0,312,12832,1,2,3:2:0:0:
2,218,12997,6,0,L|30:72,1,148,12|0,0:0|0:0,0:0:0:0:
119,39,13502,2,0,P|155:45|187:63,1,74,8|0,0:0|0:0,0:0:0:0:
281,84,13839,1,8,0:0:0:0:
217,155,14007,1,0,0:0:0:0:
122,134,14176,2,0,P|111:169|107:205,1,74,8|0,0:0|0:0,0:0:0:0:
90,300,14513,6,0,P|161:282|227:312,1,148,4|8,0:0|0:0,0:0:0:0:
309,261,15018,1,0,0:0:0:0:
390,311,15187,2,0,P|404:276|401:240,2,74,8|2|0,0:0|0:0|0:0,0:0:0:0:
338,167,15693,6,0,P|333:93|365:27,1,148,12|0,0:0|0:0,0:0:0:0:
460,22,16198,2,0,P|475:55|482:91,1,74,8|8,0:0|0:0,0:0:0:0:
452,210,16535,1,12,0:0:0:0:
338,167,16704,1,2,0:0:0:0:
338,167,16788,1,8,3:2:0:0:
338,167,16872,2,0,P|311:141|278:125,1,74,8|8,3:2|3:2,0:0:0:0:
186,153,17209,6,0,P|114:160|66:107,1,148,6|8,0:0|0:0,0:0:0:0:
33,197,17715,1,0,0:0:0:0:
33,197,17884,2,0,P|35:233|31:270,1,74,2|2,0:0|0:0,0:0:0:0:
80,353,18221,1,8,0:0:0:0:
150,289,18389,6,0,P|222:274|286:308,1,148,0|0,0:0|0:0,0:0:0:0:
364,364,18895,2,0,P|437:355|511:354,2,148,8|2|8,0:0|0:0|0:0,0:0:0:0:
270,194,19906,6,0,P|265:158|265:121,1,74,2|0,0:0|0:0,0:0:0:0:
329,48,20243,1,8,0:0:0:0:
329,48,20412,2,0,L|255:40,1,74,0|2,0:0|0:0,0:0:0:0:
160,20,20749,1,2,0:0:0:0:
160,19,20917,2,0,P|158:56|171:91,1,74,8|0,0:0|0:0,0:0:0:0:
265,120,21254,6,0,P|277:192|252:260,1,148,2|8,0:0|0:0,0:0:0:0:
183,327,21760,1,0,0:0:0:0:
85,333,21929,2,0,P|52:319|26:292,1,74,2|2,0:0|0:0,0:0:0:0:
43,196,22266,2,0,P|76:210|102:237,1,74,8|0,0:0|0:0,0:0:0:0:
183,326,22603,6,0,P|247:292|319:298,1,148,6|8,0:0|0:0,0:0:0:0:
411,326,23108,1,0,0:0:0:0:
473,253,23277,2,0,P|493:183|458:120,1,148,2|8,0:0|0:0,0:0:0:0:
294,18,23951,6,0,L|266:163,1,148,2|12,0:0|0:0,0:0:0:0:
213,243,24457,1,0,0:0:0:0:
286,303,24625,2,0,P|223:339|154:319,1,148,2|8,0:0|0:0,0:0:0:0:
62,349,25131,1,0,0:0:0:0:
81,256,25299,6,0,B|103:181|103:181|69:119,1,148,6|8,0:0|0:0,0:0:0:0:
14,39,25805,2,0,P|46:22|83:22,1,74,0|8,0:0|0:0,0:0:0:0:
161,79,26142,1,2,0:0:0:0:
161,79,26311,1,2,0:0:0:0:
196,167,26479,6,0,B|230:155|248:117|248:117|277:102|319:116,1,148,6|2,0:0|0:0,0:0:0:0:
406,74,26985,2,0,L|418:146,1,74,8|0,3:0|3:0,0:0:0:0:
503,193,27322,2,0,L|490:265,1,74,4|4,3:3|0:3,0:0:0:0:
426,338,27659,1,12,0:0:0:0:
330,327,27827,1,0,0:0:0:0:
234,316,27996,5,6,0:0:0:0:
234,316,29176,6,0,L|268:172,1,148,12|4,0:0|0:0,0:0:0:0:
319,90,29681,2,0,P|349:110|384:122,1,74,0|0,0:0|0:0,0:0:0:0:
471,162,30018,2,0,P|481:108|455:59,2,111,4|4|4,1:3|1:3|1:3,0:0:0:0:
497,255,30693,6,0,P|461:261|425:270,1,74,8|0,0:0|0:0,0:0:0:0:
374,352,31030,2,0,P|409:360|446:367,2,74,12|0|2,0:0|0:0|0:0,0:0:0:0:
333,265,31535,1,0,0:0:0:0:
274,342,31704,1,8,0:0:0:0:
239,254,31872,6,0,P|176:219|122:262,1,148,2|2,0:0|0:0,0:0:0:0:
75,346,32378,2,0,P|89:273|67:204,1,148,8|8,0:0|0:0,0:0:0:0:
31,114,32884,1,8,0:0:0:0:
112,62,33052,2,0,P|146:50|183:48,1,74,8|8,0:0|0:0,0:0:0:0:
278,67,33389,5,10,0:0:0:0:
278,67,33558,1,0,0:0:0:0:
343,136,33726,2,0,P|345:173|340:210,1,74,12|0,0:0|0:0,0:0:0:0:
285,289,34063,5,10,0:0:0:0:
285,289,34232,1,0,0:0:0:0:
192,311,34400,2,0,P|158:294|129:271,1,74,12|0,0:0|0:0,0:0:0:0:
89,184,34737,5,10,0:0:0:0:
89,184,34906,1,2,0:0:0:0:
116,93,35074,2,0,P|146:72|180:58,1,74,12|0,0:0|0:0,0:0:0:0:
278,67,35412,2,0,L|283:140,2,74,8|8|8,0:0|0:0|0:0,0:0:0:0:
464,20,36086,6,0,L|453:167,1,148,6|12,0:0|0:0,0:0:0:0:
434,261,36591,1,0,0:0:0:0:
391,345,36760,2,0,P|426:357|462:352,2,74,8|0|8,0:0|3:0|0:0,0:0:0:0:
306,271,37266,6,0,P|245:232|176:251,1,148,6|0,0:0|0:0,0:0:0:0:
93,299,37771,2,0,L|81:372,1,74,10|0,0:0|0:0,0:0:0:0:
31,224,38108,2,0,L|42:150,1,74,4|4,0:3|0:3,0:0:0:0:
90,67,38445,1,4,0:3:0:0:
185,57,38614,1,0,0:0:0:0:
139,144,38782,6,0,P|238:175|306:96,1,222,0|0,1:0|1:0,0:0:0:0:
465,231,39625,2,0,P|429:237|393:244,1,74,8|4,0:3|3:0,0:0:0:0:
320,307,39962,5,8,0:0:0:0:
160,199,40299,2,0,P|196:205|232:212,1,74,12|8,0:0|0:0,0:0:0:0:
100,275,40636,2,0,P|63:212|83:143,1,148,6|0,0:0|0:0,0:0:0:0:
128,57,41142,2,0,P|164:63|198:77,1,74,12|0,0:0|0:0,0:0:0:0:
282,124,41479,6,0,P|339:79|412:69,1,148,6|8,0:0|0:0,0:0:0:0:
487,129,41985,2,0,L|499:201,1,74,0|0,3:0|3:0,0:0:0:0:
488,297,42322,1,2,3:2:0:0:
405,346,42490,1,2,3:2:0:0:
394,253,42659,6,0,P|322:249|271:300,1,148,8|4,0:0|0:3,0:0:0:0:
205,370,43164,1,4,0:3:0:0:
131,307,43333,1,4,0:0:0:0:
43,347,43502,2,0,P|9:283|33:215,1,148,8|12,0:0|0:0,0:0:0:0:
174,84,44176,6,0,P|118:80|68:57,2,111,8|8|8,0:0|0:0|0:0,0:0:0:0:
268,105,44850,2,0,P|299:59|344:27,2,111,8|8|8,0:0|0:0|0:0,0:0:0:0:
202,175,45524,6,0,P|230:243|223:316,1,148,6|8,0:0|0:0,0:0:0:0:
302,372,46030,1,8,0:0:0:0:
353,290,46198,2,0,P|385:272|421:265,1,74,8|8,0:0|0:0,0:0:0:0:
488,195,46535,2,0,P|455:177|419:170,1,74,8|8,0:0|0:0,0:0:0:0:
288,195,46872,6,0,L|316:50,1,148,6|8,0:0|0:0,0:0:0:0:
221,29,47378,1,8,0:0:0:0:
221,29,47462,1,8,0:0:0:0:
221,29,47547,2,0,P|190:48|155:59,1,74,8|8,0:0|0:0,0:0:0:0:
64,25,47884,2,0,P|24:86|34:157,1,148,8|8,0:0|0:0,0:0:0:0:
99,228,48389,5,8,0:0:0:0:
99,228,48473,1,8,0:0:0:0:
99,228,48558,2,0,L|135:222,3,37,8|8|8|8,0:0|0:0|0:0|0:0,0:0:0:0:
182,231,48895,2,0,P|214:212|243:189,1,74,8|2,0:0|0:0,0:0:0:0:
334,112,49232,1,8,0:0:0:0:
250,50,49400,1,2,0:0:0:0:
397,40,49569,6,0,P|428:105|408:174,1,148,12|4,0:0|0:3,0:0:0:0:
339,250,50075,2,0,P|410:235|472:274,1,148,12|4,0:0|0:3,0:0:0:0:
390,332,50581,1,4,0:3:0:0:
247,271,50749,6,0,P|258:199|317:158,1,148,8|12,0:0|0:0,0:0:0:0:
339,250,51254,1,12,0:0:0:0:
177,338,51591,1,12,0:0:0:0:
97,283,51760,1,8,0:0:0:0:
97,283,51844,1,8,0:0:0:0:
97,283,51929,2,0,L|91:246,3,37,8|8|8|8,0:0|0:0|0:0|0:0,0:0:0:0:
83,198,52266,6,0,P|77:126|127:74,1,148,6|12,0:0|0:0,0:0:0:0:
216,106,52771,1,0,0:0:0:0:
290,45,52940,1,2,0:0:0:0:
290,44,53108,2,0,P|326:48|360:62,1,74,2|8,0:0|0:0,0:0:0:0:
455,79,53445,6,0,P|414:140|418:213,1,148,2|0,0:0|0:0,0:0:0:0:
464,298,53951,1,8,0:0:0:0:
382,349,54120,2,0,P|345:353|308:347,1,74,0|2,0:0|0:0,0:0:0:0:
220,308,54457,1,2,0:0:0:0:
305,179,54625,2,0,L|298:253,1,74,8|0,0:0|0:0,0:0:0:0:
136,356,54962,6,0,P|124:284|166:226,1,148,2|8,0:0|0:0,0:0:0:0:
220,308,55468,1,0,0:0:0:0:
297,252,55636,2,0,P|334:244|371:245,1,74,2|2,0:0|0:0,0:0:0:0:
454,293,55973,1,8,0:0:0:0:
491,204,56142,1,0,0:0:0:0:
497,107,56311,6,0,P|457:47|385:37,1,148,2|8,0:0|0:0,0:0:0:0:
330,114,56816,1,0,0:0:0:0:
255,53,56985,2,0,P|220:38|184:32,1,74,2|2,0:0|0:0,0:0:0:0:
125,108,57322,2,0,P|159:122|195:128,1,74,8|0,0:0|0:0,0:0:0:0:
86,19,57659,6,0,P|35:69|32:141,1,148,6|8,0:0|0:0,0:0:0:0:
31,237,58164,1,0,0:0:0:0:
3,329,58333,2,0,P|75:324|122:269,1,148,2|8,0:0|0:0,0:0:0:0:
208,225,58839,1,0,0:0:0:0:
272,296,59007,6,0,P|305:310|342:311,1,74,2|0,0:0|0:0,0:0:0:0:
373,220,59344,2,0,P|339:205|302:204,1,74,8|0,0:0|0:0,0:0:0:0:
208,224,59681,2,0,P|219:152|195:83,1,148,8|8,0:0|0:0,0:0:0:0:
271,25,60187,1,8,0:0:0:0:
271,25,60271,1,8,0:0:0:0:
271,25,60356,6,0,L|344:34,1,74,12|0,0:0|0:0,0:0:0:0:
440,26,60693,1,8,0:0:0:0:
326,129,60861,2,0,P|302:196|334:261,1,148,12|4,0:0|3:0,0:0:0:0:
400,191,61367,1,4,3:0:0:0:
397,332,61535,6,0,P|329:308|256:319,1,148,12|2,0:0|0:0,0:0:0:0:
168,358,62041,1,8,0:0:0:0:
214,232,62209,1,12,0:0:0:0:
91,302,62378,2,0,P|54:295|20:281,1,74,4|8,0:0|0:0,0:0:0:0:
12,256,62631,1,8,0:0:0:0:
12,256,62715,2,0,L|16:219,3,37,8|8|8|8,0:0|0:0|0:0|0:0,0:0:0:0:
41,177,63052,6,0,L|186:152,1,148,6|12,0:0|0:0,0:0:0:0:
263,94,63558,2,0,P|296:111|325:134,1,74,0|2,0:0|0:0,0:0:0:0:
368,221,63895,1,2,0:0:0:0:
368,221,64063,1,8,0:0:0:0:
428,295,64232,6,0,P|465:233|444:164,1,148,6|2,0:0|0:0,0:0:0:0:
395,81,64738,2,0,P|429:68|466:69,1,74,8|4,0:0|3:0,0:0:0:0:
348,165,65075,2,0,L|201:141,1,148,2|8,0:0|0:0,0:0:0:0:
120,90,65580,1,8,0:0:0:0:
28,123,65749,6,0,P|9:193|19:266,1,148,2|8,0:0|0:0,0:0:0:0:
22,361,66254,2,0,P|56:350|88:330,1,74,0|8,0:0|0:0,0:0:0:0:
155,261,66591,2,0,P|189:272|221:292,1,74,0|2,0:0|0:0,0:0:0:0:
286,364,66929,5,8,0:0:0:0:
435,243,67266,2,0,P|431:279|430:316,2,74,8|4|0,0:0|3:0|0:0,0:0:0:0:
484,159,67771,1,2,0:0:0:0:
421,86,67937,1,8,0:0:0:0:
421,86,68021,1,8,0:0:0:0:
421,86,68104,2,0,L|384:92,3,37,8|8|4|4,0:0|0:0|3:0|3:0,0:0:0:0:
338,104,68437,6,0,P|305:59|277:11,2,111,0|0|0,1:0|1:0|1:0,0:0:0:0:
377,192,69104,2,0,P|324:241|252:234,1,148,0|6,1:0|3:0,0:0:0:0:
65,190,69778,6,0,P|48:242|46:298,2,111,0|0|0,1:0|1:0|1:0,0:0:0:0:
94,97,70452,2,0,P|165:114|236:98,1,148,0|8,1:0|0:0,0:0:0:0:
360,23,70957,6,0,P|345:95|330:168,1,148,6|0,0:0|0:0,0:0:0:0:
245,213,71463,2,0,P|265:245|278:279,2,74,8|0|2,0:0|0:0|0:0,0:0:0:0:
152,190,71969,1,2,0:0:0:0:
58,213,72137,2,0,P|59:177|67:141,1,74,12|0,0:0|0:0,0:0:0:0:
128,67,72474,5,8,0:0:0:0:
256,132,72644,1,8,0:0:0:0:
384,67,72814,1,8,0:0:0:0:
277,227,73155,6,0,P|276:263|283:300,2,74,0|0|8,0:0|0:0|0:0,0:0:0:0:
256,132,73667,6,0,L|402:152,1,148,12|8,0:0|0:0,0:0:0:0:
378,59,74172,1,8,0:0:0:0:
497,165,74341,2,0,P|462:228|392:246,1,148,12|8,0:0|0:0,0:0:0:0:
301,217,74846,1,8,0:0:0:0:
242,348,75015,6,0,P|207:286|137:278,1,148,12|8,0:0|0:0,0:0:0:0:
61,337,75520,1,8,0:0:0:0:
93,196,75688,2,0,P|107:126|65:67,1,148,12|4,0:0|3:0,0:0:0:0:
12,148,76194,2,0,P|3:183|2:220,1,74,4|2,3:0|0:0,0:0:0:0:
60,337,76531,6,0,P|122:296|194:280,1,148,12|2,0:0|0:0,0:0:0:0:
322,343,77037,2,0,P|380:304|363:237,1,148,12|0,0:0|0:0,0:0:0:0:
269,219,77542,1,8,0:0:0:0:
367,111,77711,6,0,B|418:113|468:132|468:132|456:90,1,148,12|8,0:0|0:0,0:0:0:0:
392,19,78211,1,8,0:0:0:0:
392,19,78377,1,8,0:0:0:0:
296,34,78543,2,0,P|278:66|267:101,1,74,8|8,0:0|0:0,0:0:0:0:
258,125,78793,1,8,0:0:0:0:
258,125,78877,2,0,L|222:113,3,37,8|8|8|8,0:0|0:0|0:0|0:0,0:0:0:0:
179,89,79211,6,0,P|107:87|56:137,1,148,12|0,0:0|0:0,0:0:0:0:
151,252,79716,2,0,L|142:179,1,74,12|0,0:0|0:0,0:0:0:0:
65,304,80053,1,8,0:0:0:0:
65,304,80222,1,8,0:0:0:0:
189,353,80390,6,0,P|253:317|323:334,1,148,6|0,0:0|0:0,0:0:0:0:
417,357,80901,2,0,P|440:291|394:237,1,148,12|4,0:0|3:0,0:0:0:0:
300,216,81412,1,6,3:0:0:0:
191,311,81583,2,0,L|119:290,1,74,12|0,0:0|0:0,0:0:0:0:
9,195,81924,6,0,P|31:126|98:102,1,148,12|4,0:0|3:0,0:0:0:0:
209,11,82429,2,0,L|226:82,1,74,8|0,0:0|0:0,0:0:0:0:
296,149,82766,1,8,0:0:0:0:
296,149,82935,1,8,0:0:0:0:
393,17,83103,6,0,P|464:27|495:91,1,148,6|2,0:0|0:0,0:0:0:0:
506,187,83609,2,0,P|479:212|463:246,1,74,12|0,0:0|0:0,0:0:0:0:
474,342,83946,1,2,0:0:0:0:
378,352,84115,1,8,0:0:0:0:
282,362,84283,2,0,L|284:288,1,74,8|2,0:0|0:0,0:0:0:0:
365,169,84620,6,0,P|295:185|231:151,1,148,12|2,0:0|0:0,0:0:0:0:
119,58,85125,2,0,P|55:90|31:158,1,148,12|8,0:0|0:0,0:0:0:0:
128,154,85631,1,8,0:0:0:0:
84,291,85799,6,0,B|139:282|139:282|176:299|176:299|227:291,1,148,6|0,0:0|0:0,0:0:0:0:
307,343,86305,2,0,P|326:312|340:278,1,74,2|0,0:0|0:0,0:0:0:0:
356,183,86642,2,0,P|319:141|294:91,2,111,4|0|0,0:0|0:0|0:0,0:0:0:0:
440,228,87316,5,4,0:0:0:0:
256,192,87485,12,0,88833,0:0:0:0:
