osu file format v14

[General]
AudioFilename: audio.mp3
AudioLeadIn: 0
PreviewTime: 51507
Countdown: 0
SampleSet: Soft
StackLeniency: 0.5
Mode: 0
LetterboxInBreaks: 0
WidescreenStoryboard: 0

[Editor]
Bookmarks: 11811,17209,27996,38782,52266,87316
DistanceSpacing: 1
BeatDivisor: 2
GridSize: 4
TimelineZoom: 1

[Metadata]
Title:Ashita no Kimi sae Ireba Ii.
TitleUnicode:明日の君さえいればいい。
Artist:ChouCho
ArtistUnicode:ChouCho
Creator:Meg
Version:Easy
Source:妹さえいればいい。
Tags:ちょうちょ IMOTO SAE IREBA II. imouto opening op iMage-- カントク Kantoku 平坂読 Hirasaka Yomi
BeatmapID:1436790
BeatmapSetID:679369

[Difficulty]
HPDrainRate:3
CircleSize:2.8
OverallDifficulty:2
ApproachRate:3
SliderMultiplier:0.9
SliderTickRate:1

[Events]
//Background and Video events
0,0,"imouto.jpg",0,0
//Break Periods
//Storyboard Layer 0 (Background)
//Storyboard Layer 1 (Fail)
//Storyboard Layer 2 (Pass)
//Storyboard Layer 3 (Foreground)
//Storyboard Sound Samples

[TimingPoints]
1025,342.857142857143,4,2,2,50,1,0
1025,-100,4,2,2,50,0,0
1882,337.078651685393,4,2,2,50,1,0
1882,-100,4,2,2,50,0,0
3061,333.333333333333,4,2,2,50,1,0
3061,-100,4,2,2,50,0,0
3727,338.983050847458,4,2,2,50,1,0
3727,-100,4,2,2,50,0,0
5082,337.078651685393,4,2,2,50,1,0
5082,-100,4,2,2,50,0,0
9126,340.909090909091,4,2,2,60,1,0
10489,-100,4,2,1,60,0,0
11137,337.078651685393,4,2,1,60,1,0
11811,342.857142857143,4,2,1,60,1,0
12668,329.67032967033,4,2,1,60,1,0
12668,-100,4,2,1,60,0,0
12997,337.078651685393,4,2,1,60,1,0
12997,-100,4,2,1,60,0,0
13165,337.078651685393,4,2,1,60,1,0
27659,-100,4,2,1,60,0,0
27996,-100,4,2,2,40,0,0
29176,-100,4,2,1,60,0,0
29513,-100,4,2,1,60,0,0
33389,-100,4,2,1,60,0,0
33726,-100,4,2,1,60,0,0
34063,-100,4,2,1,60,0,0
34400,-100,4,2,1,60,0,0
35412,-100,4,2,1,60,0,0
36086,-100,4,2,1,60,0,0
38445,-100,4,2,1,60,0,0
39962,-100,4,2,1,60,0,0
40636,-100,4,2,1,60,0,0
41479,-100,4,2,1,60,0,0
42659,-100,4,2,1,60,0,0
43839,-100,4,2,1,60,0,0
44176,-100,4,2,1,60,0,0
44850,-100,4,2,1,60,0,0
45524,-100,4,2,1,60,0,0
49569,-100,4,2,1,60,0,0
52266,-100,4,2,1,70,0,1
60356,-100,4,2,1,70,0,1
63052,-100,4,2,1,70,0,1
67771,333.333333333333,4,2,1,70,1,1
67771,-100,4,2,1,70,0,1
68437,333.333333333333,4,2,1,70,1,1
69104,337.078651685393,4,2,1,70,1,1
69778,337.078651685393,4,2,1,70,1,1
69778,-100,4,2,1,70,0,1
72474,340.909090909091,4,2,1,70,1,1
72474,-100,4,2,1,70,0,1
73667,337.078651685393,4,2,1,70,1,1
73667,-100,4,2,1,70,0,1
73835,337.078651685393,4,2,1,70,1,1
77711,333.333333333333,4,2,1,70,1,1
77711,-100,4,2,1,70,0,1
77877,333.333333333333,4,2,1,70,1,1
79211,337.078651685393,4,2,1,70,1,1
79716,-100,4,2,1,70,0,1
80390,340.909090909091,4,2,1,70,1,1
80390,-100,4,2,1,70,0,1
80560,340.909090909091,4,2,1,70,1,1
81924,337.078651685393,4,2,1,70,1,1
81924,-100,4,2,1,70,0,1
84620,337.078651685393,4,2,1,70,1,1
86642,-100,4,2,1,70,0,1
87316,-100,4,2,1,60,0,0
87653,-100,4,2,1,40,0,0
87990,-100,4,2,1,20,0,0
88327,-100,4,2,1,10,0,0
88664,-100,4,2,1,5,0,0

[Colours]
Combo1 : 255,255,0
Combo2 : 255,157,206
Combo3 : 254,174,27
Combo4 : 0,181,181

[HitObjects]
178,78,1025,6,0,P|280:43|362:112,1,225,2|2,0:0|0:0,0:0:0:0:
440,223,2387,2,0,B|371:229|371:229|344:204|344:204|271:213,1,180,2|2,0:0|0:0,0:0:0:0:
140,331,3727,6,0,P|73:246|110:145,1,225,2|2,0:0|0:0,0:0:0:0:
206,50,5082,2,0,L|184:228,1,180,2|2,0:0|0:0,0:0:0:0:
363,252,6430,6,0,P|421:219|488:207,2,135,2|2|0,0:0|0:0|0:0,0:0:0:0:
361,341,7778,2,0,P|287:298|283:211,1,180,2|2,0:0|0:0,0:0:0:0:
408,81,9126,5,2,0:0:0:0:
407,80,10489,2,0,P|363:88|319:83,1,90,2|2,3:0|3:0,0:0:0:0:
233,62,11137,2,0,P|218:105|212:150,1,90,4|12,0:3|0:3,0:0:0:0:
202,237,11811,6,0,P|115:246|53:185,1,180,6|0,0:0|3:0,0:0:0:0:
99,57,12997,2,0,L|233:63,1,135,12|8,0:0|0:0,0:0:0:0:
311,16,13839,2,0,P|323:58|313:101,1,90,8|8,0:0|0:0,0:0:0:0:
274,183,14513,6,0,P|234:259|277:334,1,180,4|8,0:0|0:0,0:0:0:0:
389,257,15693,2,0,P|455:254|512:219,1,135,12|8,0:0|0:0,0:0:0:0:
498,130,16535,2,0,L|483:41,1,90,12|8,0:0|3:2,0:0:0:0:
393,30,17209,6,0,P|307:25|260:98,1,180,6|2,0:0|0:0,0:0:0:0:
246,187,18221,1,8,0:0:0:0:
260,274,18558,2,0,P|300:256|326:220,2,90,2|8|2,0:0|0:0|0:0,0:0:0:0:
176,241,19569,1,8,0:0:0:0:
88,219,19906,6,0,P|48:273|39:340,2,135,2|0|8,0:0|0:0|0:0,0:0:0:0:
151,156,21254,2,0,P|165:113|169:68,1,90,2|8,0:0|0:0,0:0:0:0:
250,29,21929,2,0,L|338:46,1,90,2|8,0:0|0:0,0:0:0:0:
422,77,22603,6,0,P|338:96|314:179,1,180,6|2,0:0|0:0,0:0:0:0:
378,240,23614,1,8,0:0:0:0:
466,253,23951,2,0,P|449:294|414:322,1,90,2|12,0:0|0:0,0:0:0:0:
325,311,24625,2,0,L|238:285,1,90,2|8,0:0|0:0,0:0:0:0:
155,249,25299,6,0,P|96:255|40:357,1,180,6|8,0:0|0:0,0:0:0:0:
172,377,26479,2,0,L|305:357,1,135,6|8,0:0|3:0,0:0:0:0:
384,313,27322,2,0,P|427:323|469:339,2,90,4|12|6,3:3|0:0|0:0,0:0:0:0:
101,168,29176,6,0,B|88:109|88:109|93:66|128:50,1,135,12|0,0:0|0:0,0:0:0:0:
215,67,30018,2,0,P|267:137|354:132,1,180,4|8,1:3|0:0,0:0:0:0:
427,79,31030,5,12,0:0:0:0:
481,148,31367,2,0,P|483:216|463:280,1,135,2|2,0:0|0:0,0:0:0:0:
329,296,32378,2,0,P|292:323|266:359,2,90,8|8|8,0:0|0:0|0:0,0:0:0:0:
368,215,33389,6,0,P|375:171|369:127,1,90,10|12,0:0|0:0,0:0:0:0:
302,66,34063,2,0,P|257:58|213:64,1,90,10|12,0:0|0:0,0:0:0:0:
152,132,34738,2,0,P|144:176|150:220,1,90,10|12,0:0|0:0,0:0:0:0:
218,282,35412,2,0,P|262:289|306:283,1,90,8|8,0:0|0:0,0:0:0:0:
374,342,36086,6,0,P|394:302|392:257,1,90,6|12,0:0|0:0,0:0:0:0:
434,177,36760,2,0,P|397:122|333:106,1,135,8|6,0:0|0:0,0:0:0:0:
202,142,37771,2,0,P|160:156|115:161,2,90,10|4|4,0:0|0:3|0:3,0:0:0:0:
273,195,38782,6,0,P|280:261|241:315,1,135,0|0,1:0|1:0,0:0:0:0:
75,264,39962,2,0,P|49:300|37:344,2,90,8|12|6,0:0|0:0|0:0,0:0:0:0:
109,133,41142,1,12,0:0:0:0:
188,174,41479,6,0,P|254:179|319:160,1,135,6|0,0:0|3:0,0:0:0:0:
467,57,42659,2,0,L|484:145,2,90,8|4|4,0:0|0:3|0:0,0:0:0:0:
332,44,43839,1,12,0:0:0:0:
241,49,44176,6,0,P|226:136|250:222,1,180,8|8,0:0|0:0,0:0:0:0:
384,341,45524,2,0,P|412:307|423:264,1,90,6|8,0:0|0:0,0:0:0:0:
410,175,46198,2,0,L|320:163,1,90,8|8,0:0|0:0,0:0:0:0:
250,221,46872,6,0,P|188:283|103:269,1,180,6|8,0:0|0:0,0:0:0:0:
53,194,47884,1,8,0:0:0:0:
37,104,48221,2,0,P|48:61|71:23,1,90,8|8,0:0|0:0,0:0:0:0:
161,20,48895,2,0,L|249:35,1,90,8|8,0:0|0:0,0:0:0:0:
289,115,49569,6,0,P|345:78|412:74,1,135,12|12,0:0|0:0,0:0:0:0:
491,235,50749,2,0,P|435:272|368:276,1,135,8|12,0:0|0:0,0:0:0:0:
291,229,51591,2,0,P|246:223|203:235,1,90,12|8,0:0|0:0,0:0:0:0:
155,310,52266,6,0,P|113:234|154:158,1,180,6|2,0:0|0:0,0:0:0:0:
238,126,53277,1,8,0:0:0:0:
327,114,53614,2,0,P|388:140|455:139,2,135,0|0|8,0:0|0:0|0:0,0:0:0:0:
272,42,54962,6,0,P|210:15|143:16,2,135,2|0|8,0:0|0:0|0:0,0:0:0:0:
238,126,56311,2,0,L|222:305,1,180,2|2,0:0|0:0,0:0:0:0:
153,362,57322,1,8,0:0:0:0:
62,350,57659,6,0,P|59:269|139:271,1,180,6|2,0:0|0:0,0:0:0:0:
222,305,58670,1,8,0:0:0:0:
306,335,59007,2,0,P|349:345|394:346,1,90,2|8,0:0|0:0,0:0:0:0:
474,304,59681,2,0,L|479:214,1,90,8|8,0:0|0:0,0:0:0:0:
479,123,60356,6,0,P|437:72|371:67,1,135,12|12,0:0|0:0,0:0:0:0:
298,119,61198,1,2,0:0:0:0:
243,192,61535,2,0,P|201:244|136:248,1,135,12|8,0:0|0:0,0:0:0:0:
78,179,62378,2,0,L|88:89,1,90,4|8,0:0|0:0,0:0:0:0:
169,48,63052,6,0,B|234:34|234:34|279:54|279:54|341:40,1,180,6|2,0:0|0:0,0:0:0:0:
473,68,64232,2,0,P|484:133|450:190,1,135,6|8,0:0|0:0,0:0:0:0:
392,259,65075,2,0,P|353:236|309:227,1,90,2|8,0:0|0:0,0:0:0:0:
224,255,65749,6,0,L|47:288,1,180,2|8,0:0|0:0,0:0:0:0:
57,154,66929,2,0,P|78:92|139:66,1,135,8|4,0:0|3:0,0:0:0:0:
233,64,67771,2,0,P|261:98|303:112,1,90,2|8,0:0|0:0,0:0:0:0:
363,180,68437,6,0,P|432:130|501:179,1,180,0|0,1:0|1:0,0:0:0:0:
494,269,69441,1,6,3:0:0:0:
431,333,69778,2,0,B|365:301|365:301|260:321,1,180,0|0,1:0|1:0,0:0:0:0:
128,351,70957,6,0,P|92:295|100:229,1,135,6|8,0:0|0:0,0:0:0:0:
133,145,71800,2,0,P|177:152|222:155,1,90,2|12,0:0|0:0,0:0:0:0:
306,127,72474,2,0,L|295:37,1,90,8|8,0:0|0:0,0:0:0:0:
455,199,73667,6,0,P|432:237|393:257,1,90,12|8,0:0|0:0,0:0:0:0:
335,326,74340,2,0,P|311:287|273:265,1,90,12|8,0:0|0:0,0:0:0:0:
184,275,75014,2,0,L|94:288,1,90,12|8,0:0|0:0,0:0:0:0:
14,248,75688,2,0,P|25:182|68:130,1,135,12|4,0:0|3:0,0:0:0:0:
138,73,76531,6,0,B|199:102|199:102|265:89,1,135,12|12,0:0|0:0,0:0:0:0:
348,54,77374,1,2,0:0:0:0:
437,31,77711,2,0,P|453:96|426:157,1,135,12|8,0:0|0:0,0:0:0:0:
383,235,78543,2,0,P|341:221|296:221,1,90,8|8,0:0|0:0,0:0:0:0:
206,225,79211,6,0,L|181:357,1,135,12|12,0:0|0:0,0:0:0:0:
96,325,80053,1,8,0:0:0:0:
20,278,80390,2,0,L|44:145,1,135,6|12,0:0|0:0,0:0:0:0:
21,58,81241,2,0,P|65:52|104:72,1,90,4|12,3:0|0:0,0:0:0:0:
172,133,81924,6,0,P|232:160|296:145,1,135,12|8,0:0|0:0,0:0:0:0:
354,74,82766,1,8,0:0:0:0:
443,41,83103,2,0,L|418:173,1,135,6|12,0:0|0:0,0:0:0:0:
373,251,83946,2,0,P|406:279|422:321,1,90,2|8,0:0|0:0,0:0:0:0:
332,329,84620,6,0,P|267:310|199:311,1,135,12|12,0:0|0:0,0:0:0:0:
114,339,85462,1,8,0:0:0:0:
24,354,85799,2,0,P|38:289|90:249,1,135,6|2,0:0|0:0,0:0:0:0:
169,206,86642,2,0,P|185:129|106:123,1,180,4|4,0:0|0:0,0:0:0:0:
256,192,87485,12,0,88833,0:0:0:0:
