osu file format v14

[General]
AudioFilename: Imouto.mp3
AudioLeadIn: 0
PreviewTime: 51606
Countdown: 0
SampleSet: Drum
StackLeniency: 0.7
Mode: 3
LetterboxInBreaks: 0
SpecialStyle: 0
WidescreenStoryboard: 0

[Editor]
DistanceSpacing: 1.3
BeatDivisor: 4
GridSize: 4
TimelineZoom: 1.9

[Metadata]
Title:Ashita no Kimi sae Ireba Ii.
TitleUnicode:明日の君さえいればいい。
Artist:ChouCho
ArtistUnicode:ChouCho
Creator:Gravey-
Version:Imouto!
Source:妹さえいればいい。
Tags:Imouto Sareba Ii Nayuta Kani Miyako Shirakawa opening op A Sister's All You Need yuxuki waga Youhei fhana Matsui Yoshihiro Kawamura Yuko Yanagino Jun Murayama LACM-14658 anime japanese
BeatmapID:2019226
BeatmapSetID:964367

[Difficulty]
HPDrainRate:8
CircleSize:4
OverallDifficulty:8
ApproachRate:5
SliderMultiplier:1.1
SliderTickRate:1

[Events]
//Background and Video events
0,0,"Imoutos.jpg",0,0
//Break Periods
//Storyboard Layer 0 (Background)
//Storyboard Layer 1 (Fail)
//Storyboard Layer 2 (Pass)
//Storyboard Layer 3 (Foreground)
//Storyboard Layer 4 (Overlay)
//Storyboard Sound Samples

[TimingPoints]
1045,337.078651685393,4,3,1,30,1,0
52280,-100,4,3,1,30,0,1
72505,-100,4,3,1,30,0,0

[HitObjects]
64,192,1045,5,0,0:0:0:0:
192,192,1045,1,0,0:0:0:0:
320,192,1213,1,0,0:0:0:0:
64,192,1382,1,0,0:0:0:0:
448,192,1550,1,0,0:0:0:0:
320,192,1550,1,0,0:0:0:0:
192,192,1719,1,0,0:0:0:0:
448,192,1887,1,0,0:0:0:0:
320,192,2056,1,0,0:0:0:0:
192,192,2224,1,0,0:0:0:0:
64,192,2393,1,0,0:0:0:0:
448,192,2393,1,0,0:0:0:0:
192,192,2730,1,0,0:0:0:0:
320,192,2898,1,0,0:0:0:0:
448,192,2898,1,0,0:0:0:0:
64,192,3067,1,0,0:0:0:0:
448,192,3236,1,0,0:0:0:0:
192,192,3404,1,0,0:0:0:0:
320,192,3573,1,0,0:0:0:0:
64,192,3741,1,0,0:0:0:0:
448,192,3741,1,0,0:0:0:0:
192,192,4078,1,0,0:0:0:0:
320,192,4247,1,0,0:0:0:0:
448,192,4247,1,0,0:0:0:0:
64,192,4415,1,0,0:0:0:0:
448,192,4584,1,0,0:0:0:0:
192,192,4752,1,0,0:0:0:0:
320,192,4921,1,0,0:0:0:0:
64,192,5089,1,0,0:0:0:0:
192,192,5089,1,0,0:0:0:0:
448,192,5427,1,0,0:0:0:0:
320,192,5595,1,0,0:0:0:0:
192,192,5595,1,0,0:0:0:0:
64,192,5764,1,0,0:0:0:0:
448,192,5932,1,0,0:0:0:0:
192,192,6101,1,0,0:0:0:0:
320,192,6269,1,0,0:0:0:0:
192,192,6353,1,0,0:0:0:0:
64,192,6438,1,0,0:0:0:0:
448,192,6438,1,0,0:0:0:0:
192,192,6775,1,0,0:0:0:0:
448,192,6943,1,0,0:0:0:0:
64,192,7112,1,0,0:0:0:0:
320,192,7280,1,0,0:0:0:0:
448,192,7449,1,0,0:0:0:0:
192,192,7618,1,0,0:0:0:0:
64,192,7786,1,0,0:0:0:0:
448,192,7786,1,0,0:0:0:0:
320,192,7955,1,0,0:0:0:0:
320,192,8123,1,0,0:0:0:0:
448,192,8460,128,0,8713:0:0:0:0:
192,192,8460,1,0,0:0:0:0:
64,192,8713,128,0,8966:0:0:0:0:
320,192,8966,128,0,9134:0:0:0:0:
64,192,9134,1,0,0:0:0:0:
448,192,9134,128,0,9640:0:0:0:0:
192,192,9640,128,0,9809:0:0:0:0:
320,192,9809,128,0,11157:0:0:0:0:
64,192,10483,1,4,0:0:0:0:
448,192,10483,1,0,0:0:0:0:
64,192,10820,1,0,0:0:0:0:
448,192,10820,1,4,0:0:0:0:
64,192,11157,1,2,0:0:0:0:
192,192,11241,1,2,0:0:0:0:
320,192,11325,1,0,0:0:0:0:
448,192,11325,1,8,0:0:0:0:
64,192,11410,1,8,0:0:0:0:
192,192,11410,1,0,0:0:0:0:
320,192,11494,1,8,0:0:0:0:
448,192,11494,1,0,0:0:0:0:
64,192,11578,1,2,0:0:0:0:
192,192,11662,1,2,0:0:0:0:
320,192,11747,1,2,0:0:0:0:
64,192,11831,1,4,0:0:0:0:
192,192,11831,1,0,0:0:0:0:
448,192,11831,1,2,0:0:0:0:
320,192,12000,128,0,12168:0:0:0:0:
448,192,12168,1,8,0:0:0:0:
64,192,12168,1,4,0:0:0:0:
192,192,12168,1,0,0:0:0:0:
448,192,12505,1,2,0:0:0:0:
320,192,12505,1,0,0:0:0:0:
192,192,12674,1,0,0:0:0:0:
64,192,12674,1,2,0:0:0:0:
320,192,12842,1,0,0:0:0:0:
320,192,13011,1,8,0:0:0:0:
448,192,13011,1,0,0:0:0:0:
64,192,13011,1,0,0:0:0:0:
192,192,13179,1,0,0:0:0:0:
448,192,13348,1,0,0:0:0:0:
64,192,13348,1,2,0:0:0:0:
192,192,13516,1,0,0:0:0:0:
320,192,13516,1,8,0:0:0:0:
192,192,13769,1,2,0:0:0:0:
320,192,13769,1,0,0:0:0:0:
64,192,13853,1,8,0:0:0:0:
448,192,13853,128,0,14022:0:0:0:0:
64,192,14022,128,0,14191:0:0:0:0:
320,192,14022,1,2,0:0:0:0:
448,192,14191,128,0,14359:0:0:0:0:
192,192,14191,1,8,0:0:0:0:
320,192,14191,1,0,0:0:0:0:
192,192,14359,128,0,14528:0:0:0:0:
320,192,14528,128,0,14865:0:0:0:0:
64,192,14528,1,0,0:0:0:0:
448,192,14528,1,2,0:0:0:0:
192,192,14865,1,0,0:0:0:0:
448,192,14865,1,4,0:0:0:0:
64,192,14865,1,8,0:0:0:0:
64,192,15202,1,2,0:0:0:0:
192,192,15202,1,0,0:0:0:0:
320,192,15370,1,0,0:0:0:0:
448,192,15370,1,2,0:0:0:0:
192,192,15539,1,0,0:0:0:0:
64,192,15707,1,8,0:0:0:0:
320,192,15707,1,0,0:0:0:0:
448,192,15707,1,4,0:0:0:0:
320,192,16044,1,2,0:0:0:0:
448,192,16044,1,0,0:0:0:0:
64,192,16213,1,8,0:0:0:0:
192,192,16213,1,0,0:0:0:0:
448,192,16213,1,4,0:0:0:0:
64,192,16382,1,0,0:0:0:0:
320,192,16382,1,0,0:0:0:0:
448,192,16382,1,8,0:0:0:0:
64,192,16550,1,4,0:0:0:0:
192,192,16550,1,2,0:0:0:0:
320,192,16719,1,8,0:0:0:0:
448,192,16719,1,0,0:0:0:0:
192,192,16803,1,8,0:0:0:0:
64,192,16803,1,0,0:0:0:0:
320,192,16887,1,8,0:0:0:0:
448,192,16887,1,0,0:0:0:0:
64,192,16971,1,2,0:0:0:0:
192,192,17056,1,2,0:0:0:0:
448,192,17140,1,2,0:0:0:0:
64,192,17224,1,2,0:0:0:0:
320,192,17224,1,4,0:0:0:0:
192,192,17224,1,0,0:0:0:0:
448,192,17393,1,0,0:0:0:0:
192,192,17561,1,8,0:0:0:0:
320,192,17561,1,0,0:0:0:0:
64,192,17730,1,0,0:0:0:0:
448,192,17898,1,0,0:0:0:0:
320,192,17898,1,2,0:0:0:0:
64,192,18067,1,0,0:0:0:0:
192,192,18067,1,2,0:0:0:0:
448,192,18236,1,8,0:0:0:0:
64,192,18236,1,0,0:0:0:0:
320,192,18404,1,0,0:0:0:0:
192,192,18573,1,2,0:0:0:0:
64,192,18573,1,0,0:0:0:0:
320,192,18741,1,0,0:0:0:0:
64,192,18910,1,8,0:0:0:0:
448,192,18910,1,0,0:0:0:0:
320,192,19078,1,0,0:0:0:0:
64,192,19162,1,0,0:0:0:0:
192,192,19162,1,0,0:0:0:0:
448,192,19247,1,8,0:0:0:0:
192,192,19331,1,0,0:0:0:0:
320,192,19415,1,2,0:0:0:0:
448,192,19415,1,0,0:0:0:0:
64,192,19584,1,8,0:0:0:0:
320,192,19584,1,0,0:0:0:0:
192,192,19752,1,0,0:0:0:0:
192,192,19921,1,0,0:0:0:0:
448,192,19921,1,2,0:0:0:0:
320,192,20089,1,0,0:0:0:0:
64,192,20258,1,8,0:0:0:0:
448,192,20258,1,0,0:0:0:0:
192,192,20427,1,0,0:0:0:0:
320,192,20511,1,0,0:0:0:0:
448,192,20511,1,0,0:0:0:0:
64,192,20595,1,2,0:0:0:0:
192,192,20595,1,0,0:0:0:0:
320,192,20764,1,0,0:0:0:0:
448,192,20764,1,2,0:0:0:0:
64,192,20932,1,8,0:0:0:0:
448,192,20932,1,0,0:0:0:0:
192,192,21101,1,0,0:0:0:0:
448,192,21269,128,0,21438:0:0:0:0:
320,192,21269,1,2,0:0:0:0:
64,192,21438,128,0,21606:0:0:0:0:
192,192,21606,128,0,21775:0:0:0:0:
320,192,21606,1,8,0:0:0:0:
448,192,21775,128,0,21943:0:0:0:0:
64,192,21859,1,8,0:0:0:0:
320,192,21859,1,0,0:0:0:0:
192,192,21943,128,0,22112:0:0:0:0:
320,192,22112,128,0,22280:0:0:0:0:
448,192,22112,1,2,0:0:0:0:
192,192,22280,1,0,0:0:0:0:
64,192,22280,1,8,0:0:0:0:
320,192,22407,1,0,0:0:0:0:
64,192,22618,1,2,0:0:0:0:
448,192,22618,1,4,0:0:0:0:
192,192,22618,1,0,0:0:0:0:
320,192,22786,1,0,0:0:0:0:
64,192,22955,1,4,0:0:0:0:
192,192,22955,1,0,0:0:0:0:
320,192,22955,1,8,0:0:0:0:
192,192,23292,1,0,0:0:0:0:
320,192,23292,1,2,0:0:0:0:
192,192,23460,1,2,0:0:0:0:
320,192,23460,1,0,0:0:0:0:
64,192,23629,1,8,0:0:0:0:
448,192,23629,1,4,0:0:0:0:
192,192,23629,1,0,0:0:0:0:
448,192,23966,1,2,0:0:0:0:
192,192,23966,1,0,0:0:0:0:
448,192,24134,1,0,0:0:0:0:
192,192,24134,1,2,0:0:0:0:
64,192,24303,1,8,0:0:0:0:
320,192,24303,1,0,0:0:0:0:
448,192,24303,1,4,0:0:0:0:
320,192,24640,1,2,0:0:0:0:
192,192,24640,1,0,0:0:0:0:
64,192,24809,1,0,0:0:0:0:
448,192,24809,1,0,0:0:0:0:
192,192,24809,1,8,0:0:0:0:
64,192,24977,1,0,0:0:0:0:
448,192,24977,128,0,25146:0:0:0:0:
320,192,24977,1,8,0:0:0:0:
192,192,25146,128,0,25314:0:0:0:0:
64,192,25314,1,2,0:0:0:0:
320,192,25314,1,0,0:0:0:0:
448,192,25314,1,4,0:0:0:0:
64,192,25651,1,0,0:0:0:0:
192,192,25651,1,8,0:0:0:0:
320,192,25820,1,2,0:0:0:0:
192,192,25988,1,8,0:0:0:0:
448,192,25988,1,0,0:0:0:0:
64,192,26157,1,2,0:0:0:0:
320,192,26325,1,8,0:0:0:0:
64,192,26494,1,2,0:0:0:0:
192,192,26494,1,0,0:0:0:0:
448,192,26494,1,4,0:0:0:0:
64,192,26831,1,2,0:0:0:0:
448,192,26831,1,0,0:0:0:0:
320,192,27000,1,2,0:0:0:0:
192,192,27000,1,0,0:0:0:0:
448,192,27168,1,0,0:0:0:0:
320,192,27252,1,0,0:0:0:0:
192,192,27337,1,0,0:0:0:0:
64,192,27337,1,2,0:0:0:0:
448,192,27505,1,0,0:0:0:0:
320,192,27505,1,2,0:0:0:0:
320,192,27674,1,4,0:0:0:0:
64,192,27674,128,0,27842:0:0:0:0:
192,192,27674,1,8,0:0:0:0:
448,192,27842,128,0,28011:0:0:0:0:
64,192,28011,1,2,0:0:0:0:
192,192,28011,1,0,0:0:0:0:
320,192,28011,1,4,0:0:0:0:
320,192,28348,1,0,0:0:0:0:
64,192,28516,1,0,0:0:0:0:
448,192,28685,1,0,0:0:0:0:
192,192,28853,1,0,0:0:0:0:
320,192,29022,1,0,0:0:0:0:
64,192,29191,1,2,0:0:0:0:
192,192,29191,1,0,0:0:0:0:
448,192,29191,1,4,0:0:0:0:
192,192,29528,1,2,0:0:0:0:
320,192,29528,1,0,0:0:0:0:
448,192,29696,1,8,0:0:0:0:
64,192,29696,1,4,0:0:0:0:
320,192,29865,1,2,0:0:0:0:
64,192,30033,1,2,0:0:0:0:
192,192,30033,1,0,0:0:0:0:
192,192,30286,1,0,0:0:0:0:
320,192,30286,1,2,0:0:0:0:
320,192,30539,1,2,0:0:0:0:
448,192,30539,1,0,0:0:0:0:
64,192,30707,1,8,0:0:0:0:
192,192,30707,1,0,0:0:0:0:
448,192,30876,1,0,0:0:0:0:
320,192,30876,1,2,0:0:0:0:
192,192,31044,1,0,0:0:0:0:
448,192,31044,1,4,0:0:0:0:
64,192,31044,1,8,0:0:0:0:
192,192,31382,1,0,0:0:0:0:
448,192,31382,1,2,0:0:0:0:
192,192,31550,1,2,0:0:0:0:
448,192,31550,1,0,0:0:0:0:
320,192,31719,1,8,0:0:0:0:
64,192,31719,1,0,0:0:0:0:
448,192,31887,1,0,0:0:0:0:
192,192,31887,1,2,0:0:0:0:
64,192,32056,1,8,0:0:0:0:
320,192,32224,1,2,0:0:0:0:
448,192,32224,1,0,0:0:0:0:
448,192,32393,1,8,0:0:0:0:
192,192,32393,1,0,0:0:0:0:
320,192,32561,1,0,0:0:0:0:
192,192,32646,1,0,0:0:0:0:
320,192,32730,1,0,0:0:0:0:
448,192,32730,1,8,0:0:0:0:
64,192,32730,1,2,0:0:0:0:
64,192,32898,1,0,0:0:0:0:
192,192,32898,1,8,0:0:0:0:
320,192,32983,1,8,0:0:0:0:
448,192,32983,1,0,0:0:0:0:
64,192,33067,1,0,0:0:0:0:
192,192,33067,1,2,0:0:0:0:
320,192,33151,1,8,0:0:0:0:
448,192,33151,1,0,0:0:0:0:
64,192,33236,1,0,0:0:0:0:
192,192,33236,1,8,0:0:0:0:
448,192,33404,1,2,0:0:0:0:
192,192,33404,1,0,0:0:0:0:
448,192,33573,1,0,0:0:0:0:
320,192,33573,1,2,0:0:0:0:
64,192,33741,1,8,0:0:0:0:
192,192,33741,1,0,0:0:0:0:
448,192,33741,1,4,0:0:0:0:
64,192,34078,1,0,0:0:0:0:
320,192,34078,1,2,0:0:0:0:
64,192,34247,1,0,0:0:0:0:
192,192,34247,1,2,0:0:0:0:
64,192,34415,1,8,0:0:0:0:
320,192,34415,1,0,0:0:0:0:
448,192,34415,1,4,0:0:0:0:
64,192,34752,1,0,0:0:0:0:
192,192,34752,1,2,0:0:0:0:
320,192,34921,1,2,0:0:0:0:
448,192,34921,1,0,0:0:0:0:
64,192,35089,1,8,0:0:0:0:
192,192,35089,1,0,0:0:0:0:
448,192,35089,1,4,0:0:0:0:
320,192,35427,1,2,0:0:0:0:
448,192,35427,1,0,0:0:0:0:
320,192,35595,1,8,0:0:0:0:
64,192,35595,1,0,0:0:0:0:
192,192,35764,1,8,0:0:0:0:
448,192,35764,1,0,0:0:0:0:
320,192,35932,1,2,0:0:0:0:
64,192,36101,1,8,0:0:0:0:
192,192,36101,1,0,0:0:0:0:
192,192,36269,1,2,0:0:0:0:
320,192,36269,1,0,0:0:0:0:
320,192,36438,1,0,0:0:0:0:
448,192,36438,1,8,0:0:0:0:
64,192,36438,1,4,0:0:0:0:
64,192,36606,1,0,0:0:0:0:
192,192,36606,1,2,0:0:0:0:
448,192,36775,1,4,0:0:0:0:
320,192,36775,1,8,0:0:0:0:
192,192,36775,1,0,0:0:0:0:
448,192,36943,1,0,0:0:0:0:
320,192,36943,1,2,0:0:0:0:
64,192,37112,1,0,0:0:0:0:
192,192,37112,1,8,0:0:0:0:
64,192,37280,1,2,0:0:0:0:
320,192,37280,1,0,0:0:0:0:
448,192,37280,1,4,0:0:0:0:
192,192,37449,1,0,0:0:0:0:
448,192,37618,1,0,0:0:0:0:
320,192,37618,1,2,0:0:0:0:
64,192,37786,1,4,0:0:0:0:
192,192,37786,1,0,0:0:0:0:
448,192,37786,1,8,0:0:0:0:
64,192,38123,1,2,0:0:0:0:
448,192,38123,1,0,0:0:0:0:
320,192,38292,1,0,0:0:0:0:
448,192,38292,1,2,0:0:0:0:
192,192,38460,1,2,0:0:0:0:
64,192,38460,1,0,0:0:0:0:
320,192,38629,1,2,0:0:0:0:
448,192,38629,1,0,0:0:0:0:
448,192,38797,128,2,39134:0:0:0:0:
192,192,38797,128,0,39134:0:0:0:0:
64,192,39303,128,2,39471:0:0:0:0:
320,192,39303,128,0,39471:0:0:0:0:
192,192,39640,1,2,0:0:0:0:
64,192,39640,1,0,0:0:0:0:
320,192,39809,1,0,0:0:0:0:
448,192,39809,1,8,0:0:0:0:
64,192,39977,1,4,0:0:0:0:
192,192,39977,1,0,0:0:0:0:
448,192,39977,1,2,0:0:0:0:
448,192,40314,1,4,0:0:0:0:
64,192,40314,1,2,0:0:0:0:
320,192,40314,1,0,0:0:0:0:
320,192,40483,1,0,0:0:0:0:
192,192,40483,1,8,0:0:0:0:
64,192,40651,1,4,0:0:0:0:
192,192,40651,1,0,0:0:0:0:
448,192,40651,1,2,0:0:0:0:
320,192,40988,1,0,0:0:0:0:
448,192,41157,128,0,41325:0:0:0:0:
64,192,41157,1,8,0:0:0:0:
192,192,41325,128,0,41494:0:0:0:0:
64,192,41494,128,4,41662:0:0:0:0:
320,192,41494,128,0,41662:0:0:0:0:
448,192,41494,1,2,0:0:0:0:
64,192,41831,1,0,0:0:0:0:
192,192,41831,1,8,0:0:0:0:
448,192,42000,128,0,42168:0:0:0:0:
192,192,42000,128,0,42168:0:0:0:0:
64,192,42168,1,8,0:0:0:0:
320,192,42168,1,2,0:0:0:0:
448,192,42337,1,2,0:0:0:0:
192,192,42337,1,0,0:0:0:0:
64,192,42505,1,8,0:0:0:0:
320,192,42505,1,0,0:0:0:0:
448,192,42674,1,2,0:0:0:0:
64,192,42674,1,4,0:0:0:0:
192,192,42674,1,0,0:0:0:0:
320,192,43011,1,0,0:0:0:0:
448,192,43011,1,2,0:0:0:0:
64,192,43179,1,8,0:0:0:0:
192,192,43179,1,0,0:0:0:0:
64,192,43348,1,4,0:0:0:0:
320,192,43348,1,0,0:0:0:0:
448,192,43348,1,2,0:0:0:0:
192,192,43516,1,0,0:0:0:0:
64,192,43516,1,2,0:0:0:0:
448,192,43601,1,2,0:0:0:0:
192,192,43685,1,2,0:0:0:0:
320,192,43685,1,0,0:0:0:0:
64,192,43769,1,2,0:0:0:0:
320,192,43853,1,0,0:0:0:0:
448,192,43853,1,4,0:0:0:0:
192,192,43853,1,8,0:0:0:0:
64,192,44191,1,8,0:0:0:0:
320,192,44191,1,2,0:0:0:0:
448,192,44191,128,0,44443:0:0:0:0:
64,192,44443,128,0,44696:0:0:0:0:
192,192,44443,1,8,0:0:0:0:
320,192,44443,1,2,0:0:0:0:
320,192,44696,128,0,44865:0:0:0:0:
448,192,44696,1,2,0:0:0:0:
192,192,44696,1,8,0:0:0:0:
192,192,44865,128,0,45118:0:0:0:0:
64,192,44865,1,2,0:0:0:0:
448,192,44865,1,8,0:0:0:0:
448,192,45118,128,0,45370:0:0:0:0:
320,192,45118,1,2,0:0:0:0:
64,192,45118,1,8,0:0:0:0:
64,192,45370,128,0,45539:0:0:0:0:
192,192,45370,1,2,0:0:0:0:
320,192,45370,1,8,0:0:0:0:
192,192,45539,1,4,0:0:0:0:
448,192,45539,1,2,0:0:0:0:
320,192,45539,128,0,45876:0:0:0:0:
64,192,45707,1,8,0:0:0:0:
64,192,45876,128,0,46213:0:0:0:0:
192,192,45876,1,2,0:0:0:0:
448,192,46044,1,8,0:0:0:0:
320,192,46044,1,0,0:0:0:0:
448,192,46213,128,0,46550:0:0:0:0:
192,192,46213,1,2,0:0:0:0:
64,192,46382,1,8,0:0:0:0:
320,192,46382,1,0,0:0:0:0:
192,192,46550,128,0,46887:0:0:0:0:
320,192,46550,1,2,0:0:0:0:
448,192,46719,1,8,0:0:0:0:
64,192,46719,1,0,0:0:0:0:
64,192,46887,1,2,0:0:0:0:
448,192,46887,1,4,0:0:0:0:
192,192,47056,1,8,0:0:0:0:
320,192,47140,1,8,0:0:0:0:
192,192,47224,1,2,0:0:0:0:
448,192,47224,1,0,0:0:0:0:
64,192,47309,1,8,0:0:0:0:
320,192,47393,1,8,0:0:0:0:
448,192,47477,1,8,0:0:0:0:
192,192,47561,1,2,0:0:0:0:
64,192,47561,1,0,0:0:0:0:
320,192,47646,1,8,0:0:0:0:
64,192,47730,1,8,0:0:0:0:
192,192,47814,1,8,0:0:0:0:
448,192,47898,1,0,0:0:0:0:
320,192,47898,1,2,0:0:0:0:
192,192,47983,1,8,0:0:0:0:
64,192,48067,1,8,0:0:0:0:
448,192,48151,1,8,0:0:0:0:
192,192,48236,1,2,0:0:0:0:
64,192,48236,1,0,0:0:0:0:
320,192,48320,1,8,0:0:0:0:
192,192,48404,1,8,0:0:0:0:
448,192,48488,1,8,0:0:0:0:
64,192,48573,1,0,0:0:0:0:
320,192,48573,1,2,0:0:0:0:
192,192,48657,1,8,0:0:0:0:
320,192,48741,1,8,0:0:0:0:
64,192,48825,1,8,0:0:0:0:
192,192,48910,1,2,0:0:0:0:
448,192,48910,1,0,0:0:0:0:
320,192,48994,1,8,0:0:0:0:
448,192,49078,1,8,0:0:0:0:
192,192,49162,1,8,0:0:0:0:
64,192,49247,1,0,0:0:0:0:
320,192,49247,1,2,0:0:0:0:
448,192,49331,1,8,0:0:0:0:
320,192,49415,1,8,0:0:0:0:
192,192,49500,1,8,0:0:0:0:
64,192,49584,1,8,0:0:0:0:
320,192,49584,1,0,0:0:0:0:
448,192,49584,1,4,0:0:0:0:
192,192,49752,1,2,0:0:0:0:
448,192,49837,1,2,0:0:0:0:
64,192,49921,1,2,0:0:0:0:
64,192,50089,1,4,0:0:0:0:
192,192,50089,1,0,0:0:0:0:
448,192,50089,1,8,0:0:0:0:
320,192,50258,1,2,0:0:0:0:
64,192,50342,1,2,0:0:0:0:
448,192,50427,1,2,0:0:0:0:
64,192,50595,1,0,0:0:0:0:
192,192,50595,1,8,0:0:0:0:
64,192,50764,1,2,0:0:0:0:
448,192,50764,1,4,0:0:0:0:
320,192,50764,1,0,0:0:0:0:
64,192,51101,1,0,0:0:0:0:
192,192,51101,1,8,0:0:0:0:
448,192,51101,1,2,0:0:0:0:
64,192,51269,1,2,0:0:0:0:
320,192,51269,1,8,0:0:0:0:
448,192,51269,1,0,0:0:0:0:
64,192,51606,1,0,0:0:0:0:
192,192,51606,1,4,0:0:0:0:
448,192,51606,1,8,0:0:0:0:
320,192,51775,1,8,0:0:0:0:
448,192,51775,1,0,0:0:0:0:
192,192,51859,1,8,0:0:0:0:
64,192,51859,1,0,0:0:0:0:
320,192,51943,1,8,0:0:0:0:
448,192,51943,1,0,0:0:0:0:
64,192,52028,1,0,0:0:0:0:
192,192,52028,1,8,0:0:0:0:
320,192,52112,1,8,0:0:0:0:
448,192,52112,1,0,0:0:0:0:
64,192,52196,1,0,0:0:0:0:
192,192,52196,1,8,0:0:0:0:
64,192,52280,1,2,0:0:0:0:
320,192,52280,1,0,0:0:0:0:
448,192,52280,1,4,0:0:0:0:
192,192,52449,1,0,0:0:0:0:
64,192,52618,1,4,0:0:0:0:
192,192,52618,1,0,0:0:0:0:
448,192,52618,1,8,0:0:0:0:
320,192,52786,1,0,0:0:0:0:
320,192,52955,1,0,0:0:0:0:
448,192,52955,1,2,0:0:0:0:
64,192,53123,1,0,0:0:0:0:
192,192,53123,1,2,0:0:0:0:
448,192,53292,1,4,0:0:0:0:
64,192,53292,1,8,0:0:0:0:
320,192,53292,1,0,0:0:0:0:
320,192,53460,1,0,0:0:0:0:
192,192,53460,1,2,0:0:0:0:
192,192,53629,1,0,0:0:0:0:
64,192,53797,1,0,0:0:0:0:
448,192,53797,1,2,0:0:0:0:
192,192,53966,1,4,0:0:0:0:
448,192,53966,1,8,0:0:0:0:
64,192,53966,1,0,0:0:0:0:
320,192,54134,1,0,0:0:0:0:
192,192,54219,1,8,0:0:0:0:
64,192,54303,1,0,0:0:0:0:
320,192,54303,1,2,0:0:0:0:
448,192,54471,1,0,0:0:0:0:
192,192,54471,1,2,0:0:0:0:
64,192,54640,1,8,0:0:0:0:
448,192,54640,1,4,0:0:0:0:
320,192,54640,1,0,0:0:0:0:
320,192,54809,1,0,0:0:0:0:
64,192,54977,1,0,0:0:0:0:
192,192,54977,1,2,0:0:0:0:
320,192,55146,1,2,0:0:0:0:
448,192,55146,1,0,0:0:0:0:
64,192,55314,1,0,0:0:0:0:
192,192,55314,1,4,0:0:0:0:
448,192,55314,1,8,0:0:0:0:
64,192,55483,1,0,0:0:0:0:
192,192,55567,1,0,0:0:0:0:
448,192,55651,1,0,0:0:0:0:
320,192,55651,1,2,0:0:0:0:
192,192,55820,1,2,0:0:0:0:
64,192,55820,1,0,0:0:0:0:
64,192,55988,1,4,0:0:0:0:
448,192,55988,1,8,0:0:0:0:
320,192,55988,1,0,0:0:0:0:
192,192,56157,1,0,0:0:0:0:
320,192,56325,1,2,0:0:0:0:
448,192,56325,1,0,0:0:0:0:
64,192,56494,1,0,0:0:0:0:
192,192,56494,1,2,0:0:0:0:
192,192,56662,1,0,0:0:0:0:
448,192,56662,1,8,0:0:0:0:
320,192,56662,1,4,0:0:0:0:
192,192,56831,1,8,0:0:0:0:
448,192,56831,1,0,0:0:0:0:
320,192,56831,1,0,0:0:0:0:
64,192,57000,128,0,57337:0:0:0:0:
320,192,57000,1,2,0:0:0:0:
192,192,57168,1,0,0:0:0:0:
448,192,57168,1,2,0:0:0:0:
320,192,57337,1,0,0:0:0:0:
448,192,57337,128,0,57674:0:0:0:0:
192,192,57337,1,8,0:0:0:0:
64,192,57674,1,4,0:0:0:0:
320,192,57674,1,2,0:0:0:0:
192,192,57674,1,0,0:0:0:0:
448,192,57842,1,0,0:0:0:0:
64,192,57927,1,2,0:0:0:0:
320,192,58011,1,4,0:0:0:0:
192,192,58011,1,0,0:0:0:0:
448,192,58011,1,8,0:0:0:0:
64,192,58179,1,0,0:0:0:0:
192,192,58348,1,2,0:0:0:0:
320,192,58348,1,0,0:0:0:0:
64,192,58516,1,0,0:0:0:0:
448,192,58601,1,2,0:0:0:0:
192,192,58685,1,4,0:0:0:0:
320,192,58685,1,0,0:0:0:0:
64,192,58685,1,8,0:0:0:0:
448,192,58853,1,0,0:0:0:0:
192,192,59022,1,2,0:0:0:0:
320,192,59022,1,0,0:0:0:0:
448,192,59191,1,0,0:0:0:0:
64,192,59275,1,2,0:0:0:0:
448,192,59359,1,4,0:0:0:0:
192,192,59359,1,0,0:0:0:0:
320,192,59359,1,8,0:0:0:0:
448,192,59696,1,0,0:0:0:0:
320,192,59696,1,2,0:0:0:0:
192,192,59780,1,8,0:0:0:0:
64,192,59780,1,0,0:0:0:0:
320,192,59865,1,0,0:0:0:0:
448,192,59865,1,8,0:0:0:0:
192,192,59949,1,8,0:0:0:0:
448,192,60033,1,2,0:0:0:0:
64,192,60033,1,0,0:0:0:0:
192,192,60118,1,8,0:0:0:0:
320,192,60118,1,0,0:0:0:0:
64,192,60202,1,0,0:0:0:0:
448,192,60202,1,8,0:0:0:0:
192,192,60286,1,8,0:0:0:0:
320,192,60286,1,0,0:0:0:0:
64,192,60370,1,2,0:0:0:0:
448,192,60370,1,4,0:0:0:0:
64,192,60539,1,0,0:0:0:0:
192,192,60539,1,2,0:0:0:0:
320,192,60707,1,8,0:0:0:0:
448,192,60707,1,0,0:0:0:0:
64,192,60876,1,2,0:0:0:0:
192,192,60876,1,0,0:0:0:0:
448,192,60876,1,4,0:0:0:0:
192,192,61213,1,0,0:0:0:0:
448,192,61213,1,2,0:0:0:0:
64,192,61382,1,8,0:0:0:0:
320,192,61382,1,0,0:0:0:0:
192,192,61550,1,4,0:0:0:0:
320,192,61550,1,0,0:0:0:0:
448,192,61550,1,2,0:0:0:0:
64,192,61887,1,2,0:0:0:0:
320,192,61887,1,0,0:0:0:0:
192,192,62056,1,0,0:0:0:0:
448,192,62056,1,8,0:0:0:0:
64,192,62224,1,8,0:0:0:0:
320,192,62224,1,0,0:0:0:0:
448,192,62224,1,4,0:0:0:0:
192,192,62393,1,2,0:0:0:0:
320,192,62393,1,0,0:0:0:0:
64,192,62561,1,0,0:0:0:0:
192,192,62561,1,8,0:0:0:0:
320,192,62646,1,8,0:0:0:0:
448,192,62646,1,0,0:0:0:0:
64,192,62730,1,0,0:0:0:0:
192,192,62730,1,2,0:0:0:0:
320,192,62814,1,8,0:0:0:0:
448,192,62814,1,0,0:0:0:0:
64,192,62898,1,0,0:0:0:0:
192,192,62898,1,8,0:0:0:0:
320,192,62983,1,8,0:0:0:0:
448,192,62983,1,0,0:0:0:0:
64,192,63067,1,4,0:0:0:0:
192,192,63067,1,0,0:0:0:0:
448,192,63067,1,2,0:0:0:0:
320,192,63236,1,0,0:0:0:0:
192,192,63320,1,2,0:0:0:0:
64,192,63404,1,4,0:0:0:0:
320,192,63404,1,0,0:0:0:0:
448,192,63404,1,8,0:0:0:0:
320,192,63741,1,2,0:0:0:0:
448,192,63741,1,0,0:0:0:0:
64,192,63910,1,0,0:0:0:0:
192,192,63910,1,2,0:0:0:0:
192,192,64078,1,0,0:0:0:0:
448,192,64078,1,8,0:0:0:0:
64,192,64247,1,2,0:0:0:0:
448,192,64247,1,0,0:0:0:0:
192,192,64584,1,0,0:0:0:0:
320,192,64584,1,2,0:0:0:0:
192,192,64752,1,8,0:0:0:0:
448,192,64752,1,0,0:0:0:0:
64,192,64921,1,0,0:0:0:0:
320,192,65005,1,8,0:0:0:0:
448,192,65005,1,0,0:0:0:0:
64,192,65089,1,0,0:0:0:0:
192,192,65089,1,2,0:0:0:0:
320,192,65258,1,2,0:0:0:0:
448,192,65258,1,0,0:0:0:0:
64,192,65427,1,8,0:0:0:0:
320,192,65427,1,0,0:0:0:0:
192,192,65595,1,0,0:0:0:0:
448,192,65595,1,8,0:0:0:0:
64,192,65764,1,0,0:0:0:0:
192,192,65764,1,2,0:0:0:0:
320,192,65932,1,2,0:0:0:0:
448,192,65932,1,0,0:0:0:0:
64,192,66101,1,8,0:0:0:0:
448,192,66101,1,0,0:0:0:0:
192,192,66269,1,0,0:0:0:0:
320,192,66269,1,2,0:0:0:0:
64,192,66438,1,8,0:0:0:0:
448,192,66438,1,0,0:0:0:0:
192,192,66606,1,0,0:0:0:0:
320,192,66606,1,2,0:0:0:0:
64,192,66775,1,8,0:0:0:0:
448,192,66775,1,0,0:0:0:0:
64,192,66943,1,8,0:0:0:0:
320,192,66943,1,0,0:0:0:0:
448,192,66943,1,2,0:0:0:0:
64,192,67280,1,2,0:0:0:0:
192,192,67280,1,0,0:0:0:0:
448,192,67280,1,8,0:0:0:0:
192,192,67449,1,8,0:0:0:0:
64,192,67618,1,8,0:0:0:0:
448,192,67618,1,2,0:0:0:0:
320,192,67618,1,0,0:0:0:0:
192,192,67786,1,2,0:0:0:0:
448,192,67955,1,0,0:0:0:0:
320,192,67955,1,8,0:0:0:0:
192,192,68039,1,8,0:0:0:0:
64,192,68039,1,0,0:0:0:0:
448,192,68123,1,0,0:0:0:0:
320,192,68123,1,2,0:0:0:0:
64,192,68207,1,0,0:0:0:0:
192,192,68207,1,2,0:0:0:0:
320,192,68292,1,2,0:0:0:0:
448,192,68292,1,0,0:0:0:0:
64,192,68376,1,0,0:0:0:0:
192,192,68376,1,2,0:0:0:0:
64,192,68460,1,2,0:0:0:0:
448,192,68460,1,8,0:0:0:0:
320,192,68460,1,0,0:0:0:0:
64,192,68713,1,8,0:0:0:0:
448,192,68713,1,2,0:0:0:0:
192,192,68713,1,0,0:0:0:0:
192,192,68966,1,8,0:0:0:0:
448,192,68966,1,2,0:0:0:0:
320,192,68966,1,0,0:0:0:0:
192,192,69134,1,2,0:0:0:0:
448,192,69134,1,8,0:0:0:0:
320,192,69134,1,0,0:0:0:0:
64,192,69471,1,0,0:0:0:0:
192,192,69471,1,8,0:0:0:0:
64,192,69809,1,2,0:0:0:0:
192,192,69809,1,0,0:0:0:0:
448,192,69809,1,8,0:0:0:0:
64,192,70061,1,8,0:0:0:0:
320,192,70061,1,0,0:0:0:0:
448,192,70061,1,2,0:0:0:0:
64,192,70314,1,8,0:0:0:0:
192,192,70314,1,0,0:0:0:0:
320,192,70314,1,2,0:0:0:0:
64,192,70483,1,2,0:0:0:0:
192,192,70483,1,0,0:0:0:0:
320,192,70483,1,8,0:0:0:0:
448,192,70567,1,0,0:0:0:0:
64,192,70651,1,0,0:0:0:0:
192,192,70651,1,8,0:0:0:0:
448,192,70736,1,0,0:0:0:0:
320,192,70736,1,8,0:0:0:0:
64,192,70820,1,0,0:0:0:0:
192,192,70820,1,8,0:0:0:0:
192,192,70988,1,4,0:0:0:0:
320,192,70988,1,0,0:0:0:0:
448,192,70988,1,2,0:0:0:0:
320,192,71325,1,2,0:0:0:0:
448,192,71325,1,0,0:0:0:0:
64,192,71494,1,8,0:0:0:0:
320,192,71494,1,0,0:0:0:0:
192,192,71662,1,0,0:0:0:0:
64,192,71747,1,0,0:0:0:0:
320,192,71831,1,0,0:0:0:0:
448,192,71831,1,2,0:0:0:0:
64,192,72000,1,2,0:0:0:0:
192,192,72000,1,0,0:0:0:0:
192,192,72168,1,0,0:0:0:0:
448,192,72168,1,8,0:0:0:0:
64,192,72337,1,0,0:0:0:0:
320,192,72337,1,2,0:0:0:0:
64,192,72505,1,2,0:0:0:0:
192,192,72505,1,0,0:0:0:0:
448,192,72505,1,8,0:0:0:0:
64,192,72674,1,0,0:0:0:0:
192,192,72674,1,8,0:0:0:0:
448,192,72674,1,2,0:0:0:0:
64,192,72842,1,2,0:0:0:0:
192,192,72842,1,0,0:0:0:0:
448,192,72842,1,8,0:0:0:0:
192,192,73179,1,8,0:0:0:0:
448,192,73348,1,0,0:0:0:0:
192,192,73432,1,8,0:0:0:0:
64,192,73432,1,0,0:0:0:0:
320,192,73516,1,8,0:0:0:0:
448,192,73516,1,0,0:0:0:0:
64,192,73685,1,4,0:0:0:0:
192,192,73685,1,0,0:0:0:0:
448,192,73685,1,2,0:0:0:0:
192,192,74022,1,0,0:0:0:0:
448,192,74022,1,2,0:0:0:0:
320,192,74191,1,0,0:0:0:0:
64,192,74191,1,8,0:0:0:0:
64,192,74359,1,4,0:0:0:0:
448,192,74359,1,2,0:0:0:0:
192,192,74359,1,0,0:0:0:0:
320,192,74696,1,2,0:0:0:0:
448,192,74696,1,0,0:0:0:0:
64,192,74865,1,0,0:0:0:0:
192,192,74865,1,8,0:0:0:0:
64,192,75033,1,2,0:0:0:0:
320,192,75033,1,0,0:0:0:0:
448,192,75033,1,4,0:0:0:0:
64,192,75370,1,0,0:0:0:0:
192,192,75370,1,2,0:0:0:0:
448,192,75539,1,8,0:0:0:0:
192,192,75539,1,0,0:0:0:0:
64,192,75539,1,4,0:0:0:0:
320,192,75707,1,2,0:0:0:0:
64,192,75876,1,0,0:0:0:0:
192,192,75876,1,2,0:0:0:0:
448,192,76044,1,0,0:0:0:0:
320,192,76044,1,2,0:0:0:0:
64,192,76129,1,0,0:0:0:0:
192,192,76129,1,2,0:0:0:0:
448,192,76213,1,0,0:0:0:0:
320,192,76213,1,2,0:0:0:0:
192,192,76382,128,0,76550:0:0:0:0:
64,192,76550,1,8,0:0:0:0:
448,192,76550,1,4,0:0:0:0:
320,192,76550,1,0,0:0:0:0:
192,192,76719,1,0,0:0:0:0:
320,192,76719,1,2,0:0:0:0:
192,192,76887,1,2,0:0:0:0:
320,192,76887,1,0,0:0:0:0:
64,192,77056,1,8,0:0:0:0:
448,192,77056,1,4,0:0:0:0:
192,192,77056,1,0,0:0:0:0:
448,192,77224,1,2,0:0:0:0:
320,192,77224,1,0,0:0:0:0:
448,192,77393,1,0,0:0:0:0:
320,192,77393,1,2,0:0:0:0:
64,192,77561,1,0,0:0:0:0:
192,192,77561,1,8,0:0:0:0:
64,192,77730,1,8,0:0:0:0:
448,192,77730,1,4,0:0:0:0:
320,192,77730,1,0,0:0:0:0:
64,192,78067,1,0,0:0:0:0:
448,192,78067,1,8,0:0:0:0:
192,192,78236,1,8,0:0:0:0:
320,192,78236,1,0,0:0:0:0:
64,192,78404,1,0,0:0:0:0:
448,192,78404,1,8,0:0:0:0:
192,192,78573,1,8,0:0:0:0:
320,192,78573,1,0,0:0:0:0:
320,192,78741,1,8,0:0:0:0:
448,192,78741,1,0,0:0:0:0:
64,192,78825,1,0,0:0:0:0:
192,192,78825,1,8,0:0:0:0:
320,192,78910,1,2,0:0:0:0:
448,192,78910,1,0,0:0:0:0:
64,192,78994,1,0,0:0:0:0:
192,192,78994,1,8,0:0:0:0:
320,192,79078,1,8,0:0:0:0:
448,192,79078,1,0,0:0:0:0:
64,192,79162,1,0,0:0:0:0:
192,192,79162,1,8,0:0:0:0:
64,192,79247,1,2,0:0:0:0:
320,192,79247,1,0,0:0:0:0:
448,192,79247,1,8,0:0:0:0:
320,192,79584,1,0,0:0:0:0:
64,192,79752,1,2,0:0:0:0:
192,192,79752,1,0,0:0:0:0:
448,192,79752,1,4,0:0:0:0:
64,192,80089,1,0,0:0:0:0:
192,192,80089,1,8,0:0:0:0:
64,192,80258,1,8,0:0:0:0:
192,192,80258,1,0,0:0:0:0:
64,192,80427,1,2,0:0:0:0:
320,192,80427,1,0,0:0:0:0:
448,192,80427,1,4,0:0:0:0:
320,192,80595,1,0,0:0:0:0:
64,192,80764,1,2,0:0:0:0:
192,192,80764,1,0,0:0:0:0:
192,192,80932,1,8,0:0:0:0:
448,192,80932,1,4,0:0:0:0:
320,192,80932,1,0,0:0:0:0:
64,192,81101,1,0,0:0:0:0:
192,192,81185,1,0,0:0:0:0:
320,192,81269,1,2,0:0:0:0:
448,192,81269,1,0,0:0:0:0:
64,192,81438,1,0,0:0:0:0:
192,192,81438,1,2,0:0:0:0:
448,192,81606,1,0,0:0:0:0:
320,192,81606,1,2,0:0:0:0:
64,192,81943,1,2,0:0:0:0:
448,192,81943,1,0,0:0:0:0:
192,192,81943,1,0,0:0:0:0:
192,192,82112,1,0,0:0:0:0:
320,192,82112,1,2,0:0:0:0:
64,192,82280,1,8,0:0:0:0:
448,192,82280,1,0,0:0:0:0:
320,192,82449,1,0,0:0:0:0:
64,192,82449,1,4,0:0:0:0:
448,192,82449,1,8,0:0:0:0:
64,192,82786,1,2,0:0:0:0:
192,192,82786,1,0,0:0:0:0:
320,192,82955,1,2,0:0:0:0:
448,192,82955,1,0,0:0:0:0:
64,192,83123,1,2,0:0:0:0:
192,192,83123,1,0,0:0:0:0:
448,192,83123,1,4,0:0:0:0:
320,192,83292,1,0,0:0:0:0:
192,192,83460,1,2,0:0:0:0:
64,192,83629,1,8,0:0:0:0:
320,192,83629,1,0,0:0:0:0:
448,192,83629,1,4,0:0:0:0:
448,192,83797,1,2,0:0:0:0:
64,192,83966,1,0,0:0:0:0:
192,192,83966,1,2,0:0:0:0:
320,192,84134,1,8,0:0:0:0:
448,192,84134,1,0,0:0:0:0:
64,192,84303,1,0,0:0:0:0:
192,192,84303,1,8,0:0:0:0:
192,192,84471,1,0,0:0:0:0:
448,192,84471,1,2,0:0:0:0:
64,192,84640,1,8,0:0:0:0:
320,192,84640,1,0,0:0:0:0:
448,192,84640,1,4,0:0:0:0:
64,192,84809,1,2,0:0:0:0:
192,192,84809,1,0,0:0:0:0:
320,192,84977,1,0,0:0:0:0:
448,192,84977,1,8,0:0:0:0:
64,192,85146,1,2,0:0:0:0:
192,192,85146,1,0,0:0:0:0:
448,192,85146,1,8,0:0:0:0:
320,192,85483,1,2,0:0:0:0:
448,192,85483,1,0,0:0:0:0:
64,192,85651,1,0,0:0:0:0:
192,192,85651,1,8,0:0:0:0:
64,192,85820,1,4,0:0:0:0:
320,192,85820,1,0,0:0:0:0:
448,192,85820,1,2,0:0:0:0:
192,192,86157,1,0,0:0:0:0:
448,192,86157,1,8,0:0:0:0:
64,192,86325,1,8,0:0:0:0:
320,192,86325,1,0,0:0:0:0:
448,192,86494,1,0,0:0:0:0:
320,192,86494,1,2,0:0:0:0:
192,192,86662,128,0,87337:0:0:0:0:
64,192,86662,1,2,0:0:0:0:
448,192,86662,1,4,0:0:0:0:
320,192,87337,128,4,88685:0:0:0:0:
64,192,87337,128,2,88685:0:0:0:0:
448,192,87337,128,8,88685:0:0:0:0:
