osu file format v14

[General]
AudioFilename: audio.mp3
AudioLeadIn: 0
PreviewTime:226757
Countdown: 0
SampleSet: Soft
StackLeniency: 0.7
Mode: 0
LetterboxInBreaks: 0
WidescreenStoryboard: 0

[Editor]
Bookmarks: 958,21182,31968,37361,48148,58934,72417,99384,107474,118260,129047,142530,163934,185676,207249,227474,249047,276013,286799,297417
DistanceSpacing: 0.8
BeatDivisor: 4
GridSize: 4
TimelineZoom: 0.9999999

[Metadata]
Title:Ashita no Kimi sae Ireba Ii.
TitleUnicode:明日の君さえいればいい。
Artist:ChouCho
ArtistUnicode:ChouCho
Creator:Ayesha Altugle
Version:Ex
Source:妹さえいればいい。
Tags:a sister's all you need amateurre shizuku- kazato asa shikibe mayu dahkjdas bongo lean monster xiced dog food door weapon lean monster hanakumo rin fedora- fedora yuuki noa imosae imoto sae ireba ii. imouto opening op full version anime pop jpop j-pop japanese
BeatmapID:3450697
BeatmapSetID:1688539

[Difficulty]
HPDrainRate:6
CircleSize:4
OverallDifficulty:8.8
ApproachRate:9.2
SliderMultiplier:1.8
SliderTickRate:1

[Events]
//Background and Video events
0,0,"shizuku_4_man_easter_egge_2.jpg",0,0
//Break Periods
2,118460,120218
2,207449,214095
//Storyboard Layer 0 (Background)
//Storyboard Layer 1 (Fail)
//Storyboard Layer 2 (Pass)
//Storyboard Layer 3 (Foreground)
//Storyboard Layer 4 (Overlay)
//Storyboard Sound Samples

[TimingPoints]
958,674.157303370787,4,2,3,35,1,0
958,-125,4,2,3,35,0,0
20508,-71.4285714285714,4,2,3,35,0,0
21182,337.078651685393,4,2,1,45,1,0
21182,-142.857142857143,4,2,1,45,0,0
31294,-142.857142857143,4,2,1,60,0,0
31631,-100,4,2,1,60,0,0
31968,-100,4,2,1,70,0,0
32305,-66.6666666666667,4,2,1,70,0,0
32811,-100,4,2,1,70,0,0
34665,-76.9230769230769,4,2,1,70,0,0
35170,-100,4,2,1,70,0,0
35844,-76.9230769230769,4,2,1,70,0,0
37361,-111.111111111111,4,2,1,60,0,0
42755,-142.857142857143,4,2,1,60,0,0
43092,-76.9230769230769,4,2,1,60,0,0
43766,-111.111111111111,4,2,1,60,0,0
44440,-76.9230769230769,4,2,1,60,0,0
45451,-100,4,2,1,60,0,0
46631,-76.9230769230769,4,2,1,60,0,0
47137,-83.3333333333333,4,2,1,60,0,0
51181,-100,4,2,1,60,0,0
53710,-125,4,2,1,60,0,0
53878,-76.9230769230769,4,2,1,60,0,0
54889,-100,4,2,1,60,0,0
59440,-125,4,2,1,60,0,0
60114,-100,4,2,1,60,0,0
63990,-66.6666666666667,4,2,1,60,0,0
64328,-76.9230769230769,4,2,1,70,0,0
67446,-76.9230769230769,4,2,2,70,0,0
68373,-100,4,2,2,70,0,0
69384,-100,4,2,1,70,0,0
69721,-76.9230769230769,4,2,1,70,0,0
72417,-111.111111111111,4,2,1,80,0,0
72755,-71.4285714285714,4,2,1,80,0,0
73092,-90.9090909090909,4,2,1,80,0,0
75114,-76.9230769230769,4,2,1,80,0,0
76799,-90.9090909090909,4,2,1,80,0,0
77811,-71.4285714285714,4,2,1,80,0,0
78485,-83.3333333333333,4,2,1,80,0,0
80507,-58.8235294117647,4,2,1,80,0,0
81687,-71.4285714285714,4,2,1,80,0,0
83204,-83.3333333333333,4,2,1,80,0,0
88597,-66.6666666666667,4,2,1,80,0,0
89608,-125,4,2,1,80,0,0
89946,-58.8235294117647,4,2,1,80,0,0
90451,-100,4,2,1,80,0,0
91125,-76.9230769230769,4,2,1,80,0,0
91884,-76.9230769230769,4,2,2,80,0,0
91968,-76.9230769230769,4,2,1,80,0,0
93653,-100,4,2,1,80,0,0
94496,-83.3333333333333,4,2,1,80,0,0
95170,-71.4285714285714,4,2,1,80,0,0
99047,-71.4285714285714,4,2,2,80,0,0
99384,-71.4285714285714,4,2,1,70,0,0
99721,-76.9230769230769,4,2,1,70,0,0
99889,-90.9090909090909,4,2,1,70,0,0
102923,-90.9090909090909,4,2,2,70,0,0
103092,-90.9090909090909,4,2,1,70,0,0
104777,-76.9230769230769,4,2,1,70,0,0
106799,-111.111111111111,4,2,1,70,0,0
107474,-83.3333333333333,4,2,1,70,0,0
110844,-100,4,2,1,70,0,0
111519,-83.3333333333333,4,2,1,70,0,0
118260,-83.3333333333333,4,2,1,50,0,0
120788,-125,4,2,1,40,0,0
122305,-125,4,2,1,50,0,0
123653,-125,4,2,1,60,0,0
126350,-100,4,2,1,70,0,0
134440,-76.9230769230769,4,2,1,70,0,0
137474,-76.9230769230769,4,2,2,70,0,0
138485,-100,4,2,2,70,0,0
139833,-100,4,2,1,70,0,0
140170,-76.9230769230769,4,2,1,70,0,0
142530,-111.111111111111,4,2,1,70,0,0
142867,-71.4285714285714,4,2,1,70,0,0
143710,-90.9090909090909,4,2,1,70,0,0
145226,-76.9230769230769,4,2,1,70,0,0
146912,-90.9090909090909,4,2,1,70,0,0
148260,-71.4285714285714,4,2,1,70,0,0
148597,-83.3333333333333,4,2,1,70,0,0
150620,-58.8235294117647,4,2,1,70,0,0
151799,-71.4285714285714,4,2,1,70,0,0
153316,-83.3333333333333,4,2,1,70,0,0
158710,-66.6666666666667,4,2,1,70,0,0
160058,-58.8235294117647,4,2,1,70,0,0
160564,-100,4,2,1,70,0,0
161238,-76.9230769230769,4,2,1,70,0,0
161996,-76.9230769230769,4,2,2,80,0,0
162080,-76.9230769230769,4,2,1,80,0,0
163429,-100,4,2,1,80,0,0
163934,-71.4285714285714,4,2,1,75,0,0
170676,-66.6666666666667,4,2,1,75,0,0
171181,-76.9230769230769,4,2,1,75,0,0
173878,-66.6666666666667,4,2,1,75,0,0
174384,-125,4,2,1,75,0,0
174721,-83.3333333333333,4,2,1,75,0,0
178766,-71.4285714285714,4,2,1,75,0,0
180114,-83.3333333333333,4,2,1,75,0,0
181125,-100,4,2,1,75,0,0
181462,-83.3333333333333,4,2,1,75,0,0
185676,-83.3333333333333,4,2,1,80,0,0
194103,-71.4285714285714,4,2,1,80,0,0
200002,-100,4,2,1,80,0,0
200339,-71.4285714285714,4,2,1,80,0,0
202530,-83.3333333333333,4,2,1,80,0,0
203035,-71.4285714285714,4,2,1,80,0,0
207249,-71.4285714285714,4,2,1,60,0,0
215002,-125,4,2,1,60,0,0
220732,-71.4285714285714,4,2,1,60,0,0
221069,-71.4285714285714,4,2,2,80,0,0
222080,-71.4285714285714,4,2,1,80,0,0
228990,-83.3333333333333,4,2,1,80,0,0
229833,-71.4285714285714,4,2,1,80,0,0
230170,-62.5,4,2,1,80,0,0
231687,-62.5,4,2,2,80,0,0
232193,-62.5,4,2,1,80,0,0
234215,-71.4285714285714,4,2,1,80,0,0
238597,-55.5555555555556,4,2,1,80,0,0
239103,-83.3333333333333,4,2,1,80,0,0
239440,-62.5,4,2,1,80,0,0
241799,-83.3333333333333,4,2,1,80,0,0
242137,-66.6666666666667,4,2,1,80,0,0
242474,-83.3333333333333,4,2,1,80,0,0
243653,-66.6666666666667,4,2,1,80,0,0
244665,-125,4,2,1,80,0,0
245002,-62.5,4,2,1,80,0,0
246013,-76.9230769230769,4,2,1,80,0,0
246181,-66.6666666666667,4,2,1,80,0,0
248204,-66.6666666666667,4,2,2,80,0,0
248373,-66.6666666666667,4,2,1,80,0,0
249047,-100,4,2,1,80,0,0
249384,-52.6315789473684,4,2,1,80,0,0
250226,-71.4285714285714,4,2,1,80,0,0
251743,-66.6666666666667,4,2,1,80,0,0
252586,-100,4,2,1,80,0,0
252923,-66.6666666666667,4,2,1,80,0,0
253766,-76.9230769230769,4,2,1,80,0,0
254440,-71.4285714285714,4,2,1,80,0,0
255114,-83.3333333333333,4,2,1,80,0,0
256125,-55.5555555555556,4,2,1,80,0,0
257137,-58.8235294117647,4,2,1,80,0,0
258316,-71.4285714285714,4,2,1,80,0,0
259159,-71.4285714285714,4,2,2,80,0,0
259496,-71.4285714285714,4,2,1,80,0,0
259833,-83.3333333333333,4,2,1,80,0,0
260339,-66.6666666666667,4,2,1,80,0,0
261856,-83.3333333333333,4,2,1,80,0,0
262530,-71.4285714285714,4,2,1,80,0,0
265226,-66.6666666666667,4,2,1,80,0,0
266238,-125,4,2,1,80,0,0
266575,-58.8235294117647,4,2,1,80,0,0
267080,-100,4,2,1,80,0,0
267755,-76.9230769230769,4,2,1,80,0,0
268513,-76.9230769230769,4,2,2,80,0,0
268597,-76.9230769230769,4,2,1,80,0,0
268934,-58.8235294117647,4,2,1,80,0,0
270451,-100,4,2,1,80,0,0
271125,-83.3333333333333,4,2,1,80,0,0
271799,-71.4285714285714,4,2,1,80,0,0
276519,-90.9090909090909,4,2,1,80,0,0
279215,-76.9230769230769,4,2,1,80,0,0
283092,-90.9090909090909,4,2,1,80,0,0
283429,-111.111111111111,4,2,1,80,0,0
286799,-125,4,2,1,80,0,0
287137,-66.6666666666667,4,2,1,80,0,0
287642,-100,4,2,1,80,0,0
287979,-71.4285714285714,4,2,1,80,0,0
288822,-90.9090909090909,4,2,1,80,0,0
290676,-71.4285714285714,4,2,1,80,0,0

[Colours]
Combo1 : 175,185,166
Combo2 : 186,186,201
Combo3 : 121,121,151
Combo4 : 191,176,172

[HitObjects]
425,230,958,6,0,P|411:282|403:335,1,108,10|2,2:0|2:0,2:0:0:0:
403,335,1969,2,0,P|366:343|329:353,1,72,0|8,2:0|2:0,2:0:0:0:
333,351,2474,1,2,2:0:0:0:
33,274,2980,5,2,2:0:0:0:
164,295,3149,1,2,2:0:0:0:
43,355,3317,1,2,2:0:0:0:
124,368,3486,1,2,2:0:0:0:
110,238,3654,6,0,P|137:172|135:101,1,144,2|0,2:0|2:0,2:0:0:0:
135,101,4497,1,8,2:0:0:0:
168,26,5002,6,0,P|118:52|56:52,1,108,2|0,2:0|2:0,2:0:0:0:
54,153,5677,2,0,P|89:154|123:167,1,72,2|2,2:0|2:0,2:0:0:0:
124,168,6351,6,0,P|181:157|231:142,1,108,10|2,2:0|2:0,2:0:0:0:
366,271,7362,2,0,P|400:260|435:254,1,72,0|8,2:0|2:0,2:0:0:0:
435,254,7868,1,2,2:0:0:0:
290,371,8373,5,2,2:0:0:0:
248,298,8542,1,2,2:0:0:0:
171,292,8710,1,2,2:0:0:0:
141,307,8879,1,2,2:0:0:0:
92,384,9047,6,0,B|118:280|57:313|86:184,1,180,2|8,2:0|2:0,2:0:0:0:
81,207,10396,6,0,P|136:194|188:180,1,108,2|0,2:0|2:0,2:0:0:0:
246,234,11070,2,0,P|264:203|266:167,1,72,2|2,2:0|2:0,2:0:0:0:
153,33,11744,6,0,P|101:39|46:2,1,108,10|2,3:2|2:0,2:0:0:0:
54,12,12755,1,2,2:0:0:0:
224,96,13092,5,8,2:0:0:0:
224,96,13261,2,0,P|287:59|347:69,1,108,2|2,2:0|2:0,2:0:0:0:
319,59,14441,6,0,B|221:112|234:232|315:313|453:242|470:154|387:102|343:148,1,432,2|2,3:2|2:0,2:0:0:0:
274,239,16800,1,2,2:0:0:0:
169,194,17137,1,2,2:0:0:0:
256,192,17306,12,2,18486,2:0:0:0:
256,192,18654,12,0,19834,2:0:0:0:
409,116,20508,6,0,P|427:73|422:22,2,94.5,2|2|2,2:0|2:0|2:0,2:0:0:0:
447,198,21182,6,0,P|407:167|317:179,1,126,2|0,2:3|2:0,2:0:0:0:
265,118,21687,2,0,P|278:169|294:249,1,126,2|2,2:0|2:3,2:0:0:0:
235,355,22361,1,0,2:0:0:0:
235,355,22530,2,0,P|185:318|122:321,1,126,2|0,2:0|2:0,2:0:0:0:
42,365,23035,1,2,2:3:0:0:
0,288,23204,2,0,P|10:237|23:178,2,94.4999999999999,2|2|2,2:0|2:0|2:0,2:0:0:0:
97,235,23878,6,0,P|162:222|224:203,1,126,2|0,2:3|2:0,2:0:0:0:
300,155,24384,2,0,P|271:201|281:272,1,126,2|2,2:0|2:0,2:0:0:0:
438,378,25058,1,0,2:0:0:0:
512,341,25226,6,0,P|453:329|384:311,1,126,2|0,2:3|2:0,2:0:0:0:
279,269,25732,1,2,2:3:0:0:
346,226,25901,1,2,2:0:0:0:
304,351,26069,1,2,2:0:0:0:
201,310,26238,2,0,P|195:278|185:239,1,62.9999999999999,2|2,2:0|2:0,2:0:0:0:
177,219,26490,5,2,2:0:0:0:
177,219,26575,2,0,P|136:253|56:250,1,126,2|0,2:3|2:0,2:0:0:0:
40,156,27080,2,0,P|75:166|118:174,1,62.9999999999999,2|0,2:0|2:0,2:0:0:0:
196,71,27417,2,0,P|186:106|178:149,1,62.9999999999999,2|0,2:0|2:0,2:0:0:0:
201,310,27755,6,0,P|249:280|324:290,1,126,2|0,2:0|2:0,2:0:0:0:
315,285,28260,1,2,2:0:0:0:
475,123,28597,2,0,P|416:137|371:149,2,94.4999999999999,2|2|2,2:3|2:0|2:0,2:0:0:0:
315,285,29271,6,0,B|365:247|368:110|277:70|187:93|156:155|211:233|269:208,1,378,2|0,2:0|2:0,2:0:0:0:
383,145,30620,5,2,2:1:0:0:
383,145,30957,1,2,2:1:0:0:
296,352,31294,5,0,3:0:0:0:
278,317,31378,1,8,2:0:0:0:
240,299,31462,1,8,2:0:0:0:
198,301,31547,1,8,2:0:0:0:
160,321,31631,2,0,L|112:312,1,45,8|8,2:3|2:3,2:0:0:0:
35,364,31799,5,4,2:3:0:0:
35,364,31884,1,4,2:3:0:0:
35,364,31968,2,0,P|81:311|56:242,1,135,6|0,3:2|2:0,2:0:0:0:
0,191,32305,6,0,B|100:172|86:266|221:222,1,202.5,10|8,2:0|2:0,2:0:0:0:
192,229,32642,1,2,3:2:0:0:
175,60,32811,2,0,P|151:107|161:170,1,90,8|0,2:0|3:0,2:0:0:0:
411,151,33148,6,0,P|324:141|224:114,1,180,10|0,2:0|3:0,2:0:0:0:
104,256,33653,1,8,2:0:0:0:
215,315,33822,5,0,3:0:0:0:
215,315,33906,1,8,2:0:0:0:
215,315,33990,2,0,P|203:267|190:223,1,90,2|0,3:2|3:0,2:0:0:0:
316,151,34328,1,8,2:0:0:0:
261,376,34496,1,2,2:0:0:0:
470,309,34665,6,0,P|421:253|305:279,1,175.5,6|0,3:2|2:0,2:0:0:0:
326,259,35002,1,10,2:0:0:0:
234,162,35170,2,0,P|239:138|244:113,1,45,2|8,2:0|2:0,2:0:0:0:
51,15,35339,5,2,2:0:0:0:
39,41,35423,1,2,2:0:0:0:
37,70,35507,1,10,2:0:0:0:
57,101,35592,1,2,2:0:0:0:
88,111,35676,2,0,L|131:100,1,45,0|0,3:0|2:0,2:0:0:0:
280,44,35844,6,0,B|235:31|199:17|199:17|216:85|233:161,1,234,10|0,2:0|3:0,2:0:0:0:
121,364,36350,5,10,2:0:0:0:
19,238,36519,1,8,2:0:0:0:
19,238,36603,1,8,2:0:0:0:
19,238,36687,2,0,P|50:243|87:251,1,58.5,2|0,3:2|2:0,2:0:0:0:
233,161,36856,5,8,2:0:0:0:
269,145,36940,1,8,2:0:0:0:
291,100,37024,1,8,2:3:0:0:
282,57,37108,1,8,2:3:0:0:
244,33,37193,2,0,P|213:43|188:50,1,58.5,4|4,2:3|2:3,2:0:0:0:
104,0,37361,6,0,P|88:80|76:171,1,162,6|8,3:2|2:0,2:0:0:0:
157,300,37867,1,2,2:0:0:0:
0,269,38035,2,0,P|50:256|85:245,1,81.0000000000001,2|0,3:2|3:0,2:0:0:0:
224,363,38373,1,8,2:0:0:0:
190,182,38541,5,0,3:0:0:0:
190,182,38625,1,8,2:0:0:0:
190,182,38710,2,0,P|148:231|164:310,1,121.5,2|0,3:2|2:0,2:0:0:0:
157,300,39047,2,0,P|199:290|244:279,1,81.0000000000001,10|0,2:0|3:0,2:0:0:0:
254,250,39299,1,8,2:0:0:0:
284,233,39384,1,2,2:3:0:0:
316,231,39468,1,8,2:0:0:0:
347,243,39552,1,0,3:0:0:0:
387,336,39721,2,0,P|349:326|293:315,1,81.0000000000001,8|2,2:0|2:0,2:0:0:0:
432,195,40058,6,0,P|475:133|446:41,1,162,2|8,3:2|2:0,2:0:0:0:
304,100,40564,1,0,3:0:0:0:
304,100,40648,1,8,2:0:0:0:
304,100,40732,2,0,P|346:108|387:117,1,81.0000000000001,2|0,3:0|3:0,2:0:0:0:
319,6,41069,2,0,P|279:50|200:39,1,121.5,8|0,2:0|2:0,2:0:0:0:
195,70,41406,6,0,P|203:100|212:150,1,81.0000000000001,0|2,3:0|2:0,2:0:0:0:
145,271,41743,1,8,2:0:0:0:
41,165,41912,1,0,3:0:0:0:
41,165,41996,1,8,2:0:0:0:
41,165,42080,2,0,P|93:178|141:186,1,81.0000000000001,2|0,2:0|3:0,2:0:0:0:
238,238,42417,1,8,2:0:0:0:
134,310,42586,2,0,L|145:268,1,40.5,2|2,2:0|2:0,2:0:0:0:
276,351,42755,6,0,L|373:332,1,94.4999999999999,6|0,3:2|2:0,2:0:0:0:
474,320,43092,6,0,P|398:319|365:220,1,175.5,10|8,2:0|2:0,2:0:0:0:
375,201,43429,1,2,3:2:0:0:
295,99,43597,1,0,3:0:0:0:
415,18,43766,2,0,P|401:75|391:119,1,81.0000000000001,8|0,2:0|2:0,2:0:0:0:
240,250,44103,6,0,P|191:215|128:228,1,121.5,2|0,3:2|2:0,2:0:0:0:
133,224,44440,6,0,B|183:232|216:200|216:200|261:212|261:212|299:169|370:187,1,234,12|2,2:1|3:2,2:0:0:0:
500,201,44946,6,0,P|489:231|482:269,1,58.5,8|8,2:0|2:0,2:0:0:0:
413,384,45114,2,0,P|398:326|378:270,1,117,8|0,2:0|3:0,2:0:0:0:
489,116,45451,6,0,P|421:190|331:170,1,180,6|10,3:2|2:0,2:0:0:0:
182,30,45957,1,0,3:0:0:0:
182,30,46041,1,0,3:0:0:0:
182,30,46125,1,10,2:0:0:0:
352,85,46294,1,0,3:0:0:0:
198,204,46462,1,8,2:0:0:0:
352,85,46631,6,0,B|226:52|266:161|130:131,1,234,6|0,3:1|3:0,2:0:0:0:
0,57,47137,2,0,P|47:47|120:26,1,108,10|0,2:0|3:0,2:0:0:0:
104,30,47389,1,0,3:0:0:0:
104,30,47474,1,10,2:0:0:0:
42,238,47642,1,0,3:0:0:0:
276,161,47811,2,0,P|205:115|122:140,1,162,12|0,2:0|2:0,2:0:0:0:
116,145,48148,5,6,3:1:0:0:
162,351,49328,6,0,B|257:320|227:378|343:338,1,162,6|0,3:2|2:0,2:0:0:0:
320,344,49665,1,0,3:0:0:0:
449,384,49833,6,0,P|388:331|408:244,1,162,10|0,2:0|3:0,2:0:0:0:
432,237,50170,2,0,P|464:243|489:247,1,54,10|0,2:0|2:0,2:0:0:0:
354,129,50339,5,0,3:0:0:0:
354,129,50423,2,0,P|308:145|242:161,1,108,10|0,2:0|3:0,2:0:0:0:
250,159,50676,2,0,P|244:188|239:218,1,54,8|0,2:0|2:0,2:0:0:0:
308,262,50844,5,10,2:0:0:0:
240,69,51013,1,0,3:0:0:0:
129,225,51181,6,0,P|115:285|97:361,1,135,14|8,2:0|2:0,2:0:0:0:
98,356,51519,1,2,3:2:0:0:
30,207,51687,1,0,3:0:0:0:
96,384,51856,1,8,2:0:0:0:
224,288,52024,6,0,B|260:282|286:273|286:273|332:283|332:283|359:272|411:262,1,180,2|0,3:2|3:0,2:0:0:0:
358,106,52530,2,0,P|347:149|338:195,1,90,8|0,2:0|3:0,2:0:0:0:
338,193,52783,1,8,2:0:0:0:
338,193,52867,1,2,3:2:0:0:
161,380,53035,5,8,2:0:0:0:
112,384,53120,1,8,2:0:0:0:
72,358,53204,1,8,2:0:0:0:
52,322,53288,1,8,2:0:0:0:
56,279,53373,1,8,2:0:0:0:
254,191,53541,5,6,3:2:0:0:
135,302,53710,2,0,L|184:310,1,36,0|0,3:0|3:0,2:0:0:0:
338,305,53878,6,0,B|291:284|249:319|249:319|243:372|199:386,1,175.5,12|8,2:0|2:0,2:0:0:0:
207,382,54215,1,2,3:2:0:0:
254,191,54384,1,0,3:0:0:0:
56,237,54552,2,0,P|-10:156|15:78,1,175.5,10|8,2:0|2:0,2:0:0:0:
168,121,54889,6,0,P|124:132|82:148,1,90,2|0,3:2|3:0,2:0:0:0:
231,26,55226,2,0,P|264:35|283:39,1,45,14|0,2:0|2:0,2:0:0:0:
364,66,55395,1,0,3:0:0:0:
364,66,55479,1,8,2:0:0:0:
364,66,55564,1,2,3:2:0:0:
291,242,55732,1,8,2:0:0:0:
477,203,55901,2,0,P|422:164|347:179,1,135,14|0,2:0|2:0,2:0:0:0:
285,111,56238,6,0,P|309:202|326:298,1,180,6|10,3:1|2:0,2:0:0:0:
428,126,56743,1,0,3:0:0:0:
201,234,56912,1,10,2:0:0:0:
393,350,57080,1,0,3:0:0:0:
178,243,57249,1,10,2:0:0:0:
333,28,57417,6,0,B|352:57|377:82|377:82|358:131|346:187,1,180,6|0,3:2|3:0,2:0:0:0:
293,381,57923,1,14,2:0:0:0:
242,158,58092,1,8,2:3:0:0:
242,158,58176,1,8,2:3:0:0:
242,158,58260,1,4,2:3:0:0:
446,230,58429,1,4,2:3:0:0:
256,275,58597,5,4,2:3:0:0:
345,187,58766,1,4,2:3:0:0:
361,310,58934,1,2,3:2:0:0:
361,310,59440,6,0,P|430:292|506:277,1,144,2|0,3:2|3:0,2:0:0:0:
501,277,59946,1,8,2:0:0:0:
407,384,60114,6,0,P|356:350|273:365,1,135,2|0,3:0|2:0,2:0:0:0:
264,375,60451,2,0,P|214:363|173:345,1,90,2|8,3:2|2:0,2:0:0:0:
14,215,60788,2,0,P|83:234|164:144,1,180,6|0,3:2|3:0,2:0:0:0:
5,76,61294,1,8,2:0:0:0:
112,17,61462,5,0,3:2:0:0:
112,17,61547,1,8,2:0:0:0:
112,17,61631,2,0,P|91:75|71:173,1,135,6|0,3:2|2:0,2:0:0:0:
74,146,61968,1,10,2:0:0:0:
257,194,62137,2,0,P|249:145|238:101,1,90,2|2,2:0|3:0,2:0:0:0:
304,54,62474,5,0,3:0:0:0:
159,168,62642,1,8,2:0:0:0:
336,230,62811,6,0,P|403:187|479:210,1,135,2|0,3:2|2:0,2:0:0:0:
494,217,63148,1,8,2:0:0:0:
373,312,63316,1,8,2:0:0:0:
484,369,63485,2,0,P|479:347|471:325,1,45,0|0,3:0|3:0,2:0:0:0:
267,277,63653,5,8,2:0:0:0:
264,288,63738,1,8,2:0:0:0:
261,299,63822,1,0,3:0:0:0:
258,310,63906,1,0,3:0:0:0:
255,321,63990,6,0,B|144:293|180:392|53:354,1,202.5,12|0,2:0|2:0,2:0:0:0:
0,310,64328,6,0,P|58:276|122:295,1,117,6|0,3:1|3:0,2:0:0:0:
152,216,64580,2,0,P|141:158|129:101,1,116.999994644165,10|0,2:0|2:0,2:0:0:0:
220,116,64833,2,0,P|224:144|233:172,1,58.5,8|0,2:0|2:0,2:0:0:0:
378,328,65002,6,0,B|328:298|328:298|263:319,1,117,2|0,3:0|3:0,2:0:0:0:
207,370,65255,2,0,P|217:313|228:253,1,117,10|0,2:0|3:0,2:0:0:0:
311,199,65507,2,0,P|321:229|327:263,1,58.5,8|0,2:0|2:0,2:0:0:0:
378,328,65676,6,0,B|345:222|425:270|376:143,1,175.5,6|0,3:1|2:0,2:0:0:0:
381,159,66013,1,10,3:2:0:0:
166,116,66181,1,10,2:0:0:0:
367,19,66350,1,10,3:2:0:0:
256,240,66519,1,10,2:0:0:0:
234,0,66687,1,10,3:2:0:0:
400,176,66856,1,10,2:0:0:0:
166,116,67024,6,0,B|73:96|97:173|-28:146,1,175.5,10|0,3:2|2:0,2:0:0:0:
63,47,67361,1,10,2:0:0:0:
63,47,67446,1,8,2:0:0:0:
63,47,67530,2,0,P|72:82|83:116,1,58.5,8|8,2:0|2:0,2:0:0:0:
7,252,67698,5,8,3:2:0:0:
46,233,67783,1,8,2:0:0:0:
85,237,67867,1,8,2:0:0:0:
120,255,67951,1,8,2:0:0:0:
139,291,68035,1,8,3:2:0:0:
171,328,68120,1,8,2:0:0:0:
213,340,68204,1,8,2:0:0:0:
256,327,68288,1,8,2:0:0:0:
286,293,68373,6,0,P|279:267|273:237,1,45,8|8,3:2|2:0,2:0:0:0:
441,59,68541,1,8,2:0:0:0:
467,96,68625,1,8,2:0:0:0:
462,145,68710,1,8,3:2:0:0:
424,172,68794,1,8,2:0:0:0:
382,180,68878,2,0,P|356:175|314:169,1,45,8|8,2:0|2:0,2:0:0:0:
185,24,69047,5,8,3:2:0:0:
134,2,69131,1,8,2:0:0:0:
81,13,69215,1,8,2:0:0:0:
35,43,69299,1,8,2:0:0:0:
21,96,69384,5,8,2:3:0:0:
30,122,69468,1,8,2:3:0:0:
36,148,69552,1,4,2:3:0:0:
44,173,69637,1,4,2:3:0:0:
53,198,69721,6,0,P|110:181|182:164,1,117,4|4,3:1|2:3,2:0:0:0:
224,260,69974,1,4,2:3:0:0:
215,271,70058,2,0,P|177:262|140:259,1,58.5,4|4,2:3|2:3,2:0:0:0:
294,81,70226,5,12,2:0:0:0:
460,290,70395,1,0,3:0:0:0:
437,335,70479,1,0,3:0:0:0:
393,363,70564,1,0,3:0:0:0:
343,361,70648,1,0,3:0:0:0:
306,336,70732,2,0,P|313:308|318:280,1,58.5,8|0,2:0|2:0,2:0:0:0:
255,0,70901,6,0,P|203:67|247:162,1,175.5,6|0,3:1|2:0,2:0:0:0:
351,92,71238,2,0,P|311:85|269:73,1,58.5,10|0,2:0|2:0,2:0:0:0:
0,241,71406,1,10,2:0:0:0:
0,241,71743,5,12,2:0:0:0:
28,286,71828,1,0,3:0:0:0:
63,301,71912,1,0,3:0:0:0:
109,298,71996,1,0,3:0:0:0:
154,278,72080,1,8,2:0:0:0:
185,245,72165,1,8,2:0:0:0:
198,193,72249,1,8,2:0:0:0:
186,137,72333,1,8,2:0:0:0:
153,106,72417,2,0,P|114:118|72:130,1,81.0000000000001,6|0,3:2|3:0,2:0:0:0:
227,3,72755,6,0,B|250:67|321:70|321:70|336:29|373:15,1,189,12|0,2:1|2:0,2:0:0:0:
450,107,73092,2,0,P|426:100|401:95,1,49.5,2|0,3:2|2:0,2:0:0:0:
262,226,73260,2,0,P|285:219|310:214,1,49.5,0|0,3:0|2:0,2:0:0:0:
468,285,73429,1,8,2:0:0:0:
368,384,73597,6,0,P|381:271|405:181,1,198,2|0,3:2|3:0,2:0:0:0:
215,4,74103,1,8,2:0:0:0:
247,233,74271,1,0,3:0:0:0:
247,233,74356,1,8,2:0:0:0:
247,233,74440,1,2,3:2:0:0:
353,39,74608,1,0,3:0:0:0:
177,121,74777,2,0,P|151:113|123:108,1,49.5,8|0,2:0|2:0,2:0:0:0:
247,233,74946,5,2,3:2:0:0:
247,233,75030,1,8,2:0:0:0:
247,233,75114,2,0,B|275:232|298:207|298:207|343:268|436:243,1,175.5,2|0,3:1|2:0,2:0:0:0:
430,145,75451,2,0,P|391:157|361:167,1,58.5,8|0,2:0|2:0,2:0:0:0:
297,309,75620,5,2,2:0:0:0:
291,326,75704,1,8,2:0:0:0:
286,340,75788,1,2,3:2:0:0:
135,217,75957,1,0,3:0:0:0:
62,384,76125,1,8,2:0:0:0:
247,233,76294,6,0,P|305:176|281:87,1,175.5,2|0,3:2|2:0,2:0:0:0:
164,134,76631,2,0,P|200:144|233:156,1,58.5,0|0,3:0|2:0,2:0:0:0:
364,27,76799,2,0,P|316:14|269:0,1,99,8|2,2:0|2:0,2:0:0:0:
380,144,77137,5,2,3:2:0:0:
135,217,77305,1,0,3:0:0:0:
380,144,77474,1,8,2:0:0:0:
294,361,77642,5,2,2:0:0:0:
294,361,77726,1,2,2:0:0:0:
294,361,77811,2,0,P|245:301|257:236,1,126,6|2,3:2|2:0,2:0:0:0:
386,261,78064,1,0,3:0:0:0:
386,261,78148,2,0,P|343:274|313:290,2,63,8|0|2,2:0|2:0|2:0,2:0:0:0:
173,354,78485,6,0,P|117:333|-6:313,1,162,2|0,3:2|3:0,2:0:0:0:
16,314,78822,1,8,2:0:0:0:
153,240,78990,1,2,2:0:0:0:
153,240,79075,1,0,2:0:0:0:
153,240,79159,1,2,3:2:0:0:
27,161,79328,2,0,P|37:191|49:236,1,54,0|0,3:0|3:0,2:0:0:0:
184,321,79496,6,0,B|161:237|228:260|201:161,1,162,8|0,2:0|2:0,2:0:0:0:
104,54,79833,5,8,2:0:0:0:
116,104,79917,1,8,2:0:0:0:
147,129,80002,1,8,2:0:0:0:
196,132,80086,1,8,2:0:0:0:
234,100,80170,2,0,P|241:67|249:34,1,54,8|8,2:3|2:3,2:0:0:0:
419,197,80339,5,4,2:3:0:0:
477,182,80423,1,4,2:3:0:0:
510,235,80507,2,0,B|442:263|381:218|433:201|372:146|289:184,1,229.5,6|0,3:2|2:0,2:0:0:0:
306,177,80844,1,8,2:0:0:0:
432,96,81013,6,0,P|399:202|381:339,1,229.5,6|0,3:2|2:0,2:0:0:0:
381,319,81350,1,2,3:2:0:0:
181,168,81519,1,8,2:0:0:0:
74,355,81687,6,0,B|122:314|177:309|177:309|212:354|260:341,1,189,6|0,3:2|2:0,2:0:0:0:
239,343,82024,1,2,3:2:0:0:
329,113,82193,1,8,2:0:0:0:
398,259,82361,5,6,3:2:0:0:
398,259,82446,1,8,2:3:0:0:
398,259,82530,2,0,P|357:269|319:282,1,63,0|0,3:0|2:0,2:0:0:0:
231,220,82698,5,8,2:0:0:0:
179,237,82783,1,8,2:0:0:0:
125,220,82867,1,8,2:3:0:0:
88,174,82951,1,4,2:3:0:0:
79,119,83035,1,4,2:3:0:0:
104,67,83120,1,4,2:3:0:0:
158,46,83204,6,0,P|219:60|269:68,1,108,6|0,3:2|2:0,2:0:0:0:
263,67,83457,1,0,3:0:0:0:
263,67,83541,2,0,P|254:92|247:118,1,54,8|0,2:0|2:0,2:0:0:0:
337,275,83710,6,0,P|420:232|494:254,1,162,2|0,2:0|2:0,2:0:0:0:
483,246,84047,1,0,3:0:0:0:
352,151,84215,1,8,2:0:0:0:
395,355,84384,6,0,P|321:329|213:316,1,162,6|0,3:2|2:0,2:0:0:0:
238,316,84721,1,2,3:2:0:0:
126,174,84889,1,8,2:0:0:0:
30,294,85058,5,0,3:0:0:0:
30,294,85142,1,8,2:0:0:0:
30,294,85226,2,0,P|96:275|144:266,1,108,2|0,3:0|3:0,2:0:0:0:
303,165,85564,1,8,2:0:0:0:
264,381,85732,5,0,3:0:0:0:
264,381,85816,1,8,2:0:0:0:
264,381,85901,2,0,P|209:310|231:240,1,162,2|0,3:1|2:0,2:0:0:0:
252,228,86238,1,8,2:0:0:0:
416,162,86406,1,2,2:0:0:0:
183,169,86575,5,2,3:0:0:0:
472,232,86743,1,0,3:0:0:0:
183,169,86912,1,8,2:0:0:0:
426,0,87080,6,0,B|386:57|386:57|386:103|413:160,1,162,6|0,3:2|2:0,2:0:0:0:
416,162,87417,2,0,P|450:154|488:146,1,54,2|0,3:2|2:0,2:0:0:0:
377,273,87586,1,8,2:0:0:0:
273,129,87755,6,0,P|219:75|121:99,1,162,4|0,3:1|2:0,2:0:0:0:
122,97,88092,2,0,P|115:127|107:163,1,54,8|8,2:0|2:0,2:0:0:0:
8,276,88260,5,8,2:3:0:0:
52,259,88344,1,8,2:3:0:0:
97,259,88429,1,4,2:3:0:0:
136,280,88513,1,4,2:3:0:0:
163,323,88597,6,0,B|232:337|232:337|291:296,1,135,10|0,3:2|2:0,2:0:0:0:
258,153,88850,2,0,B|189:139|189:139|130:180,1,135,10|0,2:0|2:0,2:0:0:0:
212,247,89103,2,0,B|213:234|218:225|218:225|205:221|197:232|197:232|206:237|212:247,1,67.5,10|0,2:0|2:0,2:0:0:0:
212,247,89271,5,10,2:0:0:0:
448,384,89608,6,0,B|454:347|454:347|465:327|465:327|474:273,1,108,6|0,3:0|2:0,2:0:0:0:
472,279,89946,6,0,P|430:337|336:319,1,153,10|0,3:2|2:0,2:0:0:0:
191,170,90198,2,0,P|262:177|293:267,1,153,10|0,2:0|2:0,2:0:0:0:
298,257,90451,2,0,P|287:293|277:325,1,45,10|0,2:0|2:0,2:0:0:0:
196,382,90620,5,2,3:0:0:0:
146,361,90704,1,8,2:0:0:0:
122,320,90788,1,0,3:0:0:0:
134,272,90873,1,0,3:0:0:0:
171,244,90957,2,0,L|235:255,1,45,8|0,2:0|2:0,2:0:0:0:
444,109,91125,6,0,B|391:89|350:125|350:125|326:175|263:157,1,175.5,6|0,3:1|2:0,2:0:0:0:
290,161,91462,1,0,3:0:0:0:
95,106,91631,1,10,2:0:0:0:
231,21,91799,1,2,2:0:0:0:
231,21,91884,1,8,2:0:0:0:
231,21,91968,2,0,P|226:52|216:83,1,58.5,2|0,3:0|2:0,2:0:0:0:
229,161,92137,2,0,P|234:130|244:99,1,58.5,0|0,3:0|2:0,2:0:0:0:
0,144,92305,6,0,P|88:148|140:215,1,175.5,10|0,2:0|2:0,2:0:0:0:
139,212,92642,5,10,3:2:0:0:
312,180,92811,1,10,2:0:0:0:
489,138,92979,1,10,3:2:0:0:
489,138,93316,5,2,3:2:0:0:
444,125,93401,1,0,3:0:0:0:
397,147,93485,1,0,3:0:0:0:
376,193,93569,1,0,3:0:0:0:
390,237,93653,2,0,P|416:241|442:248,1,45,8|0,2:0|2:0,2:0:0:0:
288,323,93822,6,0,P|272:248|259:188,1,135,6|0,3:2|2:0,2:0:0:0:
321,125,94159,5,2,3:2:0:0:
288,323,94328,1,8,2:0:0:0:
164,156,94496,6,0,P|149:238|133:327,1,162,6|0,3:2|2:0,2:0:0:0:
203,362,94833,1,2,3:2:0:0:
164,156,95002,1,8,2:0:0:0:
54,356,95170,6,0,P|36:263|14:171,1,189,6|0,3:2|2:0,2:0:0:0:
110,89,95507,5,2,3:2:0:0:
54,356,95676,1,8,2:0:0:0:
286,243,95844,2,0,P|251:236|222:227,1,63,6|0,3:2|2:0,2:0:0:0:
243,317,96013,5,2,3:2:0:0:
286,329,96097,1,0,3:0:0:0:
339,313,96181,1,0,3:0:0:0:
369,281,96266,1,0,3:0:0:0:
376,230,96350,1,14,2:0:0:0:
236,60,96519,5,0,3:0:0:0:
236,60,96603,1,0,3:0:0:0:
236,60,96687,2,0,P|261:142|289:258,1,189,14|0,2:1|2:0,2:0:0:0:
285,242,97024,1,2,3:2:0:0:
501,105,97193,6,0,B|396:76|417:169|305:127,1,189,14|0,2:0|2:0,2:0:0:0:
321,132,97530,1,2,3:2:0:0:
266,361,97698,1,8,2:0:0:0:
0,262,97867,6,0,B|39:214|105:213|105:213|136:251|174:245,1,189,6|0,3:2|2:0,2:0:0:0:
196,236,98204,1,8,2:0:0:0:
426,126,98373,1,8,2:0:0:0:
164,68,98541,1,8,2:0:0:0:
348,9,98710,6,0,P|331:75|318:148,1,126,2|8,3:2|2:0,2:0:0:0:
346,174,98962,1,8,2:0:0:0:
352,224,99047,1,8,2:0:0:0:
333,270,99131,1,8,2:0:0:0:
290,296,99215,1,8,2:0:0:0:
240,302,99299,1,8,2:0:0:0:
196,283,99384,1,4,3:1:0:0:
62,108,99721,6,0,B|72:99|79:83|79:83|67:98|66:110,1,58.5,0|0,3:0|2:0,2:0:0:0:
0,174,99889,6,0,P|98:147|200:131,1,198,8|2,2:0|3:2,2:0:0:0:
349,207,100395,1,8,2:0:0:0:
327,8,100564,6,0,P|280:65|306:158,1,148.5,6|0,3:1|2:0,2:0:0:0:
288,135,100901,1,0,3:2:0:0:
493,97,101069,1,10,2:0:0:0:
423,278,101238,2,0,P|391:270|369:266,1,49.5,0|8,3:0|2:0,2:0:0:0:
380,91,101406,6,0,P|394:138|407:193,1,99,2|0,3:2|3:0,2:0:0:0:
405,186,101659,1,0,3:0:0:0:
405,186,101743,2,0,P|436:189|463:196,1,49.5,8|0,2:0|2:0,2:0:0:0:
388,358,101912,1,2,2:0:0:0:
231,285,102080,6,0,P|219:212|198:134,1,148.5,6|0,3:2|2:0,2:0:0:0:
191,125,102417,1,8,2:0:0:0:
352,65,102586,6,0,P|352:145|271:198,1,148.5,2|0,3:2|2:0,2:0:0:0:
305,189,102923,2,0,P|344:197|372:206,1,49.5,8|0,3:2|2:0,2:0:0:0:
490,148,103092,2,0,P|450:139|422:130,1,49.5,8|0,2:0|2:0,2:0:0:0:
336,298,103260,6,0,B|296:308|262:314|262:314|236:353|236:353|198:360|162:369,1,198,6|0,3:2|3:0,2:0:0:0:
0,254,103766,1,10,2:0:0:0:
205,162,103934,1,2,2:0:0:0:
123,274,104103,1,2,3:2:0:0:
68,110,104271,6,0,P|60:133|53:157,1,49.5,4|0,2:3|2:0,2:0:0:0:
123,274,104440,2,0,B|176:263|176:263|215:274|215:274|282:255,1,148.5,4|0,2:3|2:0,2:0:0:0:
352,321,104777,6,0,P|296:265|296:171,1,175.5,10|0,2:0|2:0,2:0:0:0:
329,136,105114,1,2,3:2:0:0:
495,197,105283,2,0,P|436:210|377:231,1,117,10|0,2:0|2:0,2:0:0:0:
199,32,105620,1,2,3:2:0:0:
431,124,105788,1,8,2:0:0:0:
266,259,105957,6,0,P|284:141|315:24,1,234,6|4,3:2|2:3,2:0:0:0:
313,30,106462,1,4,2:3:0:0:
381,227,106799,6,0,P|437:198|493:205,2,121.5,4|2|2,3:2|2:0|2:0,2:0:0:0:
311,296,107389,5,2,2:0:0:0:
311,296,107474,2,0,B|348:250|348:250|331:206|305:123,1,162,6|0,3:2|2:0,2:0:0:0:
391,112,107811,2,0,B|324:135|276:83|312:78|260:28|194:59,1,216,10|2,2:0|3:2,2:0:0:0:
366,29,108316,1,8,2:0:0:0:
224,134,108485,1,0,3:0:0:0:
64,0,108653,6,0,P|45:80|26:171,1,162,10|0,2:0|2:0,2:0:0:0:
28,158,108990,1,0,3:0:0:0:
228,296,109159,6,0,P|186:244|78:255,1,162,8|8,2:0|2:0,2:0:0:0:
76,270,109496,1,2,3:2:0:0:
224,384,109665,1,0,3:0:0:0:
310,239,109833,2,0,P|365:222|425:199,1,108,8|2,2:0|2:0,2:0:0:0:
364,342,110170,6,0,P|294:286|205:312,1,162,2|0,3:2|2:0,2:0:0:0:
227,295,110507,1,8,2:0:0:0:
11,164,110676,1,0,3:0:0:0:
11,164,110760,1,8,2:0:0:0:
11,164,110844,2,0,L|62:150,1,45,2|0,3:2|2:0,2:0:0:0:
226,194,111013,2,0,L|182:205,1,45,8|0,2:0|2:0,2:0:0:0:
137,132,111181,1,0,3:0:0:0:
185,326,111350,5,8,2:0:0:0:
192,360,111434,1,8,0:0:0:0:
177,384,111519,2,0,B|141:358|105:343|105:343|81:274|102:212,1,216,2|10,3:2|2:0,2:0:0:0:
291,149,112024,1,8,2:0:0:0:
142,19,112193,6,0,P|157:78|170:138,1,108,8|8,2:3|2:0,2:0:0:0:
197,166,112446,1,8,2:0:0:0:
246,168,112530,1,8,2:3:0:0:
291,149,112614,1,8,2:3:0:0:
317,110,112698,1,4,2:3:0:0:
313,67,112783,1,4,2:3:0:0:
281,29,112867,2,0,P|351:71|431:47,1,162,6|0,3:2|2:0,2:0:0:0:
497,0,113204,6,0,P|474:76|451:161,1,162,10|8,2:0|2:0,2:0:0:0:
452,155,113541,1,2,3:2:0:0:
319,256,113710,1,8,2:0:0:0:
475,335,113878,1,0,3:0:0:0:
425,249,114047,6,0,B|314:233|339:334|211:305,1,216,10|0,2:0|3:0,2:0:0:0:
51,241,114552,1,8,2:0:0:0:
122,367,114721,6,0,P|134:306|149:251,1,108,2|0,2:0|3:0,2:0:0:0:
145,261,114974,1,8,2:0:0:0:
145,261,115058,1,2,2:0:0:0:
71,148,115226,1,8,2:0:0:0:
126,16,115395,1,8,2:0:0:0:
335,98,115564,6,0,B|254:83|277:162|163:137,1,162,2|0,3:2|2:0,2:0:0:0:
174,135,115901,1,8,2:0:0:0:
375,198,116069,1,2,3:2:0:0:
253,371,116238,5,10,2:0:0:0:
221,353,116322,1,2,2:0:0:0:
206,322,116406,1,2,2:0:0:0:
209,285,116490,1,2,2:0:0:0:
234,254,116575,1,0,3:0:0:0:
461,217,116743,6,0,P|412:275|320:262,1,162,14|0,2:0|2:0,2:0:0:0:
331,270,117080,1,0,3:0:0:0:
363,145,117249,2,0,P|371:186|382:223,1,54,14|0,2:0|2:0,2:0:0:0:
256,311,117417,2,0,P|248:270|237:233,1,54,8|0,2:0|2:0,2:0:0:0:
283,184,117586,5,8,2:3:0:0:
224,384,117755,1,4,2:3:0:0:
146,324,117923,1,4,2:3:0:0:
170,213,118092,1,4,2:3:0:0:
325,354,118260,5,6,3:1:0:0:
325,354,120788,6,0,L|360:346,3,24,2|2|2|2,2:0|2:0|2:0|2:1,2:0:0:0:
325,354,121631,5,2,2:0:0:0:
251,278,121968,6,0,L|272:170,1,108,2|2,2:3|2:0,2:0:0:0:
271,171,122305,1,8,2:3:0:0:
413,140,122474,1,8,2:0:0:0:
297,0,122642,1,8,2:0:0:0:
271,171,122811,1,8,2:0:0:0:
453,49,122979,1,8,2:0:0:0:
247,75,123148,2,0,L|308:86,1,36,0|0,3:0|3:0,2:0:0:0:
469,141,123316,2,0,L|343:169,1,108,8|0,2:0|2:0,2:0:0:0:
261,160,123653,6,0,B|302:147|338:136|338:136|321:207|305:282,1,216,6|2,3:2|2:0,2:0:0:0:
392,363,124328,2,0,B|355:305|284:316|284:316|256:356|193:345,1,216,6|0,3:2|2:0,2:0:0:0:
0,136,125002,6,0,P|98:164|110:283,1,216,6|2,3:2|2:0,2:0:0:0:
55,371,125676,2,0,P|40:304|18:227,1,144,6|10,3:2|2:0,2:0:0:0:
134,134,126181,5,2,2:0:0:0:
134,134,126266,1,2,2:0:0:0:
134,134,126350,2,0,P|189:146|231:158,1,90,6|2,3:2|2:0,2:0:0:0:
367,103,126687,1,10,2:0:0:0:
215,69,126856,1,0,3:0:0:0:
427,198,127024,1,10,2:0:0:0:
246,251,127193,1,0,3:0:0:0:
300,49,127361,1,10,2:0:0:0:
246,251,127530,6,0,B|155:238|172:307|68:289,1,180,6|0,3:2|3:0,2:0:0:0:
226,344,128035,1,10,2:0:0:0:
305,162,128204,1,0,3:0:0:0:
305,162,128288,1,8,2:0:0:0:
305,162,128373,2,0,L|248:174,1,45,2|0,3:2|2:0,2:0:0:0:
164,244,128541,1,0,3:0:0:0:
320,352,128710,5,8,2:0:0:0:
353,345,128794,1,8,2:0:0:0:
386,339,128878,1,8,2:0:0:0:
419,333,128962,1,8,2:0:0:0:
452,326,129047,6,0,P|478:259|461:191,1,135,6|0,3:2|2:0,2:0:0:0:
434,167,129384,1,8,2:0:0:0:
279,235,129552,2,0,P|328:242|371:253,1,90,2|0,2:0|3:0,2:0:0:0:
367,251,129805,1,8,2:0:0:0:
367,251,129889,1,2,3:2:0:0:
303,141,130058,1,8,2:0:0:0:
224,320,130226,6,0,B|178:326|147:360|147:360|97:365|61:327,1,180,2|2,3:2|3:2,2:0:0:0:
215,212,130732,1,8,2:0:0:0:
44,137,130901,1,0,3:0:0:0:
44,137,130985,1,8,2:0:0:0:
44,137,131069,1,2,3:2:0:0:
99,227,131238,1,0,3:0:0:0:
229,111,131406,2,0,P|180:125|127:147,1,90,8|0,2:0|2:0,2:0:0:0:
326,15,131743,6,0,P|374:52|456:38,1,135,2|0,3:0|2:0,2:0:0:0:
479,21,132080,1,10,2:0:0:0:
302,145,132249,1,2,3:2:0:0:
506,219,132417,5,10,2:0:0:0:
285,135,132586,1,2,3:2:0:0:
506,219,132755,1,8,2:0:0:0:
383,384,132923,6,0,P|399:313|416:245,1,135,6|0,3:1|2:0,2:0:0:0:
418,240,133260,2,0,P|462:230|512:216,1,90,2|8,3:2|2:0,2:0:0:0:
280,47,133597,6,0,P|205:102|232:206,1,180,6|8,3:2|2:0,2:0:0:0:
241,213,134019,1,8,2:0:0:0:
241,213,134103,2,0,L|295:227,1,45,8|8,2:3|2:3,2:0:0:0:
328,123,134271,2,0,L|274:137,1,45,4|4,2:3|2:3,2:0:0:0:
63,317,134440,6,0,P|121:324|171:375,1,117,6|0,3:1|3:0,2:0:0:0:
290,300,134693,2,0,P|232:293|182:242,1,117,10|0,2:0|3:0,2:0:0:0:
189,255,134946,2,0,P|194:228|200:198,1,58.5,8|0,2:0|2:0,2:0:0:0:
47,33,135114,6,0,P|41:92|85:151,1,117,2|0,3:0|3:0,2:0:0:0:
241,96,135367,2,0,P|176:86|125:70,1,117,10|0,2:0|3:0,2:0:0:0:
127,70,135620,2,0,P|138:37|131:3,1,58.5,8|0,2:0|2:0,2:0:0:0:
0,216,135788,6,0,B|53:174|108:178|108:178|144:209|178:196,1,175.5,6|0,3:1|2:0,2:0:0:0:
206,182,136125,1,10,3:2:0:0:
75,299,136294,1,10,2:0:0:0:
245,332,136462,1,10,3:2:0:0:
69,139,136631,1,10,2:0:0:0:
318,59,136799,1,10,3:2:0:0:
168,261,136968,1,10,2:0:0:0:
387,382,137137,6,0,P|448:364|504:350,1,117,10|0,3:2|3:0,2:0:0:0:
499,350,137389,1,0,3:0:0:0:
499,350,137474,2,0,P|506:316|514:286,1,58.5,10|8,2:0|2:0,2:0:0:0:
388,171,137642,2,0,P|395:205|403:235,1,58.5,8|8,2:0|2:0,2:0:0:0:
262,369,137811,5,8,3:2:0:0:
224,349,137895,1,8,2:0:0:0:
199,308,137979,1,8,2:0:0:0:
203,263,138064,1,8,2:0:0:0:
242,224,138148,1,8,3:2:0:0:
282,197,138232,1,8,2:0:0:0:
299,145,138316,1,8,2:0:0:0:
286,94,138401,1,8,2:0:0:0:
240,70,138485,2,0,P|198:86|155:101,1,90,8|0,3:2|3:0,2:0:0:0:
4,193,138822,5,8,3:2:0:0:
4,193,138906,1,8,2:0:0:0:
4,193,138990,2,0,P|35:202|63:212,1,45,8|8,2:0|2:0,2:0:0:0:
247,286,139159,5,8,3:2:0:0:
244,338,139243,1,8,2:0:0:0:
201,368,139328,1,8,2:0:0:0:
143,367,139412,1,8,2:0:0:0:
118,317,139496,5,8,2:3:0:0:
123,303,139580,1,8,2:3:0:0:
127,288,139665,1,4,2:3:0:0:
134,274,139749,1,4,2:3:0:0:
139,260,139833,5,4,3:1:0:0:
399,201,140002,1,4,2:3:0:0:
399,201,140086,1,4,2:3:0:0:
399,201,140170,2,0,L|335:187,1,58.5,4|4,2:3|2:3,2:0:0:0:
92,147,140339,5,12,2:0:0:0:
398,80,140507,1,0,3:0:0:0:
398,80,140592,1,0,3:0:0:0:
398,80,140676,2,0,L|334:94,1,58.5,0|0,3:0|3:0,2:0:0:0:
64,30,140844,5,8,2:0:0:0:
192,288,141013,2,0,P|204:201|221:115,1,175.5,6|0,3:1|2:0,2:0:0:0:
237,88,141350,1,10,2:0:0:0:
40,363,141519,6,0,B|73:330|124:338|124:338|153:382|214:368,1,175.5,10|0,2:0|2:0,2:0:0:0:
248,272,141856,2,0,P|212:280|174:296,1,58.5,12|0,2:0|3:0,2:0:0:0:
18,174,142024,5,0,3:0:0:0:
3,122,142108,1,0,3:0:0:0:
12,68,142193,1,8,2:0:0:0:
46,23,142277,1,8,2:0:0:0:
102,5,142361,1,8,2:0:0:0:
164,23,142446,1,8,2:0:0:0:
195,76,142530,2,0,P|182:135|171:195,1,121.5,6|0,3:2|2:0,2:0:0:0:
80,253,142867,6,0,B|120:216|175:235|175:235|206:287|274:266,1,189,12|0,2:1|2:0,2:0:0:0:
302,244,143204,5,2,3:2:0:0:
98,146,143373,1,0,3:0:0:0:
303,0,143541,1,8,2:0:0:0:
226,135,143710,6,0,P|219:85|204:19,1,99,2|0,3:2|2:0,2:0:0:0:
478,133,144047,1,0,3:0:0:0:
317,253,144215,1,8,2:0:0:0:
353,89,144384,5,0,3:0:0:0:
353,89,144468,1,8,2:0:0:0:
353,89,144552,2,0,P|362:120|370:147,1,49.5,2|0,3:2|2:0,2:0:0:0:
441,338,144721,1,0,3:0:0:0:
204,284,144889,1,8,2:0:0:0:
499,220,145058,5,2,2:0:0:0:
499,220,145142,1,8,2:0:0:0:
499,220,145226,2,0,B|444:234|403:217|403:217|368:253|368:253|323:243|285:271,1,234,2|8,3:1|2:0,2:0:0:0:
109,138,145732,1,2,3:2:0:0:
109,138,145816,1,10,2:0:0:0:
109,138,145901,2,0,P|144:147|186:159,1,58.5,2|0,3:2|2:0,2:0:0:0:
330,81,146069,2,0,P|295:90|253:102,1,58.5,0|0,3:0|2:0,2:0:0:0:
214,238,146238,1,8,2:0:0:0:
186,32,146406,6,0,B|210:67|242:84|242:84|216:165|213:247,1,234,2|0,3:2|3:0,2:0:0:0:
409,219,146912,2,0,P|356:210|300:194,1,99,8|0,2:0|3:0,2:0:0:0:
312,198,147165,1,8,2:0:0:0:
312,198,147249,1,2,3:2:0:0:
256,384,147417,1,0,3:0:0:0:
10,330,147586,2,0,P|69:282|151:297,1,148.5,8|0,2:0|2:0,2:0:0:0:
169,305,147923,5,6,3:2:0:0:
345,80,148092,5,2,2:0:0:0:
345,80,148176,1,0,3:0:0:0:
345,80,148260,2,0,P|245:84|194:177,1,189,8|0,2:0|2:0,2:0:0:0:
197,186,148597,2,0,P|205:212|219:257,1,54,2|0,3:2|2:0,2:0:0:0:
391,286,148766,2,0,P|383:312|369:357,1,54,2|0,2:0|3:0,2:0:0:0:
257,384,148934,1,8,2:0:0:0:
360,217,149103,5,2,2:0:0:0:
360,217,149187,1,0,2:0:0:0:
360,217,149271,2,0,P|410:249|466:238,1,108,2|0,3:2|3:0,2:0:0:0:
488,224,149524,1,0,3:0:0:0:
488,224,149608,2,0,P|478:187|472:162,1,54,8|0,2:0|2:0,2:0:0:0:
377,34,149777,1,0,3:0:0:0:
371,56,149861,1,0,3:0:0:0:
365,79,149946,1,8,2:0:0:0:
248,230,150114,5,8,2:0:0:0:
207,248,150198,1,8,2:0:0:0:
157,232,150283,1,8,2:3:0:0:
126,197,150367,1,8,2:3:0:0:
125,144,150451,1,4,2:3:0:0:
157,103,150535,1,4,2:3:0:0:
202,93,150620,6,0,B|268:71|299:128|299:139|291:146|320:206|427:176,1,229.5,6|0,3:2|2:0,2:0:0:0:
393,182,150957,1,8,2:0:0:0:
312,11,151125,6,0,P|273:116|246:247,1,229.5,6|0,3:2|2:0,2:0:0:0:
248,230,151462,1,2,3:2:0:0:
401,300,151631,1,8,2:0:0:0:
160,384,151799,6,0,P|147:289|109:193,1,189,6|0,3:2|2:0,2:0:0:0:
97,182,152137,1,2,3:2:0:0:
249,96,152305,1,8,2:0:0:0:
352,256,152474,1,6,3:2:0:0:
352,256,152558,1,8,2:3:0:0:
352,256,152642,2,0,P|339:305|333:330,1,63,0|0,3:0|2:0,2:0:0:0:
174,334,152811,5,8,2:0:0:0:
135,363,152895,1,8,2:0:0:0:
91,368,152979,1,8,2:3:0:0:
42,360,153064,1,4,2:3:0:0:
16,324,153148,1,4,2:3:0:0:
6,273,153232,1,4,2:3:0:0:
23,229,153316,6,0,P|76:215|131:200,1,108,6|0,3:2|2:0,2:0:0:0:
127,201,153569,1,0,3:0:0:0:
127,201,153653,1,8,2:0:0:0:
337,50,153822,2,0,P|258:59|191:6,1,162,2|0,2:0|2:0,2:0:0:0:
194,12,154159,1,0,3:0:0:0:
241,234,154328,1,8,2:0:0:0:
95,115,154496,6,0,P|167:127|224:143,1,108,6|0,3:2|2:0,2:0:0:0:
401,244,154833,1,2,3:2:0:0:
239,372,155002,2,0,P|254:310|270:262,1,108,8|0,2:0|3:0,2:0:0:0:
241,234,155255,1,8,2:0:0:0:
241,234,155339,2,0,P|207:246|186:253,2,54,2|8|0,3:0|2:0|3:0,2:0:0:0:
480,173,155676,1,8,2:0:0:0:
363,0,155844,5,0,3:0:0:0:
363,0,155929,1,8,2:0:0:0:
363,0,156013,2,0,P|315:87|336:149,1,162,2|0,3:1|2:0,2:0:0:0:
354,166,156350,1,8,2:0:0:0:
512,109,156519,2,0,P|459:97|406:84,1,108,2|2,2:0|3:0,2:0:0:0:
321,260,156856,1,0,3:0:0:0:
215,86,157024,1,8,2:0:0:0:
422,308,157193,6,0,P|339:310|269:360,1,162,6|0,3:2|2:0,2:0:0:0:
261,367,157530,2,0,P|232:356|203:349,1,54,2|0,3:2|2:0,2:0:0:0:
91,198,157698,1,8,2:0:0:0:
5,305,157867,6,0,P|79:286|171:261,1,162,4|0,3:1|2:0,2:0:0:0:
247,279,158204,5,8,2:0:0:0:
266,231,158288,1,8,2:0:0:0:
256,188,158373,1,8,2:3:0:0:
222,155,158457,1,8,2:3:0:0:
204,102,158541,1,4,2:3:0:0:
224,55,158625,1,4,2:3:0:0:
274,36,158710,6,0,P|343:50|407:61,1,135,10|0,3:2|2:0,2:0:0:0:
494,106,158962,2,0,P|430:104|373:160,1,135,10|0,2:0|2:0,2:0:0:0:
465,207,159215,2,0,B|469:193|472:187|472:187|459:177|452:192|452:192|459:195|465:207,1,67.5,10|0,2:0|2:0,2:0:0:0:
507,120,159384,6,0,B|435:76|346:142|429:154|341:218|259:178,1,270,10|6,2:0|3:0,2:0:0:0:
60,84,160058,6,0,P|137:96|171:165,1,153,10|0,3:2|2:0,2:0:0:0:
269,182,160311,2,0,P|192:194|158:263,1,153,10|0,2:0|2:0,2:0:0:0:
160,266,160564,2,0,P|166:288|175:321,1,45,10|0,2:0|2:0,2:0:0:0:
99,363,160732,6,0,P|86:317|73:270,1,90,2|0,3:0|3:0,2:0:0:0:
74,276,160985,1,0,3:0:0:0:
74,276,161069,2,0,L|27:291,1,45,8|0,2:0|2:0,2:0:0:0:
224,113,161238,6,0,B|272:88|317:115|317:115|347:157|399:140,1,175.5,6|0,3:1|2:0,2:0:0:0:
384,143,161575,1,0,3:0:0:0:
512,256,161743,1,10,2:0:0:0:
349,384,161912,5,2,2:0:0:0:
349,384,161996,1,8,2:0:0:0:
349,384,162080,1,2,3:0:0:0:
416,236,162249,1,0,3:0:0:0:
233,259,162417,2,0,P|287:273|352:293,1,117,10|0,2:0|2:0,2:0:0:0:
496,144,162755,5,10,3:2:0:0:
282,195,162923,1,10,2:0:0:0:
68,246,163092,1,10,3:2:0:0:
68,246,163429,6,0,P|116:255|171:270,1,90,2|0,3:2|3:0,2:0:0:0:
157,184,163681,1,0,3:0:0:0:
157,184,163766,2,0,P|133:179|105:172,1,45,8|0,2:0|2:0,2:0:0:0:
89,348,163934,6,0,B|141:297|195:309|195:309|231:366|286:351,1,189,6|0,3:1|2:0,2:0:0:0:
248,352,164271,1,0,3:0:0:0:
464,217,164440,2,0,P|343:246|250:274,1,189,8|0,2:0|2:0,2:0:0:0:
280,263,164777,1,2,3:2:0:0:
496,324,164946,1,0,3:0:0:0:
361,373,165114,1,8,2:0:0:0:
398,156,165283,6,0,B|370:112|370:112|397:31,1,126,2|0,3:2|2:0,2:0:0:0:
296,181,165620,1,0,3:0:0:0:
512,170,165788,6,0,B|397:146|462:227|286:186,1,189,8|0,2:0|2:0,2:0:0:0:
296,181,166125,1,2,3:2:0:0:
235,8,166294,1,0,3:0:0:0:
268,45,166378,1,0,3:0:0:0:
260,92,166462,1,8,2:0:0:0:
0,125,166631,6,0,P|75:105|190:69,1,189,6|0,3:2|2:0,2:0:0:0:
181,71,166968,1,0,3:0:0:0:
438,92,167137,6,0,P|348:104|293:200,1,189,8|8,2:0|2:0,2:0:0:0:
295,180,167474,1,2,3:2:0:0:
458,271,167642,1,0,3:0:0:0:
327,377,167811,1,10,2:0:0:0:
352,273,167979,5,2,2:0:0:0:
352,273,168064,1,8,2:0:0:0:
352,273,168148,1,2,3:0:0:0:
175,313,168316,1,0,3:0:0:0:
9,349,168485,2,0,P|24:282|39:217,1,126,10|0,2:0|3:0,2:0:0:0:
51,188,168738,1,8,2:0:0:0:
51,188,168822,2,0,P|82:184|122:171,1,63,2|0,3:2|2:0,2:0:0:0:
334,346,168990,5,8,2:0:0:0:
290,373,169075,1,8,2:0:0:0:
240,374,169159,1,8,2:0:0:0:
197,355,169243,1,8,2:0:0:0:
175,313,169328,6,0,B|188:278|187:247|187:247|217:220|217:220|207:178|233:125,1,189,6|0,3:1|2:0,2:0:0:0:
225,140,169665,1,2,3:2:0:0:
432,172,169833,6,0,P|363:182|305:200,1,126,8|0,2:0|3:0,2:0:0:0:
309,198,170086,1,8,2:0:0:0:
309,198,170170,2,0,P|303:233|291:271,1,63,2|0,3:2|2:0,2:0:0:0:
351,332,170339,5,2,3:2:0:0:
389,297,170423,1,0,3:0:0:0:
441,310,170507,1,8,2:0:0:0:
146,379,170676,6,0,P|71:295|104:193,1,202.5,6|0,3:2|2:0,2:0:0:0:
116,186,171013,1,0,3:0:0:0:
277,241,171181,2,0,P|212:257|156:284,1,117,10|0,2:0|3:0,2:0:0:0:
166,277,171434,1,8,2:0:0:0:
166,277,171519,1,2,3:2:0:0:
355,317,171687,1,0,3:0:0:0:
301,126,171856,2,0,P|284:187|276:245,1,117,8|0,2:0|3:0,2:0:0:0:
276,240,172108,1,8,2:0:0:0:
276,240,172193,6,0,B|377:213|341:284|457:254,1,175.5,6|0,3:2|2:0,2:0:0:0:
483,241,172530,5,10,2:0:0:0:
263,99,172698,1,0,3:0:0:0:
457,37,172867,6,0,P|445:69|437:103,1,58.5,10|0,2:0|2:0,2:0:0:0:
258,184,173035,2,0,P|270:216|278:250,1,58.5,0|0,3:0|2:0,2:0:0:0:
395,384,173204,1,0,3:0:0:0:
512,187,173373,6,0,B|424:208|443:130|338:152,1,175.5,10|0,2:0|2:0,2:0:0:0:
347,150,173710,1,0,3:0:0:0:
98,7,173878,6,0,P|185:60|180:161,1,202.5,10|0,2:0|2:0,2:0:0:0:
166,182,174215,1,10,2:0:0:0:
9,160,174384,2,0,P|37:143|79:143,1,72,10|0,2:0|3:0,2:0:0:0:
75,142,174721,6,0,B|72:182|60:216|60:216|87:272|87:272|73:306|68:347,1,216,6|0,3:1|3:0,2:0:0:0:
281,229,175226,2,0,P|233:204|172:212,1,108,8|0,2:0|3:0,2:0:0:0:
180,208,175479,1,8,2:0:0:0:
180,208,175564,2,0,L|169:260,2,54,2|8|0,3:0|2:0|3:0,2:0:0:0:
211,50,175901,1,8,2:0:0:0:
8,23,176069,6,0,P|38:107|162:107,1,216,2|0,3:2|3:0,2:0:0:0:
325,2,176575,2,0,P|310:54|296:116,1,108,8|0,2:0|3:0,2:0:0:0:
297,106,176828,1,8,2:0:0:0:
297,106,176912,1,2,3:0:0:0:
479,312,177080,5,2,2:0:0:0:
504,276,177165,1,0,3:0:0:0:
496,229,177249,2,0,P|488:202|483:170,1,54,8|0,2:0|2:0,2:0:0:0:
266,218,177417,6,0,P|341:218|424:275,1,162,6|0,3:2|2:0,2:0:0:0:
413,262,177755,1,2,3:2:0:0:
351,107,177923,1,8,2:0:0:0:
253,343,178092,5,0,3:0:0:0:
253,343,178176,1,8,2:0:0:0:
253,343,178260,2,0,P|205:354|144:371,1,108,2|0,3:2|3:0,2:0:0:0:
111,375,178513,1,0,3:0:0:0:
111,375,178597,2,0,L|126:313,1,54,8|0,2:0|2:0,2:0:0:0:
112,76,178766,6,0,B|60:62|20:47|20:47|43:129|61:204,1,252,6|2,3:2|3:2,2:0:0:0:
224,288,179271,5,8,2:0:0:0:
243,256,179356,1,0,3:0:0:0:
276,239,179440,1,0,3:0:0:0:
318,234,179524,1,8,0:0:0:0:
359,252,179608,1,2,3:0:0:0:
322,383,179777,1,2,2:0:0:0:
322,383,179861,1,0,3:0:0:0:
322,383,179946,2,0,P|314:354|302:310,1,63,8|0,2:0|2:0,2:0:0:0:
455,100,180114,6,0,P|454:196|341:250,1,216,6|0,3:2|3:0,2:0:0:0:
268,121,180620,2,0,P|329:127|368:155,1,108,8|0,2:0|3:0,2:0:0:0:
366,153,180873,1,8,2:0:0:0:
366,153,180957,2,0,P|358:122|349:89,1,54,2|0,3:0|2:0,2:0:0:0:
432,12,181125,2,0,P|443:55|454:99,1,90,0|8,3:0|2:0,2:0:0:0:
305,322,181462,6,0,P|240:269|156:281,1,162,6|0,3:2|2:0,2:0:0:0:
137,301,181799,2,0,P|80:293|29:280,1,108,0|8,3:0|2:0,2:0:0:0:
119,86,182137,1,0,3:0:0:0:
145,125,182221,1,8,2:0:0:0:
135,171,182305,1,2,3:2:0:0:
4,152,182474,2,0,P|37:145|73:133,1,54,0|0,3:0|2:0,2:0:0:0:
186,17,182642,2,0,P|257:63|342:41,1,162,8|0,2:0|2:0,2:0:0:0:
397,0,182979,6,0,P|380:66|358:169,1,162,6|0,3:2|2:0,2:0:0:0:
360,157,183316,1,10,2:0:0:0:
457,342,183485,1,0,3:0:0:0:
209,270,183653,5,10,2:0:0:0:
477,185,183822,1,2,3:2:0:0:
209,270,183990,1,8,2:0:0:0:
358,362,184159,6,0,B|357:326|376:289|376:289|362:263|349:232|349:232|365:195|359:156,1,216,6|8,3:1|3:0,2:0:0:0:
174,72,184665,1,10,3:2:0:0:
404,7,184833,1,8,2:0:0:0:
315,242,185002,5,8,2:3:0:0:
278,211,185086,1,8,2:0:0:0:
223,209,185170,1,8,2:0:0:0:
175,238,185255,1,8,2:0:0:0:
156,283,185339,1,8,2:0:0:0:
95,307,185423,1,8,2:0:0:0:
23,284,185507,1,8,2:0:0:0:
0,217,185592,1,8,2:0:0:0:
34,155,185676,1,6,3:1:0:0:
34,155,186013,6,0,P|47:96|59:47,1,108,8|0,2:0|3:0,2:0:0:0:
66,15,186266,1,8,2:0:0:0:
66,15,186350,1,2,3:2:0:0:
131,162,186519,1,8,2:0:0:0:
247,36,186687,1,0,3:0:0:0:
307,233,186856,6,0,P|357:215|410:201,1,107.999996704102,10|0,2:0|2:0,2:0:0:0:
504,228,187193,1,0,3:0:0:0:
288,137,187361,1,8,2:0:0:0:
442,9,187530,1,0,3:0:0:0:
442,9,187614,1,8,2:0:0:0:
442,9,187698,6,0,P|430:64|418:122,1,108,2|0,3:2|3:0,2:0:0:0:
419,114,187951,2,0,P|391:107|354:102,1,54,2|8,2:0|2:0,2:0:0:0:
227,286,188204,2,0,P|255:279|292:274,1,54,2|2,2:0|2:0,2:0:0:0:
366,261,188373,5,2,3:2:0:0:
198,194,188541,1,0,3:0:0:0:
132,378,188710,1,8,2:0:0:0:
17,227,188878,5,0,3:0:0:0:
17,227,188962,1,8,2:0:0:0:
17,227,189047,2,0,P|50:234|89:247,1,54,2|0,3:2|2:0,2:0:0:0:
145,181,189215,2,0,P|170:188|197:193,1,54,8|0,2:0|2:0,2:0:0:0:
227,286,189384,1,0,3:0:0:0:
466,137,189552,6,0,P|364:128|284:221,1,216,10|0,2:0|3:0,2:0:0:0:
330,340,190058,1,8,2:0:0:0:
174,300,190226,5,0,3:0:0:0:
174,300,190311,1,8,2:0:0:0:
174,300,190395,2,0,P|211:289|246:282,1,54,2|0,2:0|2:0,2:0:0:0:
288,203,190564,2,0,P|325:192|360:185,1,54,0|0,3:0|2:0,2:0:0:0:
164,177,190732,5,8,2:0:0:0:
133,152,190816,1,2,2:0:0:0:
117,107,190901,1,2,2:0:0:0:
123,63,190985,1,2,2:0:0:0:
160,33,191069,1,2,3:2:0:0:
160,33,191406,6,0,P|224:54|291:68,1,108,8|0,2:0|3:0,2:0:0:0:
308,78,191659,1,8,2:0:0:0:
308,78,191743,1,2,2:0:0:0:
464,29,191912,1,8,2:0:0:0:
351,198,192080,1,0,3:0:0:0:
512,149,192249,2,0,P|485:144|459:138,1,54,10|0,2:0|2:0,2:0:0:0:
268,275,192417,5,2,3:2:0:0:
447,224,192586,1,0,3:0:0:0:
268,275,192755,1,8,2:0:0:0:
329,135,192923,5,0,3:0:0:0:
329,135,193007,1,8,2:0:0:0:
329,135,193092,2,0,P|335:162|347:205,1,54,2|0,2:0|2:0,2:0:0:0:
366,268,193260,2,0,P|372:295|384:338,1,54,0|0,3:0|2:0,2:0:0:0:
253,357,193429,5,8,2:0:0:0:
204,336,193513,1,2,2:0:0:0:
180,290,193597,1,2,2:0:0:0:
186,241,193681,1,2,2:0:0:0:
222,202,193766,5,2,3:2:0:0:
507,274,193934,1,0,3:0:0:0:
268,275,194103,6,0,B|368:293|339:201|470:229,1,189,10|0,2:0|2:0,2:0:0:0:
442,224,194440,1,10,2:0:0:0:
284,123,194608,1,0,3:0:0:0:
449,14,194777,1,8,2:0:0:0:
303,213,194946,6,0,B|272:203|234:200|234:200|210:167|210:167|176:165|117:151,1,189,6|0,3:2|2:0,2:0:0:0:
134,155,195283,1,2,3:2:0:0:
307,0,195451,6,0,P|292:59|284:126,1,126,8|2,2:0|2:0,2:0:0:0:
132,369,195788,2,0,P|147:310|155:243,1,126,6|8,3:2|2:0,2:0:0:0:
154,245,196041,1,8,2:0:0:0:
154,245,196125,1,8,2:0:0:0:
44,117,196294,5,8,2:0:0:0:
44,117,196378,1,8,2:0:0:0:
44,117,196462,1,6,3:1:0:0:
71,274,196631,1,0,3:0:0:0:
220,104,196799,1,8,2:0:0:0:
267,289,196968,1,2,2:0:0:0:
386,71,197137,6,0,P|426:79|464:83,1,63,2|0,3:2|2:0,2:0:0:0:
272,201,197305,2,0,P|232:209|194:213,1,63,8|0,2:0|2:0,2:0:0:0:
464,297,197474,1,0,3:0:0:0:
382,166,197642,5,8,2:0:0:0:
382,166,197726,1,2,2:0:0:0:
382,166,197811,2,0,P|364:227|345:303,1,126,2|0,3:2|3:0,2:0:0:0:
336,323,198064,1,2,2:0:0:0:
336,323,198148,1,10,2:0:0:0:
126,360,198316,5,0,3:0:0:0:
126,360,198401,1,8,2:0:0:0:
126,360,198485,2,0,P|116:324|105:294,1,63,2|0,3:2|2:0,2:0:0:0:
225,147,198653,2,0,P|235:183|246:213,1,63,0|0,3:0|2:0,2:0:0:0:
0,162,198822,6,0,P|51:221|175:173,1,189,8|0,2:0|2:0,2:0:0:0:
152,204,199159,1,2,3:2:0:0:
374,19,199496,6,0,P|356:83|343:150,1,126,10|0,2:0|3:0,2:0:0:0:
344,141,199749,1,8,2:0:0:0:
344,141,199833,2,0,P|372:134|409:124,1,63,2|0,3:2|2:0,2:0:0:0:
484,200,200002,2,0,L|382:225,1,90,8|0,2:0|3:0,2:0:0:0:
191,11,200339,6,0,P|244:61|243:177,1,189,10|0,2:0|2:0,2:0:0:0:
245,171,200676,1,2,3:2:0:0:
29,145,200844,2,0,P|89:135|156:114,1,126,10|0,2:0|3:0,2:0:0:0:
151,115,201097,1,8,2:0:0:0:
151,115,201181,1,2,2:0:0:0:
304,300,201350,5,0,3:0:0:0:
304,299,201434,2,0,P|292:328|285:359,1,63,2|8,2:0|2:0,2:0:0:0:
195,341,201603,1,0,2:0:0:0:
194,341,201687,2,0,P|205:311|212:280,1,63,2|0,2:0|2:0,2:0:0:0:
245,171,201856,6,0,P|339:179|395:90,1,189,2|0,3:2|2:0,2:0:0:0:
393,110,202193,1,10,2:0:0:0:
313,15,202361,1,0,3:0:0:0:
313,15,202446,1,8,2:0:0:0:
313,15,202530,2,0,L|298:80,1,54,2|0,3:2|2:0,2:0:0:0:
106,262,202698,2,0,B|77:219|77:219|88:151,1,108,8|0,2:0|3:0,2:0:0:0:
340,148,203035,6,0,B|243:137|265:218|143:192,1,189,10|0,2:0|2:0,2:0:0:0:
163,195,203373,1,0,3:0:0:0:
331,242,203541,1,8,2:0:0:0:
263,88,203710,5,0,3:0:0:0:
263,88,203794,1,8,2:0:0:0:
263,88,203878,2,0,P|255:116|247:153,1,63,2|0,3:2|2:0,2:0:0:0:
241,240,204047,2,0,P|233:212|225:175,1,63,0|0,3:0|2:0,2:0:0:0:
352,100,204215,5,8,2:0:0:0:
135,204,204384,1,2,2:0:0:0:
456,324,204552,2,0,B|388:314|388:314|332:339|332:339|232:320,1,189,2|0,3:2|2:0,2:0:0:0:
263,326,204889,5,10,2:0:0:0:
512,249,205058,1,0,3:0:0:0:
213,185,205226,1,10,2:0:0:0:
474,100,205395,1,2,3:2:0:0:
412,382,205564,1,0,3:0:0:0:
326,94,205732,6,0,B|262:36|189:64|189:64|158:122|101:116,1,252,10|8,2:0|2:3,2:0:0:0:
63,104,206153,1,8,2:3:0:0:
63,104,206238,1,8,2:0:0:0:
252,174,206406,1,8,2:0:0:0:
91,250,206575,1,8,2:3:0:0:
228,310,206743,1,4,2:3:0:0:
120,384,206912,1,4,2:3:0:0:
120,384,207249,5,6,3:1:0:0:
271,128,214665,5,2,2:0:0:0:
381,153,214833,1,2,2:0:0:0:
478,100,215002,2,0,P|462:161|451:210,1,108,2|0,2:3|2:0,2:0:0:0:
452,204,215339,5,10,2:0:0:0:
355,3,215676,1,0,3:0:0:0:
304,304,216013,5,10,2:0:0:0:
225,87,216350,1,0,3:0:0:0:
19,300,216687,5,10,2:0:0:0:
75,79,217024,1,0,3:0:0:0:
355,3,217361,5,10,2:0:0:0:
295,59,217530,1,0,3:0:0:0:
225,87,217698,1,2,2:3:0:0:
150,100,217867,1,0,3:0:0:0:
75,79,218035,5,10,2:0:0:0:
308,181,218373,1,0,3:0:0:0:
8,207,218710,5,10,2:0:0:0:
265,257,219047,1,0,3:0:0:0:
19,384,219384,5,10,2:0:0:0:
246,345,219721,1,0,3:0:0:0:
265,257,219889,1,0,3:0:0:0:
308,181,220058,1,10,2:0:0:0:
376,125,220226,1,0,3:0:0:0:
457,103,220395,1,8,2:3:0:0:
457,103,220732,6,0,P|372:174|289:153,1,189,6|0,3:2|2:0,2:0:0:0:
276,143,221069,1,10,3:2:0:0:
164,269,221238,1,10,2:0:0:0:
96,132,221406,1,10,3:2:0:0:
305,246,221575,1,10,2:0:0:0:
83,326,221743,1,10,3:2:0:0:
220,196,221912,1,10,2:0:0:0:
41,50,222080,5,10,3:2:0:0:
301,161,222249,1,10,2:0:0:0:
35,257,222417,1,10,3:2:0:0:
172,10,222586,1,10,2:0:0:0:
305,246,222755,5,10,3:2:0:0:
88,181,222923,1,10,2:0:0:0:
326,368,223092,2,0,P|357:359|391:351,1,63,8|0,2:0|3:0,2:0:0:0:
223,197,223260,2,0,P|192:188|158:180,1,63,0|0,3:0|3:0,2:0:0:0:
468,23,223429,5,8,2:0:0:0:
496,68,223513,1,8,2:3:0:0:
492,120,223597,1,4,2:3:0:0:
462,161,223681,1,4,2:3:0:0:
415,183,223766,2,0,P|381:173|347:166,1,63,4|0,2:3|2:0,2:0:0:0:
76,337,223934,5,8,2:0:0:0:
126,363,224019,1,8,2:3:0:0:
176,361,224103,1,4,2:3:0:0:
220,332,224187,1,4,2:3:0:0:
244,283,224271,2,0,P|235:248|228:216,1,63,4|0,2:3|2:0,2:0:0:0:
47,17,224440,5,8,2:0:0:0:
21,71,224524,1,0,3:0:0:0:
30,124,224608,1,0,3:0:0:0:
84,155,224693,1,0,3:0:0:0:
142,153,224777,6,0,P|203:139|265:128,1,126,10|0,3:2|2:0,2:0:0:0:
352,197,225030,2,0,P|290:210|228:221,1,126,10|0,2:0|2:0,2:0:0:0:
319,70,225283,2,0,P|342:103|340:138,1,63,10|0,2:0|2:0,2:0:0:0:
208,304,225451,5,10,3:2:0:0:
512,192,225704,5,10,2:0:0:0:
282,2,225957,6,0,P|276:65|265:127,1,126,14|0,2:0|2:0,2:0:0:0:
32,304,227474,6,0,B|12:292|-11:289|-11:289|53:224|167:263|161:365|161:365|181:315|256:309,1,378,6|0,3:2|3:0,2:0:0:0:
293,365,228148,5,8,2:0:0:0:
270,247,228316,1,8,2:0:0:0:
244,123,228485,1,8,2:3:0:0:
472,42,228653,6,0,P|493:131|403:191,1,189,10|0,2:0|2:0,2:0:0:0:
426,189,228990,2,0,P|367:177|312:172,1,108,10|0,2:0|2:0,2:0:0:0:
0,104,229328,6,0,P|52:93|104:78,1,108,10|2,2:0|3:2,2:0:0:0:
91,130,229580,1,0,3:0:0:0:
103,182,229665,1,0,3:0:0:0:
152,213,229749,1,0,3:0:0:0:
214,206,229833,6,0,B|194:149|219:108|242:141|282:70|243:12,1,189,12|0,2:0|2:0,2:0:0:0:
175,54,230170,6,0,P|240:122|366:87,1,216,6|0,3:2|2:0,2:0:0:0:
375,75,230507,1,10,2:0:0:0:
167,176,230676,1,2,2:0:0:0:
429,263,230844,1,10,2:0:0:0:
143,373,231013,1,2,3:2:0:0:
429,263,231181,6,0,P|395:258|356:248,1,72,8|0,2:0|2:0,2:0:0:0:
78,301,231350,2,0,P|180:288|244:369,1,216,6|0,3:2|2:0,2:0:0:0:
327,378,231687,5,8,2:0:0:0:
364,344,231771,1,8,2:0:0:0:
369,289,231856,1,8,3:2:0:0:
348,239,231940,1,8,2:0:0:0:
305,218,232024,1,8,2:0:0:0:
254,214,232108,1,8,2:0:0:0:
205,235,232193,5,10,3:2:0:0:
143,251,232277,5,8,2:0:0:0:
81,239,232361,5,8,2:0:0:0:
28,185,232446,5,8,2:0:0:0:
14,107,232530,5,10,3:2:0:0:
51,33,232614,5,8,2:0:0:0:
132,0,232698,5,8,2:0:0:0:
215,4,232783,5,8,2:0:0:0:
270,78,232867,6,0,P|256:161|230:308,1,216,6|0,3:1|3:0,2:0:0:0:
320,344,233204,6,0,B|267:297|210:318|210:318|191:374|102:392,1,216,8|8,2:0|2:0,2:0:0:0:
141,381,233541,1,2,3:2:0:0:
48,160,233710,1,0,3:0:0:0:
288,224,233878,1,8,2:0:0:0:
16,272,234047,5,0,3:0:0:0:
16,272,234131,1,8,2:0:0:0:
16,272,234215,2,0,B|120:293|91:207|211:236,1,189,2|0,3:2|2:0,2:0:0:0:
236,251,234552,1,10,2:0:0:0:
445,182,234721,1,0,3:0:0:0:
445,182,234805,1,8,2:0:0:0:
445,182,234889,1,2,3:2:0:0:
307,12,235058,5,8,2:0:0:0:
264,26,235142,1,8,2:0:0:0:
232,65,235226,1,8,3:2:0:0:
231,114,235311,1,8,2:0:0:0:
256,152,235395,2,0,P|294:160|331:172,1,63,8|8,2:0|2:0,2:0:0:0:
482,123,235564,5,6,3:2:0:0:
185,245,235732,1,2,3:2:0:0:
489,350,235901,1,8,2:0:0:0:
335,84,236069,1,6,3:2:0:0:
335,84,236406,5,2,3:2:0:0:
245,365,236575,1,8,2:0:0:0:
0,199,236743,6,0,P|73:148|191:170,1,189,6|0,3:2|2:0,2:0:0:0:
200,184,237080,1,2,3:2:0:0:
433,116,237249,1,10,2:0:0:0:
252,13,237417,2,0,P|248:42|237:74,1,63,6|0,3:2|2:0,2:0:0:0:
257,307,237586,5,0,3:0:0:0:
221,286,237670,1,8,2:0:0:0:
168,284,237755,1,8,2:0:0:0:
123,304,237839,1,8,2:0:0:0:
92,342,237923,5,10,3:2:0:0:
25,309,238007,1,8,2:0:0:0:
0,237,238092,1,8,2:0:0:0:
14,159,238176,1,8,2:0:0:0:
78,106,238260,6,0,P|113:116|143:125,1,63,6|0,3:2|2:0,2:0:0:0:
280,80,238429,2,0,P|310:88|340:97,1,63,0|0,3:0|2:0,2:0:0:0:
200,0,238597,6,0,B|146:47|183:142|209:79|262:160|201:221,1,243,12|8,2:1|2:0,2:0:0:0:
205,215,238934,1,2,3:2:0:0:
335,384,239103,2,0,P|324:333|307:262,1,108,0|8,3:2|2:0,2:0:0:0:
512,82,239440,6,0,P|428:180|339:159,1,216,6|0,3:2|2:0,2:0:0:0:
314,147,239777,1,0,3:0:0:0:
209,340,239946,1,8,2:0:0:0:
25,248,240114,1,0,3:0:0:0:
25,248,240198,1,8,2:0:0:0:
25,248,240283,1,2,3:0:0:0:
153,77,240451,1,0,3:0:0:0:
209,340,240620,6,0,P|160:329|123:323,1,72,8|0,2:0|2:0,2:0:0:0:
28,172,240788,5,0,3:0:0:0:
36,151,240873,1,8,2:0:0:0:
43,133,240957,2,0,B|109:112|149:156|128:176|164:219|256:187,1,216,2|0,3:0|2:0,2:0:0:0:
277,167,241294,1,8,2:0:0:0:
501,250,241462,1,2,2:0:0:0:
315,383,241631,1,2,3:2:0:0:
366,90,241799,2,0,P|383:141|398:193,1,108,0|8,3:0|2:0,2:0:0:0:
122,384,242137,6,0,P|56:311|73:215,1,202.5,2|0,3:2|2:0,2:0:0:0:
131,162,242474,2,0,P|183:176|235:191,1,108,2|8,3:2|2:0,2:0:0:0:
505,7,242811,6,0,P|440:47|358:38,1,162,6|0,3:2|2:0,2:0:0:0:
280,9,243148,5,8,2:3:0:0:
242,61,243232,1,8,2:3:0:0:
252,117,243316,1,4,2:3:0:0:
298,156,243401,1,4,2:3:0:0:
336,197,243485,1,4,2:3:0:0:
335,260,243569,1,4,2:3:0:0:
292,300,243653,6,0,B|228:285|228:285|158:334,1,135,10|0,3:2|2:0,2:0:0:0:
9,191,243906,2,0,B|73:206|73:206|143:157,1,135,10|0,2:0|2:0,2:0:0:0:
129,166,244159,2,0,P|137:199|149:251,1,67.5,10|0,2:0|2:0,2:0:0:0:
144,231,244328,1,10,2:0:0:0:
426,377,244665,6,0,P|435:323|446:271,1,108,10|0,3:0|2:0,2:0:0:0:
446,270,245002,6,0,P|372:282|311:230,1,144,8|0,3:2|2:0,2:0:0:0:
354,63,245255,2,0,P|401:121|386:199,1,144,10|0,2:0|2:0,2:0:0:0:
395,186,245507,1,10,2:0:0:0:
248,357,245676,5,2,3:2:0:0:
227,312,245760,1,8,2:0:0:0:
178,286,245844,1,0,3:0:0:0:
123,287,245929,1,0,3:0:0:0:
75,311,246013,2,0,P|68:344|62:369,1,58.5,8|0,2:0|2:0,2:0:0:0:
0,160,246181,6,0,P|110:171|169:91,1,202.5,6|0,3:2|2:0,2:0:0:0:
174,70,246519,1,0,3:0:0:0:
461,167,246687,1,8,2:0:0:0:
255,291,246856,1,0,3:0:0:0:
232,252,246940,1,8,2:0:0:0:
236,207,247024,1,2,3:0:0:0:
318,69,247193,1,0,3:0:0:0:
512,274,247361,6,0,P|422:246|302:230,1,202.5,10|0,2:0|2:0,2:0:0:0:
255,291,247698,5,10,2:0:0:0:
166,24,247867,1,10,2:0:0:0:
0,252,248035,1,10,2:0:0:0:
282,131,248204,5,8,2:0:0:0:
282,131,248288,1,8,2:0:0:0:
282,131,248373,2,0,P|247:139|212:148,1,67.5,10|8,2:0|2:0,2:0:0:0:
0,252,248541,2,0,P|35:260|70:269,1,67.5,8|8,2:0|2:0,2:0:0:0:
210,369,248710,5,10,3:2:0:0:
283,341,248794,1,8,2:0:0:0:
325,276,248878,1,8,2:0:0:0:
325,194,248962,1,8,2:0:0:0:
282,131,249047,6,0,L|230:143,1,45,6|0,3:2|2:0,2:0:0:0:
91,54,249215,2,0,L|47:64,1,45,0|0,3:0|2:0,2:0:0:0:
241,52,249384,6,0,B|199:52|175:20|175:20|110:25|69:114|125:180,1,256.5,12|0,2:1|2:0,2:0:0:0:
137,194,249721,5,2,3:2:0:0:
282,131,249889,1,0,3:0:0:0:
416,288,250058,1,8,2:0:0:0:
495,218,250226,6,0,P|402:234|310:256,1,189,2|0,3:2|2:0,2:0:0:0:
309,256,250564,1,0,3:0:0:0:
131,166,250732,1,8,2:0:0:0:
299,20,250901,5,0,3:0:0:0:
299,20,250985,1,8,2:0:0:0:
299,20,251069,1,2,3:2:0:0:
211,260,251238,1,0,3:0:0:0:
18,85,251406,1,8,2:0:0:0:
282,131,251575,5,2,3:2:0:0:
321,120,251659,1,8,2:0:0:0:
363,107,251743,2,0,B|424:145|424:145|437:222|405:272,1,202.5,2|0,3:1|2:0,2:0:0:0:
443,353,252080,2,0,P|378:311|291:342,1,135,8|2,2:0|2:0,2:0:0:0:
323,318,252333,1,8,2:0:0:0:
323,318,252417,2,0,P|281:333|240:347,1,67.5,2|0,3:2|2:0,2:0:0:0:
211,260,252586,6,0,P|257:246|318:226,1,90,0|8,3:0|2:0,2:0:0:0:
93,50,252923,6,0,B|46:35|2:15|2:15|23:101|43:193,1,270,2|0,3:2|3:0,2:0:0:0:
78,375,253429,1,8,2:0:0:0:
211,260,253597,5,2,2:0:0:0:
211,260,253681,1,0,2:0:0:0:
210,260,253766,2,0,P|181:255|152:248,1,58.5,2|0,3:2|2:0,2:0:0:0:
312,374,253934,5,8,2:3:0:0:
378,380,254019,1,8,2:3:0:0:
436,354,254103,1,4,2:3:0:0:
477,313,254187,1,4,2:3:0:0:
492,251,254271,1,4,2:3:0:0:
481,188,254356,1,4,2:3:0:0:
437,151,254440,6,0,B|381:164|314:179,1,126,6|0,3:2|3:0,2:0:0:0:
246,122,254693,1,0,3:0:0:0:
246,122,254777,2,0,P|255:87|260:55,1,63,12|0,2:0|2:0,2:0:0:0:
326,259,254946,1,2,2:0:0:0:
52,122,255114,6,0,B|5:170|5:170|45:305,1,162,2|0,3:2|3:0,2:0:0:0:
42,286,255451,1,12,2:0:0:0:
293,364,255620,1,2,2:0:0:0:
147,149,255788,6,0,P|144:174|138:211,1,54,2|0,3:2|2:0,2:0:0:0:
115,350,255957,1,0,3:0:0:0:
115,350,256041,1,0,3:0:0:0:
115,350,256125,2,0,B|174:374|256:341|190:302|267:263|331:290,1,243,12|0,2:0|2:0,2:0:0:0:
330,289,256462,1,8,2:3:0:0:
491,185,256631,5,8,2:0:0:0:
509,133,256715,1,8,2:0:0:0:
497,83,256799,1,8,2:3:0:0:
460,48,256884,1,8,2:3:0:0:
404,34,256968,1,4,2:3:0:0:
349,54,257052,1,4,2:3:0:0:
309,96,257137,6,0,B|187:68|232:190|66:143,1,229.5,6|0,3:2|2:0,2:0:0:0:
97,150,257474,1,8,2:0:0:0:
236,21,257642,6,0,P|196:143|179:261,1,229.5,6|0,3:2|2:0,2:0:0:0:
89,380,257979,1,2,3:2:0:0:
58,350,258064,1,0,3:2:0:0:
60,300,258148,1,8,2:0:0:0:
316,263,258316,6,0,P|220:281|119:323,1,189,6|0,3:2|2:0,2:0:0:0:
135,314,258653,1,2,3:2:0:0:
349,186,258822,1,8,2:0:0:0:
260,382,258990,2,0,P|249:343|238:313,1,63,6|8,3:2|2:3,2:0:0:0:
69,240,259159,5,8,2:0:0:0:
20,208,259243,1,8,2:0:0:0:
0,150,259328,1,8,2:0:0:0:
3,90,259412,1,8,2:0:0:0:
44,50,259496,5,8,2:3:0:0:
78,60,259580,1,4,2:3:0:0:
108,69,259665,1,4,2:3:0:0:
139,76,259749,1,4,2:3:0:0:
168,88,259833,6,0,P|227:75|278:62,1,108,6|0,3:2|2:0,2:0:0:0:
314,88,260086,1,0,3:0:0:0:
314,88,260170,2,0,P|306:113|297:150,1,54,8|0,2:0|2:0,2:0:0:0:
89,318,260339,6,0,P|173:309|262:387,1,202.5,2|0,2:0|2:0,2:0:0:0:
259,380,260676,1,0,3:0:0:0:
454,271,260844,1,8,2:0:0:0:
400,384,261013,6,0,P|329:305|351:193,1,202.5,6|0,3:2|2:0,2:0:0:0:
337,214,261350,1,2,3:2:0:0:
169,263,261519,1,8,2:0:0:0:
213,62,261687,5,0,3:0:0:0:
213,62,261771,1,8,2:0:0:0:
213,62,261856,2,0,P|224:133|245:204,1,108,2|0,3:0|3:0,2:0:0:0:
51,348,262193,1,8,2:0:0:0:
96,152,262361,1,0,3:0:0:0:
273,278,262530,6,0,B|387:247|387:247|473:277,1,189,2|0,3:1|2:0,2:0:0:0:
453,270,262867,1,8,2:0:0:0:
233,167,263035,1,2,2:0:0:0:
423,52,263204,1,2,3:0:0:0:
198,18,263373,1,0,3:0:0:0:
438,158,263541,1,8,2:0:0:0:
126,274,263710,6,0,P|113:212|92:142,1,126,6|0,3:2|2:0,2:0:0:0:
438,158,264047,2,0,P|450:96|471:26,1,126,2|8,3:2|2:0,2:0:0:0:
32,71,264384,6,0,P|124:61|195:121,1,189,4|0,3:1|2:0,2:0:0:0:
218,243,264721,5,8,2:0:0:0:
263,261,264805,1,8,2:0:0:0:
315,257,264889,1,8,2:3:0:0:
353,221,264974,1,8,2:3:0:0:
367,173,265058,1,4,2:3:0:0:
357,122,265142,1,4,2:3:0:0:
314,90,265226,6,0,B|293:116|262:128|262:128|224:134|188:117,1,135,10|0,3:2|2:0,2:0:0:0:
113,55,265479,2,0,B|134:29|165:17|165:17|203:11|239:28,1,135,10|0,2:0|2:0,2:0:0:0:
209,185,265732,6,0,P|201:150|191:112,1,67.5,10|0,2:0|2:0,2:0:0:0:
193,119,265901,1,10,2:0:0:0:
67,372,266238,6,0,B|23:344|23:344|42:291,1,108,6|0,3:0|2:0,2:0:0:0:
11,216,266575,6,0,P|58:272|148:252,1,153,10|0,3:2|2:0,2:0:0:0:
193,119,266828,2,0,P|121:131|92:219,1,153,10|0,2:0|2:0,2:0:0:0:
204,304,267080,2,0,P|212:283|213:260,1,45,10|0,2:0|2:0,2:0:0:0:
233,25,267249,5,2,3:0:0:0:
268,64,267333,1,8,2:0:0:0:
315,78,267417,1,0,3:0:0:0:
369,68,267502,1,0,3:0:0:0:
408,36,267586,2,0,L|475:49,1,45,8|0,2:0|2:0,2:0:0:0:
512,160,267755,6,0,B|445:174|445:174|423:203|423:203|334:224,1,175.5,6|0,3:1|2:0,2:0:0:0:
354,219,268092,1,0,3:0:0:0:
165,163,268260,1,10,2:0:0:0:
302,73,268429,5,2,2:0:0:0:
302,73,268513,1,8,2:0:0:0:
302,73,268597,2,0,P|295:106|295:136,1,58.5,2|0,3:0|2:0,2:0:0:0:
252,224,268766,2,0,P|259:257|259:287,1,58.5,0|0,3:0|2:0,2:0:0:0:
332,384,268934,6,0,B|275:369|252:304|252:304|216:360|162:363,1,229.5,10|0,2:0|2:0,2:0:0:0:
64,288,269271,5,10,3:2:0:0:
252,224,269440,1,10,2:0:0:0:
440,160,269608,1,10,3:2:0:0:
440,160,270451,6,0,P|390:117|389:39,1,135,6|0,3:2|2:0,2:0:0:0:
400,36,270788,1,2,3:2:0:0:
348,223,270957,1,8,2:0:0:0:
143,46,271125,6,0,P|207:113|206:203,1,162,6|0,3:2|2:0,2:0:0:0:
204,215,271462,1,2,3:2:0:0:
271,5,271631,1,8,2:0:0:0:
0,236,271799,6,0,P|100:251|159:325,1,189,6|0,3:2|2:0,2:0:0:0:
172,346,272137,1,2,3:2:0:0:
260,85,272305,1,8,2:0:0:0:
469,272,272474,6,0,P|400:269|345:230,1,126,6|2,3:2|3:2,2:0:0:0:
340,196,272726,1,0,3:0:0:0:
297,165,272811,1,0,3:0:0:0:
243,169,272895,1,0,3:0:0:0:
208,199,272979,2,0,P|200:232|191:277,1,63,14|0,2:0|2:0,2:0:0:0:
105,322,273148,2,0,P|113:355|122:400,1,63,0|0,3:0|3:0,2:0:0:0:
9,178,273316,5,14,2:1:0:0:
277,242,273485,1,2,3:2:0:0:
186,0,273653,1,2,3:2:0:0:
122,278,273822,5,14,2:0:0:0:
38,16,273990,1,2,3:2:0:0:
307,93,274159,1,2,3:2:0:0:
122,278,274328,2,0,P|115:245|102:205,1,63,8|0,2:0|2:0,2:0:0:0:
462,144,274496,6,0,B|360:126|383:203|284:182,1,189,6|0,3:2|2:0,2:0:0:0:
284,182,274833,1,8,2:0:0:0:
512,240,275002,1,8,2:0:0:0:
444,28,275170,1,8,2:0:0:0:
307,317,275339,5,2,3:2:0:0:
263,347,275423,1,8,2:0:0:0:
206,345,275507,1,8,2:0:0:0:
157,327,275592,1,8,2:0:0:0:
122,278,275676,2,0,B|97:238|126:179|154:212|184:159|147:96,1,189,8|0,2:0|2:0,2:0:0:0:
89,58,276013,1,4,3:1:0:0:
89,58,276519,6,0,P|158:78|254:-11,1,198,8|2,2:0|3:2,2:0:0:0:
329,233,277024,1,8,2:0:0:0:
512,151,277193,6,0,P|415:131|319:106,1,198,6|0,3:1|3:2,2:0:0:0:
87,244,277698,1,10,2:0:0:0:
359,327,277867,5,0,3:0:0:0:
359,327,277951,1,8,2:0:0:0:
359,327,278035,2,0,P|341:274|328:231,1,99,2|0,3:2|3:0,2:0:0:0:
256,176,278288,2,0,P|250:201|241:238,1,49.5,0|8,3:0|2:0,2:0:0:0:
218,368,278541,1,2,2:0:0:0:
8,212,278710,6,0,P|67:161|143:178,1,148.5,6|0,3:2|2:0,2:0:0:0:
132,170,279047,1,2,2:0:0:0:
348,340,279215,6,0,P|222:354|170:251,1,234,2|8,3:0|3:2,2:0:0:0:
397,150,279721,1,8,2:0:0:0:
239,92,279889,6,0,P|259:175|278:279,1,175.5,6|0,3:2|2:0,2:0:0:0:
275,263,280226,1,0,3:0:0:0:
358,65,280395,1,10,2:0:0:0:
151,169,280564,1,2,2:0:0:0:
378,249,280732,5,2,3:2:0:0:
151,169,280901,1,4,2:3:0:0:
217,373,281069,1,4,2:3:0:0:
292,137,281238,1,4,2:3:0:0:
8,261,281406,6,0,P|94:248|170:289,1,175.5,10|0,2:0|2:0,2:0:0:0:
170,289,281743,1,2,3:2:0:0:
226,20,281912,1,10,2:0:0:0:
226,20,282249,5,2,3:2:0:0:
474,94,282417,1,8,2:0:0:0:
194,101,282586,6,0,B|314:139|289:3|431:48,1,234,6|4,3:2|2:3,2:0:0:0:
474,94,283092,2,0,P|461:149|453:193,1,99,4|0,2:3|2:0,2:0:0:0:
298,369,283429,6,0,B|293:283|177:235|113:291|113:291|162:283|196:322,1,324,4|6,3:2|3:1,2:0:0:0:
256,192,284187,12,2,285451,2:0:0:0:
298,369,286125,5,8,2:3:0:0:
264,335,286210,1,8,2:3:0:0:
257,287,286294,1,4,2:3:0:0:
274,242,286378,1,4,2:3:0:0:
316,215,286462,1,8,2:3:0:0:
340,163,286547,1,8,2:3:0:0:
332,104,286631,1,4,2:3:0:0:
292,70,286715,1,4,2:3:0:0:
241,57,286799,6,0,L|128:90,1,108,6|0,3:2|2:0,2:0:0:0:
27,132,287137,6,0,P|123:122|196:209,1,202.5,14|2,2:1|2:0,2:0:0:0:
205,228,287474,2,0,P|241:218|280:209,1,67.5,2|0,3:2|2:0,2:0:0:0:
484,279,287642,2,0,P|435:291|386:306,1,90,0|0,3:0|3:0,2:0:0:0:
397,302,287979,6,0,P|331:227|362:119,1,189,10|0,2:0|2:0,2:0:0:0:
367,120,288316,1,0,3:0:0:0:
282,327,288485,1,10,2:0:0:0:
222,198,288653,5,0,3:0:0:0:
222,198,288738,1,8,2:0:0:0:
222,198,288822,2,0,P|246:203|281:214,1,49.5,2|0,3:2|2:0,2:0:0:0:
367,120,288990,2,0,P|391:125|426:136,1,49.5,0|0,3:0|2:0,2:0:0:0:
153,12,289159,5,8,2:0:0:0:
108,34,289243,1,2,2:0:0:0:
84,81,289328,1,2,2:0:0:0:
93,133,289412,1,2,2:0:0:0:
127,166,289496,2,0,P|185:152|281:130,1,148.5,2|0,3:2|2:0,2:0:0:0:
306,124,289833,1,8,2:0:0:0:
509,240,290002,5,0,2:0:0:0:
509,240,290086,1,8,2:0:0:0:
509,240,290170,2,0,P|472:248|448:254,1,49.5,2|0,3:2|2:0,2:0:0:0:
313,261,290339,2,0,P|350:269|374:275,1,49.5,8|0,2:0|2:0,2:0:0:0:
489,372,290507,1,0,3:0:0:0:
432,168,290676,6,0,P|411:252|390:367,1,189,10|0,2:0|2:0,2:0:0:0:
392,352,291013,1,0,3:0:0:0:
283,158,291181,1,8,2:0:0:0:
179,355,291350,5,0,3:0:0:0:
179,355,291434,1,8,2:0:0:0:
179,355,291519,2,0,P|213:361|249:370,1,63,2|0,2:0|2:0,2:0:0:0:
146,242,291687,5,0,3:0:0:0:
103,261,291771,1,2,2:0:0:0:
47,257,291856,1,10,2:0:0:0:
10,217,291940,1,2,2:0:0:0:
0,165,292024,1,2,2:0:0:0:
30,113,292108,1,2,2:0:0:0:
82,93,292193,6,0,B|121:86|153:106|153:106|197:92|197:92|231:110|278:103,1,189,6|0,3:2|2:0,2:0:0:0:
305,86,292530,1,10,2:0:0:0:
503,224,292698,5,0,3:0:0:0:
503,224,292783,1,8,2:0:0:0:
503,224,292867,2,0,P|463:236|426:249,1,63,2|0,3:2|2:0,2:0:0:0:
270,191,293035,1,8,2:0:0:0:
407,64,293204,5,0,3:0:0:0:
502,350,293373,6,0,P|443:294|313:313,1,189,10|0,2:0|2:0,2:0:0:0:
311,315,293710,1,0,3:0:0:0:
138,225,293878,1,10,2:0:0:0:
284,129,294047,5,0,3:0:0:0:
284,129,294131,1,8,2:0:0:0:
284,129,294215,2,0,P|278:156|268:195,1,63,2|0,3:2|2:0,2:0:0:0:
203,320,294384,2,0,P|209:347|219:386,1,63,0|0,3:0|2:0,2:0:0:0:
16,257,294552,2,0,P|85:239|155:219,1,126,10|0,2:0|3:0,2:0:0:0:
301,267,294805,5,0,3:0:0:0:
291,276,294889,2,0,P|205:251|194:143,1,189,10|0,2:0|2:0,2:0:0:0:
210,118,295226,5,10,2:0:0:0:
462,201,295395,1,0,3:0:0:0:
383,1,295564,1,10,2:0:0:0:
301,267,295732,1,0,3:0:0:0:
199,24,295901,1,10,2:0:0:0:
492,118,296069,6,0,B|386:89|416:193|271:141,1,189,4|0,3:2|2:0,2:0:0:0:
313,153,296406,1,2,3:2:0:0:
65,237,296575,1,8,2:0:0:0:
241,384,296743,1,2,3:2:0:0:
194,142,296912,5,8,2:3:0:0:
152,157,296996,1,8,2:3:0:0:
102,151,297080,1,8,2:3:0:0:
62,116,297165,1,8,2:3:0:0:
49,60,297249,2,0,P|58:28|66:-3,1,63,4|0,2:3|2:0,2:0:0:0:
313,153,297417,5,14,2:1:0:0:
