osu file format v14

[General]
AudioFilename: audio.mp3
AudioLeadIn: 0
PreviewTime: 64423
Countdown: 0
SampleSet: Soft
StackLeniency: 0.7
Mode: 0
LetterboxInBreaks: 0
WidescreenStoryboard: 0

[Editor]
Bookmarks: 118663,207651
DistanceSpacing: 0.9
BeatDivisor: 4
GridSize: 32
TimelineZoom: 1.8

[Metadata]
Title:Ashita no Kimi sae Ireba Ii.
TitleUnicode:明日の君さえいればいい。
Artist:ChouCho
ArtistUnicode:ChouCho
Creator:hot anime girl
Version:Loli Lullaby
Source:妹さえいればいい。
Tags:maffe anime opening full version marathon imouto sae ireba ii all you need is a sister
BeatmapID:1455969
BeatmapSetID:687943

[Difficulty]
HPDrainRate:5.5
CircleSize:4.1
OverallDifficulty:8.6
ApproachRate:9.5
SliderMultiplier:1.4
SliderTickRate:1

[Events]
//Background and Video events
0,0,"stretched-1920-1080-873740.jpg",0,0
//Break Periods
//Storyboard Layer 0 (Background)
//Storyboard Layer 1 (Fail)
//Storyboard Layer 2 (Pass)
//Storyboard Layer 3 (Foreground)
//Storyboard Sound Samples

[TimingPoints]
1319,674.157303370787,4,2,1,20,1,0
3172,-66.6666666666667,4,2,1,20,0,0
5195,-100,4,2,1,20,0,0
5869,-100,4,2,1,5,0,0
6038,-100,4,2,1,10,0,0
6712,-100,4,2,1,20,0,0
8566,-66.6666666666667,4,2,1,20,0,0
12105,-100,4,2,1,20,0,0
13958,-66.6666666666667,4,2,1,20,0,0
15981,-100,4,2,1,20,0,0
16656,-100,4,2,1,5,0,0
16824,-100,4,2,1,10,0,0
17498,-100,4,2,1,20,0,0
19352,-66.6666666666667,4,2,1,20,0,0
22891,-66.6666666666667,4,2,1,20,0,0
25419,-86.9565217391304,4,2,1,20,0,0
27779,-86.9565217391304,4,2,1,5,0,0
28116,-166.666666666667,4,2,1,10,0,0
29296,-200,4,2,1,5,0,0
29633,-200,4,2,1,10,0,0
30644,-200,4,2,1,5,0,0
30981,-200,4,2,1,20,0,0
31655,-66.6666666666667,4,2,1,20,0,0
32244,-133.333333333333,4,2,1,30,0,0
32329,337.078651685393,4,2,1,30,1,0
32329,-133.333333333333,4,2,1,30,0,0
34183,-133.333333333333,4,2,1,30,0,0
34857,-133.333333333333,4,2,1,30,0,0
37638,-133.333333333333,4,2,1,30,0,0
39744,-153.846153846153,4,2,1,30,0,0
40418,-133.333333333333,4,2,1,30,0,0
41683,-100,4,2,1,20,0,0
41935,-100,4,2,1,5,0,0
42020,-100,4,2,1,20,0,0
42272,-100,4,2,1,5,0,0
42357,-76.9230769230769,4,2,1,40,0,0
43115,-100,4,2,1,50,0,0
44211,-66.6666666666667,4,2,1,50,0,0
44717,-133.333333333333,4,2,1,50,0,0
45054,-66.6666666666667,4,2,1,50,0,0
45728,-66.6666666666667,4,2,1,50,0,0
46908,-66.6666666666667,4,2,1,50,0,0
47413,-133.333333333333,4,2,1,50,0,0
47750,-100,4,2,1,30,0,0
48509,-100,4,2,1,60,0,0
49267,-66.6666666666667,4,2,1,60,0,0
49436,-100,4,2,1,60,0,0
50278,-66.6666666666667,4,2,1,60,0,0
53902,-66.6666666666667,4,2,1,60,0,0
60896,-83.3333333333333,4,2,1,60,0,0
61317,-71.4285714285714,4,2,1,60,0,0
61402,-83.3333333333333,4,2,1,5,0,0
61486,-83.3333333333333,4,2,1,60,0,0
61570,-71.4285714285714,4,2,1,60,0,0
61654,-83.3333333333333,4,2,1,5,0,0
61739,-83.3333333333333,4,2,1,60,0,0
61823,-71.4285714285714,4,2,1,60,0,0
61907,-83.3333333333333,4,2,1,5,0,0
61991,-83.3333333333333,4,2,1,60,0,0
63593,-133.333333333333,4,2,1,60,0,0
64099,-100,4,2,1,60,0,0
67722,-100,4,2,1,40,0,0
68312,-100,4,2,1,60,0,0
68481,-66.6666666666667,4,2,1,60,0,0
71345,-66.6666666666667,4,2,1,5,0,0
71430,-66.6666666666667,4,2,1,60,0,0
71767,-66.6666666666667,4,2,1,5,0,0
71851,-66.6666666666667,4,2,1,60,0,0
72357,-100,4,2,1,60,0,0
72694,-83.3333333333333,4,2,1,60,0,0
74548,-83.3333333333333,4,2,1,40,0,0
74717,-83.3333333333333,4,2,1,60,0,0
75391,-66.6666666666667,4,2,1,60,0,0
75475,-100,4,2,1,60,0,0
75643,-100,4,2,1,5,0,0
75727,-100,4,2,1,60,0,0
75980,-55.5555555555556,4,2,1,60,0,0
76064,-55.5555555555556,4,2,1,5,0,0
76149,-100,4,2,1,60,0,0
76317,-100,4,2,1,5,0,0
76402,-100,4,2,1,60,0,0
76654,-58.8235294117647,4,2,1,60,0,0
76739,-58.8235294117647,4,2,1,5,0,0
76823,-100,4,2,1,60,0,0
78087,-76.9230769230769,4,2,1,60,0,0
80110,-50,4,2,1,60,0,0
80447,-50,4,2,1,60,0,0
80784,-66.6666666666667,4,2,1,60,0,0
81290,-66.6666666666667,4,2,1,40,0,0
81458,-66.6666666666667,4,2,1,60,0,0
81964,-58.8235294117647,4,2,1,50,0,0
82385,-58.8235294117647,4,2,1,60,0,0
82807,-133.333333333333,4,2,1,60,0,0
83144,-64.516129032258,4,2,1,60,0,0
83564,-64.516129032258,4,2,1,60,0,1
83818,-133.333333333333,4,2,1,60,0,1
84323,-66.6666666666667,4,2,1,60,0,1
87863,-100,4,2,1,60,0,1
88284,-66.6666666666667,4,2,1,60,0,0
88958,-83.3333333333333,4,2,1,60,0,1
91654,-83.3333333333333,4,2,1,60,0,0
92076,-50,4,2,1,60,0,0
92750,-66.6666666666667,4,2,1,60,0,0
93762,-100,4,2,1,60,0,0
94267,-100,4,2,1,60,0,0
98144,-66.6666666666667,4,2,1,60,0,0
98312,-66.6666666666667,4,2,1,5,0,0
98396,-66.6666666666667,4,2,1,60,0,0
98733,-66.6666666666667,4,2,1,5,0,0
98817,-66.6666666666667,4,2,1,60,0,0
99155,-100,4,2,1,60,0,0
100335,-66.6666666666667,4,2,1,60,0,0
100644,-133.333333333333,4,2,1,60,0,0
101655,-100,4,2,1,60,0,0
104885,-100,4,2,1,40,0,0
105896,-100,4,2,1,60,0,0
107750,-66.6666666666667,4,2,1,50,0,0
108930,-66.6666666666667,4,2,1,40,0,0
109436,-66.6666666666667,4,2,1,60,0,0
109773,-66.6666666666667,4,2,1,60,0,0
109941,-100,4,2,1,60,0,0
110110,-100,4,2,1,60,0,0
110953,-66.6666666666667,4,2,1,60,0,0
112132,-100,4,2,1,60,0,0
112441,-66.6666666666667,4,2,1,60,0,0
112637,-66.6666666666667,4,2,1,5,0,0
112722,-66.6666666666667,4,2,1,60,0,0
112890,-66.6666666666667,4,2,1,5,0,0
112975,-66.6666666666667,4,2,1,60,0,0
113143,-66.6666666666667,4,2,1,5,0,0
113227,-66.6666666666667,4,2,1,60,0,0
113649,-100,4,2,1,60,0,0
114323,-100,4,2,1,40,0,0
114829,-66.6666666666667,4,2,1,60,0,0
118031,-66.6666666666667,4,2,1,5,0,0
118115,-66.6666666666667,4,2,1,60,0,0
118368,-66.6666666666667,4,2,1,5,0,0
118452,-66.6666666666667,4,2,1,60,0,0
118537,-66.6666666666667,4,2,1,5,0,0
118621,-66.6666666666667,4,2,1,60,0,0
120896,-83.3333333333333,4,2,1,60,0,0
121739,-66.6666666666667,4,2,1,60,0,0
122245,-100,4,2,1,60,0,0
125784,-83.3333333333333,4,2,1,60,0,0
126627,-100,4,2,1,60,0,0
129408,-100,4,2,1,40,0,0
132526,-83.3333333333333,4,2,1,40,0,0
133031,-66.6666666666667,4,2,1,40,0,0
133452,-66.6666666666667,4,2,1,40,0,0
133705,-66.6666666666667,4,2,1,50,0,0
134042,-66.6666666666667,4,2,1,60,0,0
137076,-100,4,2,1,40,0,0
137413,-66.6666666666667,4,2,1,40,0,0
137750,-66.6666666666667,4,2,1,50,0,0
138256,-83.3333333333333,4,2,1,50,0,0
140110,-66.6666666666667,4,2,1,60,0,0
142469,-133.333333333333,4,2,1,60,0,0
142807,-66.6666666666667,4,2,1,60,0,0
144998,-100,4,2,1,60,0,0
145475,-66.6666666666667,4,2,1,60,0,0
145587,-100,4,2,1,60,0,0
145755,-100,4,2,1,5,0,0
145840,-100,4,2,1,60,0,0
146093,-55.5555555555556,4,2,1,60,0,0
146177,-55.5555555555556,4,2,1,5,0,0
146261,-100,4,2,1,60,0,0
146430,-100,4,2,1,5,0,0
146514,-100,4,2,1,60,0,0
146767,-55.5555555555556,4,2,1,60,0,0
146851,-55.5555555555556,4,2,1,5,0,0
146935,-100,4,2,1,60,0,0
148200,-76.9230769230769,4,2,1,60,0,0
150896,-50,4,2,1,60,0,0
151402,-100,4,2,1,50,0,0
152076,-76.9230769230769,4,2,1,60,0,0
152919,-133.333333333333,4,2,1,60,0,0
153256,-100,4,2,1,60,0,0
153677,-64.5161290322581,4,2,1,60,0,1
153930,-133.333333333333,4,2,1,60,0,1
154436,-66.6666666666667,4,2,1,60,0,1
157975,-100,4,2,1,60,0,1
158312,-66.6666666666667,4,2,1,60,0,0
158986,-83.3333333333333,4,2,1,60,0,1
160166,-83.3333333333333,4,2,1,60,0,1
160672,-83.3333333333333,4,2,1,60,0,1
161767,-83.3333333333333,4,2,1,60,0,0
162189,-50,4,2,1,60,0,0
162610,-66.6666666666667,4,2,1,60,0,0
163368,-100,4,2,1,60,0,0
168256,-66.6666666666667,4,2,1,60,0,0
168424,-66.6666666666667,4,2,1,5,0,0
168508,-66.6666666666667,4,2,1,60,0,0
168845,-66.6666666666667,4,2,1,5,0,0
168930,-66.6666666666667,4,2,1,60,0,0
170419,-66.6666666666667,4,2,1,60,0,0
170784,-133.333333333333,4,2,1,60,0,0
171121,-100,4,2,1,60,0,0
172301,-100,4,2,1,60,0,0
175503,-66.6666666666667,4,2,1,60,0,0
176851,-66.6666666666667,4,2,1,60,0,0
177189,-66.6666666666667,4,2,1,60,0,0
177357,-100,4,2,1,60,0,0
177694,-66.6666666666667,4,2,1,60,0,0
178368,-100,4,2,1,60,0,0
178705,-66.6666666666667,4,2,1,60,0,0
180054,-100,4,2,1,60,0,0
180391,-66.6666666666667,4,2,1,60,0,0
181065,-100,4,2,1,60,0,0
181739,-66.6666666666667,4,2,1,60,0,0
182413,-100,4,2,1,60,0,0
182750,-66.6666666666667,4,2,1,60,0,0
184941,-133.333333333333,4,2,1,60,0,0
185278,-66.6666666666667,4,2,1,60,0,0
190503,-100,4,2,1,60,0,0
190840,-66.6666666666667,4,2,1,60,0,0
196065,-100,4,2,1,60,0,0
196739,-66.6666666666667,4,2,1,60,0,0
199014,-66.6666666666667,4,2,1,5,0,0
199098,-66.6666666666667,4,2,1,60,0,0
199267,-66.6666666666667,4,2,1,5,0,0
199351,-66.6666666666667,4,2,1,60,0,0
199435,-66.6666666666667,4,2,1,5,0,0
199520,-66.6666666666667,4,2,1,60,0,0
200615,-83.3333333333333,4,2,1,60,0,0
202638,-66.6666666666667,4,2,1,60,0,0
202807,-83.3333333333333,4,2,1,60,0,0
207357,-100,4,2,1,60,0,0
207526,-66.6666666666667,4,2,1,60,0,0
210728,-100,4,2,1,60,0,0
211065,-100,4,2,1,60,0,0
211402,-66.6666666666667,4,2,1,60,0,0
212497,-66.6666666666667,4,2,1,5,0,0
212581,-66.6666666666667,4,2,1,60,0,0
212750,-66.6666666666667,4,2,1,5,0,0
212834,-66.6666666666667,4,2,1,60,0,0
212918,-66.6666666666667,4,2,1,5,0,0
213003,-66.6666666666667,4,2,1,60,0,0
213509,-100,4,2,1,60,0,0
215615,-66.6666666666667,4,2,1,60,0,0
217638,-133.333333333333,4,2,1,60,0,0
217975,-100,4,2,1,60,0,0
218312,-100,4,2,1,30,0,0
221514,-100,4,2,1,30,0,0
222020,-100,4,2,1,30,0,0
226402,-66.6666666666667,4,2,1,60,0,0
231542,-100,4,2,1,60,0,0
233144,-100,4,2,1,60,0,0
234155,-66.6666666666667,4,2,1,60,0,0
234492,-66.6666666666667,4,2,1,60,0,0
235840,-50,4,2,1,60,0,0
236008,-50,4,2,1,5,0,0
236093,-50,4,2,1,60,0,0
236261,-50,4,2,1,5,0,0
236345,-50,4,2,1,60,0,0
236514,-50,4,2,1,5,0,0
236598,-50,4,2,1,60,0,0
236682,-50,4,2,1,5,0,0
236767,-50,4,2,1,60,0,0
236935,-50,4,2,1,5,0,0
237020,-50,4,2,1,60,0,0
237189,-100,4,2,1,5,0,0
237272,-100,4,2,1,60,0,0
237863,-100,4,2,1,30,0,0
238200,-66.6666666666667,4,2,1,40,0,0
238621,-50,4,2,1,60,0,1
239211,-50,4,2,1,60,0,0
239380,-66.6666666666667,4,2,1,60,0,0
240896,-50,4,2,1,60,0,0
241317,-50,4,2,1,60,0,1
242413,-50,4,2,1,60,0,1
242750,-133.333333333333,4,2,1,60,0,1
243256,-100,4,2,1,60,0,1
243593,-66.6666666666667,4,2,1,60,0,1
243930,-66.6666666666667,4,2,1,60,0,1
244014,-83.3333333333333,4,2,1,60,0,1
246711,-83.3333333333333,4,2,1,60,0,0
247132,-50,4,2,1,60,0,0
247807,-66.6666666666667,4,2,1,60,0,0
248818,-133.333333333333,4,2,1,60,0,0
249323,-100,4,2,1,60,0,0
253200,-66.6666666666667,4,2,1,60,0,0
253368,-66.6666666666667,4,2,1,5,0,0
253452,-66.6666666666667,4,2,1,60,0,0
253789,-66.6666666666667,4,2,1,5,0,0
253873,-66.6666666666667,4,2,1,60,0,0
255391,-66.6666666666667,4,2,1,60,0,0
255728,-133.333333333333,4,2,1,60,0,0
256908,-100,4,2,1,60,0,0
259773,-83.3333333333333,4,2,1,60,0,0
260194,-55.5555555555556,4,2,1,60,0,1
260447,-125,4,2,1,60,0,1
260784,-55.5555555555556,4,2,1,60,0,1
264492,-66.6666666666667,4,2,1,60,0,1
264913,-66.6666666666667,4,2,1,60,0,0
265587,-83.3333333333333,4,2,1,60,0,1
268284,-83.3333333333333,4,2,1,60,0,0
268705,-50,4,2,1,60,0,0
269380,-66.6666666666667,4,2,1,60,0,0
270896,-100,4,2,1,60,0,0
271233,-100,4,2,1,60,0,0
274773,-66.6666666666667,4,2,1,60,0,0
274941,-66.6666666666667,4,2,1,5,0,0
275025,-66.6666666666667,4,2,1,60,0,0
275362,-66.6666666666667,4,2,1,5,0,0
275446,-66.6666666666667,4,2,1,60,0,0
277301,-100,4,2,1,60,0,0
284380,-66.6666666666667,4,2,1,60,0,0
288762,-100,4,2,1,60,0,0
289014,-66.6666666666667,4,2,1,60,0,0
289267,-66.6666666666667,4,2,1,5,0,0
289351,-66.6666666666667,4,2,1,60,0,0
289520,-66.6666666666667,4,2,1,5,0,0
289604,-66.6666666666667,4,2,1,60,0,0
289772,-66.6666666666667,4,2,1,5,0,0
289857,-66.6666666666667,4,2,1,60,0,0
290278,-100,4,2,1,60,0,0
290953,-100,4,2,1,60,0,0
291458,-66.6666666666667,4,2,1,60,0,0
294660,-66.6666666666667,4,2,1,5,0,0
294744,-66.6666666666667,4,2,1,60,0,0
294913,-66.6666666666667,4,2,1,5,0,0
294997,-66.6666666666667,4,2,1,60,0,0
295166,-133.333333333333,4,2,1,5,0,0
295250,-133.333333333333,4,2,1,60,0,0
295671,-133.333333333333,4,2,1,40,0,0
297189,-100,4,2,1,60,0,0
297863,-66.6666666666667,4,2,1,60,0,0

[Colours]
Combo1 : 255,211,168
Combo2 : 168,168,255
Combo3 : 255,168,168

[HitObjects]
96,122,1318,5,2,0:0:0:0:
111,249,1823,1,2,0:0:0:0:
201,48,2329,5,2,0:0:0:0:
186,175,2834,1,2,0:0:0:0:
340,80,3341,6,0,L|346:137,1,52.5000020027161,2|2,0:0|0:0,0:0:0:0:
356,234,3678,1,2,0:0:0:0:
253,109,4014,1,2,0:0:0:0:
253,109,5363,6,0,P|219:95|132:119,1,105
152,104,6037,1,0,0:0:0:0:
260,97,6374,1,0,0:0:0:0:
241,301,6711,5,2,0:0:0:0:
226,174,7216,1,2,0:0:0:0:
146,372,7722,5,2,0:0:0:0:
161,245,8228,1,2,0:0:0:0:
19,340,8734,6,0,L|13:279,1,52.5000020027161,2|2,0:0|0:0,0:0:0:0:
0,185,9070,1,2,0:0:0:0:
114,327,9407,1,2,0:0:0:0:
256,192,10756,12,0,11768,0:0:0:0:
185,130,12105,5,2,0:0:0:0:
200,257,12610,1,2,0:0:0:0:
290,56,13116,5,2,0:0:0:0:
275,183,13621,1,2,0:0:0:0:
429,88,14127,6,0,L|435:145,1,52.5000020027161,2|2,0:0|0:0,0:0:0:0:
445,240,14464,1,2,0:0:0:0:
335,102,14801,1,2,0:0:0:0:
335,102,16150,6,0,P|301:88|214:112,1,105
234,97,16824,1,0,0:0:0:0:
342,90,17161,1,0,0:0:0:0:
330,309,17498,5,2,0:0:0:0:
315,182,18003,1,2,0:0:0:0:
235,380,18509,5,2,0:0:0:0:
250,253,19015,1,2,0:0:0:0:
108,348,19520,6,0,L|102:287,1,52.5000020027161,2|2,0:0|0:0,0:0:0:0:
89,191,19857,1,2,0:0:0:0:
203,339,20194,1,2,0:0:0:0:
256,192,21543,12,0,22554,0:0:0:0:
213,136,22891,5,2,0:0:0:0:
196,262,23397,1,2,0:0:0:0:
305,54,23902,5,2,0:0:0:0:
322,180,24408,1,2,0:0:0:0:
427,104,24913,1,2,0:0:0:0:
227,197,25588,6,0,B|239:252|184:287|184:287|95:177|207:106|207:106|329:125|309:235|309:235|335:212|364:212,1,563.50001074791
436,51,28284,6,0,P|447:102|436:189,1,125.999996154785,2|0,0:0|0:0,0:0:0:0:
447,278,29633,2,0,P|435:224|442:165,1,105,2|0,0:0|0:0,0:0:0:0:
451,182,31655,6,0,L|457:87,2,78.7500030040742
311,312,32329,6,0,L|297:202,1,105.000004005432,0|2,0:0|0:0,0:0:0:0:
297,207,32834,1,2,0:0:0:0:
248,119,33003,1,2,0:0:0:0:
205,212,33171,2,0,L|212:282,1,52.5000020027161,2|0,0:0|0:0,0:0:0:0:
31,343,33508,6,0,P|81:316|162:364,1,157.500006008148,0|0,0:0|0:0,0:0:0:0:
170,371,34351,6,0,L|255:378,2,78.7500030040742,0|0|0,0:0|0:0|0:0,0:0:0:0:
11,247,35025,6,0,L|123:230,1,105.000004005432,0|2,0:0|0:0,0:0:0:0:
114,231,35531,1,2,0:0:0:0:
158,139,35699,1,2,0:0:0:0:
225,215,35868,2,0,L|288:224,1,52.5000020027161,2|0,0:0|0:0,0:0:0:0:
399,59,36205,6,0,P|363:98|394:194,1,157.500006008148,0|0,0:0|0:0,0:0:0:0:
487,269,37048,6,0,P|431:259|416:261,1,52.5000020027161,0|0,0:0|0:0,0:0:0:0:
355,264,37385,1,0,0:0:0:0:
201,319,37722,6,0,L|205:248,1,52.5000020027161,2|0,0:0|0:0,0:0:0:0:
277,238,38059,1,0,0:0:0:0:
121,272,38227,6,0,P|122:216|118:200,1,52.5000020027161
233,169,38564,2,0,P|232:113|236:97,1,52.5000020027161
9,96,38902,6,0,P|57:84|99:91,1,78.7500030040742,2|0,0:0|0:0,0:0:0:0:
96,95,39239,1,2,0:0:0:0:
122,219,39407,1,2,0:0:0:0:
169,143,39744,6,0,L|245:135,2,68.2499968757631
12,252,40418,2,0,P|52:236|111:260,1,105.000004005432
180,384,40924,1,0,0:0:0:0:
180,384,41093,2,0,L|194:223,1,157.500006008148,0|0,0:0|0:0,0:0:0:0:
276,233,41767,6,0,L|356:222,1,70,0|0,0:0|0:0,0:0:0:0:
104,330,42104,2,0,L|24:341,1,70,0|0,0:0|0:0,0:0:0:0:
405,79,42441,5,8,0:0:0:0:
367,104,42525,1,0,0:0:0:0:
351,145,42609,1,8,0:0:0:0:
362,189,42694,1,0,0:0:0:0:
396,218,42778,5,10,0:0:0:0:
412,260,42862,1,0,0:0:0:0:
397,302,42946,1,0,0:0:0:0:
358,324,43031,1,0,0:0:0:0:
314,316,43115,6,0,B|302:282|302:282|309:245,1,70,4|0,0:2|0:0,0:0:0:0:
134,118,43452,2,0,B|142:153|142:153|132:191,1,70,12|0,0:0|0:0,0:0:0:0:
180,309,43789,1,2,0:3:0:0:
336,96,43958,2,0,L|259:82,1,70,0|8,0:0|0:0,0:0:0:0:
83,271,44295,6,0,B|137:251|151:196|151:196|191:237|259:231,1,210.000008010865,0|0,0:0|0:0,0:0:0:0:
54,180,44800,2,0,P|44:166|28:99,1,78.7500030040742,8|0,0:0|0:0,0:0:0:0:
33,96,45137,1,2,0:3:0:0:
225,322,45306,1,0,0:0:0:0:
237,76,45475,1,8,0:0:0:0:
68,285,45643,1,0,0:0:0:0:
150,36,45812,6,0,B|126:91|158:139|166:138|173:137|193:191|158:250,1,210.000008010865,4|8,0:0|0:0,0:0:0:0:
102,291,46317,1,0,0:0:0:0:
281,28,46486,1,2,0:3:0:0:
239,57,46570,1,0,0:0:0:0:
239,106,46654,1,2,0:3:0:0:
274,141,46739,1,0,0:0:0:0:
309,178,46823,1,8,0:0:0:0:
303,228,46907,1,0,0:0:0:0:
266,261,46991,6,0,B|188:275|188:275|164:309|164:309|70:327,1,210.000008010865,4|0,0:0|0:0,0:0:0:0:
224,188,47497,2,0,P|225:159|208:100,1,78.7500030040742,12|0,0:0|0:0,0:0:0:0:
201,100,47834,1,2,0:3:0:0:
256,25,48003,1,8,0:0:0:0:
287,40,48087,1,0,0:0:0:0:
321,44,48171,1,8,0:0:0:0:
356,37,48255,1,0,0:0:0:0:
386,21,48340,1,0,0:0:0:0:
421,19,48424,1,0,0:0:0:0:
453,32,48508,6,0,L|448:194,1,140,4|8,0:0|0:0,0:0:0:0:
359,167,49014,1,0,0:0:0:0:
509,230,49182,1,2,0:3:0:0:
273,289,49351,2,0,L|393:259,1,105.000004005432,0|8,0:0|0:0,0:0:0:0:
456,307,49688,1,0,0:0:0:0:
155,83,49857,6,0,B|176:131|176:131|150:236,1,140,2|8,0:3|0:0,0:0:0:0:
96,300,50362,2,0,L|151:295,1,52.5000020027161,0|0,0:0|0:0,0:0:0:0:
239,197,50531,2,0,L|295:207,1,52.5000020027161,2|0,0:3|0:0,0:0:0:0:
279,329,50699,1,0,0:0:0:0:
355,97,50868,1,8,0:0:0:0:
232,205,51036,1,0,0:0:0:0:
512,226,51205,6,0,L|394:209,1,105.000004005432,2|0,0:3|0:0,0:0:0:0:
212,283,51542,1,8,0:0:0:0:
315,95,51711,2,0,L|329:213,1,105.000004005432,0|2,0:0|0:3,0:0:0:0:
303,292,52048,1,0,0:0:0:0:
186,63,52216,2,0,B|229:97|229:97|245:226,1,157.500006008148,8|0,0:0|0:0,0:0:0:0:
239,205,52553,5,2,0:3:0:0:
153,146,52722,1,0,0:0:0:0:
142,249,52890,1,8,0:0:0:0:
46,104,53059,1,0,0:0:0:0:
66,84,53143,1,0,0:0:0:0:
94,83,53227,1,2,0:3:0:0:
57,192,53396,1,0,0:0:0:0:
120,0,53564,1,8,0:0:0:0:
200,140,53733,1,0,0:0:0:0:
15,77,53902,6,0,B|96:89|96:89|118:136|118:136|210:151,1,210.000008010865,4|8,0:0|0:0,0:0:0:0:
193,148,54407,1,0,0:0:0:0:
72,309,54576,2,0,P|101:261|252:306,1,210.000008010865,2|8,0:3|0:0,0:0:0:0:
236,274,55081,1,0,0:0:0:0:
401,47,55250,6,0,B|394:101|394:101|365:139|365:139|386:179|386:179|373:264,1,210.000008010865,2|8,0:3|0:0,0:0:0:0:
376,240,55755,1,0,0:0:0:0:
202,323,55924,1,2,0:3:0:0:
245,140,56093,1,0,0:0:0:0:
295,309,56261,2,0,P|261:258|220:235,1,105.000004005432
3,126,56598,6,0,L|173:140,1,157.500006008148,4|0,0:0|0:0,0:0:0:0:
165,148,56935,5,8,0:0:0:0:
322,16,57104,1,0,0:0:0:0:
218,246,57272,5,2,0:3:0:0:
224,1,57441,2,0,B|239:42|239:42|231:107,1,105.000004005432
0,296,57778,6,0,P|39:259|164:326,1,210.000008010865,4|0,0:0|0:0,0:0:0:0:
162,316,58284,1,8,0:0:0:0:
276,219,58452,1,0,0:0:0:0:
271,253,58536,1,0,0:0:0:0:
267,285,58621,1,2,0:3:0:0:
201,153,58789,1,0,0:0:0:0:
379,330,58958,2,0,L|371:225,1,105.000004005432,12|0,0:0|0:0,0:0:0:0:
82,253,59295,6,0,B|129:230|129:230|214:249,1,105.000004005432,4|0,0:0|0:0,0:0:0:0:
174,232,60475,6,0,B|226:244|226:244|349:204,1,157.500006008148,4|0,0:0|0:0,0:0:0:0:
328,204,60812,1,0,0:0:0:0:
130,383,60980,2,0,L|117:295,1,83.9999974365235,8|0,0:0|0:0,0:0:0:0:
253,41,61317,6,0,P|283:36|321:41,1,48.9999985046387,2|0,0:0|0:0,0:0:0:0:
87,214,61570,2,0,P|61:190|46:157,1,48.9999985046387,2|8,0:0|0:0,0:0:0:0:
317,284,61823,2,0,P|311:318|295:348,1,48.9999985046387,2|0,0:0|0:0,0:0:0:0:
244,134,61991,6,0,P|297:114|382:133,1,125.999996154785,2|0,0:3|0:0,0:0:0:0:
421,195,62328,1,12,0:0:0:0:
223,243,62497,1,0,0:0:0:0:
274,42,62666,1,2,0:3:0:0:
331,279,62834,1,0,0:0:0:0:
457,108,63003,1,8,0:0:0:0:
337,193,63171,6,0,P|259:163|170:218,1,167.999994873047
0,254,63677,2,0,P|39:245|73:248,1,52.5000020027161,8|0,0:0|0:0,0:0:0:0:
136,267,63930,1,0,0:0:0:0:
136,267,64014,1,2,0:3:0:0:
223,339,64182,1,8,0:0:0:0:
248,316,64267,1,8,0:0:0:0:
282,306,64351,1,8,0:0:0:0:
316,313,64435,1,8,0:0:0:0:
344,334,64520,1,8,0:0:0:0:
441,172,64688,5,2,0:3:0:0:
394,251,64857,1,0,0:0:0:0:
320,66,65025,2,0,L|332:136,1,70,12|0,0:0|0:0,0:0:0:0:
189,286,65362,5,2,0:3:0:0:
236,207,65531,1,0,0:0:0:0:
302,377,65699,2,0,L|297:306,1,70,12|0,0:0|0:0,0:0:0:0:
75,114,66036,5,2,0:3:0:0:
122,193,66205,1,0,0:0:0:0:
190,29,66373,2,0,L|185:100,1,70,12|0,0:0|0:0,0:0:0:0:
58,359,66711,5,2,0:3:0:0:
122,193,66879,1,0,0:0:0:0:
238,336,67048,1,8,0:0:0:0:
167,277,67385,6,0,P|201:253|240:240,1,70,4|0,0:0|0:0,0:0:0:0:
417,88,67722,2,0,P|375:91|335:83,1,70,12|0,0:0|0:0,0:0:0:0:
309,279,68059,2,0,P|350:275|390:283,1,70,4|0,0:0|0:0,0:0:0:0:
442,188,68396,1,8,0:0:0:0:
71,123,68564,6,0,B|129:135|153:185|153:185|176:139|246:125,1,210.000008010865,4|0,0:0|0:0,0:0:0:0:
110,353,69070,2,0,B|168:346|197:298|197:298|215:346|256:356,1,157.500006008148,8|0,0:0|0:0,0:0:0:0:
275,278,69407,1,2,0:3:0:0:
300,383,69576,1,0,0:0:0:0:
411,203,69744,1,8,0:0:0:0:
386,308,69913,1,0,0:0:0:0:
268,93,70081,5,2,0:3:0:0:
273,108,70587,1,0,0:0:0:0:
104,256,70924,1,0,0:0:0:0:
125,98,71093,1,8,0:0:0:0:
164,367,71261,6,0,L|239:381,1,52.5000020027161,0|0,0:0|0:0,0:0:0:0:
192,275,71598,2,0,L|312:256,1,105.000004005432,4|8,0:0|0:0,0:0:0:0:
145,177,71935,2,0,L|341:103,1,210.000008010865,4|0,0:0|0:0,0:0:0:0:
431,162,72441,2,0,L|354:193,1,70,12|0,0:0|0:0,0:0:0:0:
165,276,72778,6,0,B|206:250|248:272|248:277|289:305|333:276,1,167.999994873047,4|8,0:0|0:0,0:0:0:0:
292,210,73284,1,0,0:0:0:0:
208,343,73452,1,2,0:3:0:0:
84,257,73621,2,0,L|97:344,1,83.9999974365235,0|8,0:0|0:0,0:0:0:0:
394,134,73958,6,0,P|354:122|304:141,1,83.9999974365235,0|2,0:0|0:3,0:0:0:0:
259,353,74295,2,0,P|291:327|304:275,1,83.9999974365235,0|8,0:0|0:0,0:0:0:0:
214,123,74632,1,4,0:0:0:0:
30,213,74800,1,2,0:3:0:0:
64,189,74885,1,0,0:0:0:0:
105,183,74969,1,0,0:0:0:0:
145,195,75053,1,0,0:0:0:0:
176,224,75137,2,0,B|242:234|242:234|321:196,1,125.999996154785,12|0,0:0|0:0,0:0:0:0:
289,204,75475,6,0,P|282:169|291:110,1,70,2|0,0:3|0:0,0:0:0:0:
202,22,75727,2,0,P|233:36|267:88,1,70,2|0,0:0|0:0,0:0:0:0:
392,50,75980,2,0,P|362:68|318:74,1,62.9999980773926,2|0,0:0|0:0,0:0:0:0:
298,320,76149,6,0,P|314:290|365:256,1,70,2|0,0:3|0:0,0:0:0:0:
488,284,76402,2,0,P|452:285|402:260,1,70,2|0,0:0|0:0,0:0:0:0:
364,148,76654,2,0,P|383:176|388:203,1,59.5000011348725,2|0,0:0|0:0,0:0:0:0:
214,370,76823,6,0,L|219:265,1,105,4|0,0:0|0:0,0:0:0:0:
212,259,77160,1,8,0:0:0:0:
34,202,77328,1,0,0:0:0:0:
363,221,77497,5,2,0:3:0:0:
51,327,77666,1,0,0:0:0:0:
386,305,77834,5,8,0:0:0:0:
0,270,78003,1,0,0:0:0:0:
209,12,78171,6,0,B|232:54|232:54|206:152,1,136.499993751526,4|0,0:0|0:0,0:0:0:0:
193,144,78508,1,8,0:0:0:0:
170,181,78593,1,0,0:0:0:0:
178,225,78677,1,0,0:0:0:0:
214,251,78761,1,0,0:0:0:0:
258,247,78845,5,2,0:3:0:0:
297,226,78930,1,0,0:0:0:0:
340,238,79014,1,0,0:0:0:0:
363,276,79098,1,0,0:0:0:0:
354,319,79182,5,8,0:0:0:0:
319,346,79267,1,0,0:0:0:0:
275,342,79351,1,0,0:0:0:0:
246,308,79435,1,0,0:0:0:0:
252,260,79520,5,2,0:3:0:0:
233,299,79604,1,0,0:0:0:0:
191,314,79688,1,0,0:0:0:0:
151,294,79772,1,0,0:0:0:0:
136,252,79857,5,8,0:0:0:0:
163,217,79941,1,0,0:0:0:0:
149,175,80025,1,0,0:0:0:0:
107,163,80109,1,0,0:0:0:0:
73,190,80194,6,0,L|66:84,3,70,2|0|0|0,0:3|0:0|0:0|0:0,0:0:0:0:
151,96,80531,2,0,L|158:-10,3,70,8|0|0|0,0:0|0:0|0:0|0:0,0:0:0:0:
375,201,80868,5,4,0:0:0:0:
222,136,81036,1,0,0:0:0:0:
253,115,81121,1,0,0:0:0:0:
289,112,81205,1,8,0:0:0:0:
142,234,81373,5,4,0:0:0:0:
489,123,81542,1,2,0:3:0:0:
436,116,81626,1,0,0:0:0:0:
384,109,81711,1,0,0:0:0:0:
500,250,81879,5,8,0:0:0:0:
230,358,82048,2,0,B|240:290|240:290|274:262|274:262|285:180,1,178.500003404617,4|0,0:0|0:0,0:0:0:0:
253,115,82385,1,0,0:0:0:0:
318,333,82553,1,8,0:0:0:0:
313,341,82890,6,0,P|350:324|405:329,1,78.7500030040742,2|0,0:3|0:0,0:0:0:0:
401,334,83227,1,8,0:0:0:0:
453,341,83312,1,0,0:0:0:0:
498,313,83396,1,0,0:0:0:0:
512,262,83480,1,0,0:0:0:0:
490,214,83564,6,0,B|462:165|462:165|470:45,1,162.750001241684,4|0,0:0|0:0,0:0:0:0:
404,227,83902,2,0,P|374:240|320:238,1,78.7500030040742,8|0,0:0|0:0,0:0:0:0:
318,230,84239,1,2,0:3:0:0:
296,0,84407,2,0,L|288:108,1,105.000004005432,0|0,0:0|0:0,0:0:0:0:
84,100,84744,6,0,P|134:71|197:94,1,105.000004005432,0|0,0:0|0:0,0:0:0:0:
448,176,85081,2,0,P|398:147|335:170,1,105.000004005432,0|0,0:0|0:0,0:0:0:0:
52,241,85418,1,0,0:0:0:0:
66,223,85503,2,0,B|119:182|178:221|178:221|143:241,1,157.500006008148,8|0,0:0|0:0,0:0:0:0:
65,326,85924,1,8,0:0:0:0:
180,88,86093,1,0,0:0:0:0:
278,360,86261,6,0,B|268:305|268:305|291:220|398:229,1,210.000008010865,2|8,0:3|0:0,0:0:0:0:
355,82,86767,1,0,0:0:0:0:
322,84,86851,1,0,0:0:0:0:
292,103,86935,1,2,0:3:0:0:
442,142,87104,1,0,0:0:0:0:
301,0,87272,1,8,0:0:0:0:
69,197,87441,6,0,B|115:163|172:181|172:181|213:223|290:194,1,210.000008010865
135,329,87946,2,0,P|127:295|129:260,1,70,8|0,0:0|0:0,0:0:0:0:
255,302,88284,2,0,L|363:328,1,105.000004005432,2|0,0:3|0:0,0:0:0:0:
501,202,88621,2,0,L|341:220,1,157.500006008148,8|0,0:0|0:0,0:0:0:0:
327,210,88958,6,0,B|355:163|355:163|337:35,1,167.999994873047,4|8,0:0|0:0,0:0:0:0:
339,50,89463,1,0,0:0:0:0:
63,162,89632,2,0,P|106:145|145:144,1,83.9999974365235,2|0,0:3|0:0,0:0:0:0:
236,153,89885,1,0,0:0:0:0:
236,153,89969,1,8,0:0:0:0:
70,373,90137,6,0,B|82:312|82:312|116:282|116:282|130:208,1,167.999994873047
154,353,90559,1,0,0:0:0:0:
159,359,90643,2,0,L|305:337,1,125.999996154785,8|0,0:0|0:0,0:0:0:0:
303,348,90980,5,2,0:3:0:0:
305,307,91064,1,8,0:0:0:0:
336,279,91149,1,8,0:0:0:0:
377,280,91233,1,8,0:0:0:0:
405,310,91317,1,8,0:0:0:0:
427,344,91402,1,8,0:0:0:0:
467,350,91486,1,8,0:0:0:0:
497,322,91570,1,8,0:0:0:0:
494,281,91654,6,0,B|456:247|456:247|435:187|492:124,1,167.999994873047,4|8,0:0|0:0,0:0:0:0:
372,363,92160,2,0,B|440:345|466:266|466:266|427:202|485:132,1,280,4|0,0:0|0:0,0:0:0:0:
480,137,92666,1,8,0:0:0:0:
143,251,92834,6,0,B|194:222|194:222|291:244,1,157.500006008148,4|0,0:0|0:0,0:0:0:0:
296,253,93171,1,0,0:0:0:0:
358,144,93340,1,8,0:0:0:0:
410,248,93508,1,4,0:0:0:0:
231,96,93677,5,2,0:3:0:0:
63,233,93845,1,8,0:0:0:0:
90,211,93930,1,8,0:0:0:0:
124,211,94014,1,8,0:0:0:0:
151,231,94098,1,8,0:0:0:0:
161,264,94182,1,8,0:0:0:0:
148,296,94267,1,8,0:0:0:0:
129,316,94351,6,0,B|193:305|193:305|251:328,1,105,4|0,0:0|0:0,0:0:0:0:
317,383,94688,2,0,L|324:300,1,70,12|0,0:0|0:0,0:0:0:0:
238,187,95025,1,2,0:3:0:0:
330,309,95194,1,0,0:0:0:0:
410,158,95362,1,8,0:0:0:0:
312,232,95531,6,0,P|358:232|392:249,1,70,4|2,0:0|0:3,0:0:0:0:
505,354,95868,2,0,P|478:316|473:278,1,70,0|8,0:0|0:0,0:0:0:0:
509,94,96205,1,0,0:0:0:0:
482,106,96289,1,0,0:0:0:0:
455,112,96373,1,2,0:3:0:0:
512,205,96542,1,0,0:0:0:0:
342,28,96711,2,0,L|351:106,1,70,8|0,0:0|0:0,0:0:0:0:
190,94,97048,6,0,L|181:16,2,70,8|0|0,0:0|0:0|0:0,0:0:0:0:
268,162,97553,1,0,0:0:0:0:
125,321,97722,1,2,0:3:0:0:
178,219,97890,1,0,0:0:0:0:
263,337,98059,1,8,0:0:0:0:
361,189,98227,6,0,L|368:263,1,52.5000020027161,4|0,0:0|0:0,0:0:0:0:
273,126,98564,2,0,L|262:237,1,105.000004005432,4|8,0:0|0:0,0:0:0:0:
153,64,98902,2,0,L|184:252,1,157.500006008148,4|0,0:0|0:0,0:0:0:0:
167,229,99239,1,8,0:0:0:0:
136,213,99323,1,8,0:0:0:0:
101,213,99407,1,8,0:0:0:0:
70,228,99491,1,8,0:0:0:0:
49,256,99576,1,8,0:0:0:0:
0,117,99744,5,2,0:3:0:0:
121,299,99997,5,2,0:0:0:0:
199,86,100250,5,2,0:0:0:0:
110,188,100418,6,0,P|164:179|223:193,1,105.000004005432,2|0,0:3|0:0,0:0:0:0:
272,372,100755,2,0,L|259:284,1,78.7500030040742,8|0,0:0|0:0,0:0:0:0:
253,287,101093,5,2,0:3:0:0:
320,100,101345,5,2,0:0:0:0:
454,255,101598,5,2,0:0:0:0:
316,221,101767,5,2,0:3:0:0:
491,160,101935,1,8,0:0:0:0:
461,135,102020,1,0,0:0:0:0:
425,138,102104,1,8,0:0:0:0:
227,357,102272,6,0,B|248:308|248:308|221:212,1,140,4|0,0:0|0:0,0:0:0:0:
224,224,102778,1,8,0:0:0:0:
44,330,102946,1,0,0:0:0:0:
73,311,103031,1,0,0:0:0:0:
111,312,103115,1,2,0:3:0:0:
0,222,103284,1,0,0:0:0:0:
194,99,103452,2,0,L|118:86,1,70,8|0,0:0|0:0,0:0:0:0:
377,268,103789,5,2,0:3:0:0:
306,59,103958,1,0,0:0:0:0:
149,210,104126,1,8,0:0:0:0:
158,197,104463,2,0,P|207:183|234:183,1,70,2|0,0:3|0:0,0:0:0:0:
311,194,104716,1,0,0:0:0:0:
311,194,104800,1,8,0:0:0:0:
231,384,104969,6,0,L|215:274,1,105,4|0,0:0|0:0,0:0:0:0:
208,270,105306,1,0,0:0:0:0:
124,346,105475,1,8,0:0:0:0:
311,194,105643,6,0,L|295:304,1,105,4|0,0:0|0:0,0:0:0:0:
305,308,105980,1,0,0:0:0:0:
387,133,106149,1,8,0:0:0:0:
478,384,106317,6,0,B|446:337|461:246,1,140,4|0,0:0|0:0,0:0:0:0:
478,163,106823,1,8,0:0:0:0:
241,248,106991,2,0,P|277:233|336:235,1,70,0|0,0:0|0:0,0:0:0:0:
338,236,107244,1,0,0:0:0:0:
366,216,107328,1,0,0:0:0:0:
381,185,107413,1,0,0:0:0:0:
376,151,107497,1,8,0:0:0:0:
353,125,107581,1,0,0:0:0:0:
320,114,107666,1,0,0:0:0:0:
99,279,107834,6,0,B|150:246|150:246|185:162|102:122,1,210.000008010865,4|8,0:0|0:0,0:0:0:0:
213,30,108340,2,0,B|226:89|226:89|293:150|359:86,1,210.000008010865,4|0,0:0|0:0,0:0:0:0:
358,86,108845,1,8,0:0:0:0:
218,311,109014,6,0,B|271:289|286:236|286:236|311:286|367:299,1,210.000008010865,4|0,0:0|0:0,0:0:0:0:
372,206,109520,1,8,0:0:0:0:
295,368,109688,1,0,0:0:0:0:
194,224,109857,1,2,0:3:0:0:
47,384,110025,5,8,0:0:0:0:
58,351,110109,1,8,0:0:0:0:
63,316,110194,1,8,0:0:0:0:
54,282,110278,1,8,0:0:0:0:
44,249,110362,1,8,0:0:0:0:
43,214,110446,1,8,0:0:0:0:
49,180,110531,5,8,0:0:0:0:
49,180,111036,2,0,B|97:150|97:150|202:188,1,157.500006008148,4|0,0:0|0:0,0:0:0:0:
272,297,111373,1,0,0:0:0:0:
307,102,111542,1,8,0:0:0:0:
463,347,111711,6,0,B|423:305|423:305|437:151,1,210.000008010865,4|0,0:0|0:0,0:0:0:0:
336,268,112216,2,0,P|308:276|252:272,1,70,8|0,0:0|0:0,0:0:0:0:
179,244,112469,1,0,0:0:0:0:
179,244,112553,2,0,L|196:125,1,105.000004005432,2|0,0:3|0:0,0:0:0:0:
287,93,112806,2,0,L|181:146,1,105.000004005432,2|0,0:0|0:0,0:0:0:0:
81,72,113059,2,0,L|148:115,1,52.5000020027161,2|0,0:0|0:0,0:0:0:0:
273,198,113227,5,2,0:3:0:0:
268,189,113564,1,8,0:0:0:0:
428,237,113733,2,0,P|413:200|420:117,1,105
422,128,114070,1,0,0:0:0:0:
334,258,114239,1,8,0:0:0:0:
318,0,114407,6,0,B|330:50|330:50|291:134,1,140,4|0,0:0|0:0,0:0:0:0:
52,198,114913,2,0,P|89:181|208:219,1,157.500006008148,8|0,0:0|0:0,0:0:0:0:
212,207,115250,1,2,0:3:0:0:
128,83,115418,1,0,0:0:0:0:
44,279,115587,1,8,0:0:0:0:
304,360,115924,6,0,P|293:295|303:250,1,105.000004005432,2|0,0:3|0:0,0:0:0:0:
398,236,116261,1,8,0:0:0:0:
194,271,116430,2,0,P|201:209|184:155,1,105.000004005432,0|2,0:0|0:3,0:0:0:0:
386,43,116767,2,0,P|379:105|396:159,1,105.000004005432,0|8,0:0|0:0,0:0:0:0:
0,101,117104,6,0,P|52:70|143:111,1,157.500006008148,4|0,0:0|0:0,0:0:0:0:
149,98,117441,1,0,0:0:0:0:
94,289,117609,1,8,0:0:0:0:
382,163,117946,6,0,P|316:157|273:180,1,105.000004005432,2|0,0:3|0:0,0:0:0:0:
198,157,118199,2,0,P|203:191|256:261,1,105.000004005432,2|0,0:0|0:0,0:0:0:0:
323,293,118452,2,0,P|323:258|315:229,1,52.5000020027161,2|0,0:0|0:0,0:0:0:0:
500,80,118621,6,0,B|483:130|483:130|516:244,1,157.500006008148,4|0,0:0|0:0,0:0:0:0:
501,246,118958,2,0,P|449:230|396:252,1,105.000004005432,8|0,0:0|0:0,0:0:0:0:
353,307,119295,1,2,0:3:0:0:
396,56,119463,2,0,L|401:180,1,105.000004005432,0|8,0:0|0:0,0:0:0:0:
180,205,119800,6,0,P|225:175|330:217,1,157.500006008148,0|0,0:0|0:0,0:0:0:0:
321,214,120137,1,0,0:0:0:0:
86,348,120306,2,0,B|68:309|68:309|83:219,1,105.000004005432,8|0,0:0|0:0,0:0:0:0:
102,160,120559,1,0,0:0:0:0:
102,160,120643,1,2,0:3:0:0:
152,296,120812,1,0,0:0:0:0:
242,64,120980,2,0,L|130:79,1,83.9999974365235,8|0,0:0|0:0,0:0:0:0:
239,289,121317,6,0,B|225:243|225:243|248:142,1,125.999996154785,2|0,0:3|0:0,0:0:0:0:
236,154,121654,1,8,0:0:0:0:
338,350,121823,2,0,L|350:280,1,52.5000020027161
370,150,121991,1,2,0:3:0:0:
260,258,122160,1,0,0:0:0:0:
504,234,122328,2,0,L|415:239,1,70,8|0,0:0|0:0,0:0:0:0:
156,356,122666,6,0,B|184:312|184:312|162:214,1,140,2|8,0:3|0:0,0:0:0:0:
164,226,123171,1,0,0:0:0:0:
261,337,123340,1,2,0:3:0:0:
391,188,123508,1,8,0:0:0:0:
358,177,123593,1,0,0:0:0:0:
323,182,123677,1,8,0:0:0:0:
291,195,123761,1,0,0:0:0:0:
258,207,123845,1,0,0:0:0:0:
224,214,123930,1,0,0:0:0:0:
189,210,124014,6,0,B|165:159|165:159|183:69,1,140,4|8,0:0|0:0,0:0:0:0:
68,29,124520,2,0,L|76:75,1,35
103,220,124688,1,2,0:3:0:0:
255,117,124857,1,0,0:0:0:0:
34,145,125025,1,8,0:0:0:0:
349,55,125194,6,0,L|236:31,1,105,0|0,0:0|0:0,0:0:0:0:
239,15,125531,1,0,0:0:0:0:
189,210,125699,1,8,0:0:0:0:
428,15,125868,2,0,B|436:74|436:74|417:113|417:113|428:182,1,167.999994873047,0|0,0:0|0:0,0:0:0:0:
347,316,126373,2,0,L|329:225,1,83.9999974365235,8|0,0:0|0:0,0:0:0:0:
142,82,126711,6,0,B|202:115|202:115|226:257|226:257|180:307,1,280,2|0,0:3|0:0,0:0:0:0:
0,169,127553,1,0,0:0:0:0:
30,151,127637,1,0,0:0:0:0:
64,144,127722,1,8,0:0:0:0:
99,148,127806,1,0,0:0:0:0:
136,165,127890,6,0,B|86:64|184:22|184:22|296:46|255:158|255:158|334:115|385:153|380:178|380:178|370:199|344:185|359:157,1,560,4|0,0:0|0:0,0:0:0:0:
483,73,129407,6,0,L|491:234,1,140
489,212,129913,1,0,0:0:0:0:
385,82,130081,1,0,0:0:0:0:
322,248,130250,2,0,L|300:174,1,70
170,49,130587,6,0,B|191:97|191:97|165:202,1,140
68,232,131093,2,0,L|83:316,1,70
227,271,131430,2,0,L|262:343,1,70
328,162,131767,2,0,L|422:186,1,70
511,33,132020,1,0,0:0:0:0:
504,28,132104,6,0,L|342:56,1,140
465,348,132609,2,0,L|453:253,1,83.9999974365235
442,159,132946,1,0,0:0:0:0:
207,315,133115,2,0,P|257:284|344:325,1,157.500006008148
343,336,133452,5,2,0:3:0:0:
240,196,133621,1,2,0:3:0:0:
138,367,133789,1,2,0:3:0:0:
334,213,133958,1,2,0:3:0:0:
66,288,134126,1,2,0:3:0:0:
225,308,134463,1,2,0:3:0:0:
15,77,134800,6,0,B|96:89|96:89|118:136|118:136|210:151,1,210.000008010865,4|8,0:0|0:0,0:0:0:0:
193,148,135306,1,0,0:0:0:0:
429,28,135475,2,0,P|373:23|323:172,1,210.000008010865,4|8,0:0|0:0,0:0:0:0:
305,141,135980,1,0,0:0:0:0:
91,58,136149,6,0,B|89:102|120:136|120:136|118:180|118:180|153:215|156:280,1,210.000008010865,4|8,0:0|0:0,0:0:0:0:
152,251,136654,1,0,0:0:0:0:
339,26,136823,1,0,0:0:0:0:
217,165,136991,1,0,0:0:0:0:
233,0,137160,2,0,L|254:90,1,70,8|0,0:0|0:0,0:0:0:0:
502,115,137497,6,0,P|427:98|339:180,1,157.500006008148,4|0,0:0|0:0,0:0:0:0:
349,130,137834,1,8,0:0:0:0:
291,311,138003,1,0,0:0:0:0:
164,189,138171,1,2,0:3:0:0:
398,348,138340,2,0,L|409:249,1,83.9999974365235,0|8,0:0|0:0,0:0:0:0:
140,59,138677,6,0,P|168:96|286:74,1,167.999994873047,4|0,0:0|0:0,0:0:0:0:
82,187,139182,2,0,P|128:179|175:195,1,83.9999974365235,8|0,0:0|0:0,0:0:0:0:
240,225,139435,1,0,0:0:0:0:
240,225,139520,1,2,0:3:0:0:
308,334,139688,1,0,0:0:0:0:
387,54,139857,5,8,0:0:0:0:
382,95,139941,1,8,0:0:0:0:
378,137,140025,1,8,0:0:0:0:
374,179,140109,1,8,0:0:0:0:
370,221,140194,6,0,B|316:189|316:189|192:226,1,157.500006008148,4|0,0:0|0:0,0:0:0:0:
160,295,140531,1,8,0:0:0:0:
229,114,140699,1,0,0:0:0:0:
306,273,140868,1,2,0:3:0:0:
144,161,141036,1,0,0:0:0:0:
240,352,141205,1,8,0:0:0:0:
325,96,141373,1,0,0:0:0:0:
325,113,141458,6,0,L|301:175,1,52.5000020027161,0|2,0:0|0:3,0:0:0:0:
41,295,141711,2,0,L|145:259,1,105.000004005432,0|8,0:0|0:0,0:0:0:0:
463,299,142048,1,0,0:0:0:0:
452,311,142132,2,0,B|415:286|376:311|376:316|342:344|290:316,1,157.500006008148
443,222,142553,2,0,P|452:189|445:138,1,78.7500030040742,8|0,0:0|0:0,0:0:0:0:
436,135,142890,5,2,0:3:0:0:
331,245,143059,1,0,0:0:0:0:
318,32,143227,2,0,B|341:83|341:83|334:147,1,105.000004005432,8|0,0:0|0:0,0:0:0:0:
61,257,143564,2,0,B|80:204|80:204|131:164,1,105.000004005432,2|0,0:3|0:0,0:0:0:0:
238,189,143902,1,8,0:0:0:0:
162,279,144070,6,0,L|173:383,1,105.000004005432
403,174,144407,2,0,L|414:70,1,105.000004005432
262,287,144744,2,0,P|296:330|404:309,1,157.500006008148,4|0,0:0|0:0,0:0:0:0:
394,295,145081,1,8,0:0:0:0:
415,267,145166,1,8,0:0:0:0:
445,251,145250,1,8,0:0:0:0:
480,249,145334,1,8,0:0:0:0:
512,261,145418,1,8,0:0:0:0:
245,99,145587,6,0,P|277:111|309:148,1,70,6|0,0:0|0:0,0:0:0:0:
441,146,145840,2,0,P|411:164|363:169,1,70,2|0,0:0|0:0,0:0:0:0:
298,273,146093,2,0,P|300:238|317:205,1,62.9999980773926,2|0,0:0|0:0,0:0:0:0:
182,39,146261,6,0,P|167:70|130:99,1,70,6|0,0:0|0:0,0:0:0:0:
19,154,146514,2,0,P|52:145|106:166,1,70,2|0,0:0|0:0,0:0:0:0:
190,225,146767,2,0,P|173:194|164:140,1,62.9999980773926,2|0,0:0|0:0,0:0:0:0:
260,32,146935,6,0,L|266:165,1,105,4|0,0:0|0:0,0:0:0:0:
273,144,147272,1,8,0:0:0:0:
44,78,147441,1,0,0:0:0:0:
354,64,147609,5,2,0:3:0:0:
47,201,147778,1,0,0:0:0:0:
373,166,147946,5,8,0:0:0:0:
26,112,148115,1,0,0:0:0:0:
192,351,148284,2,0,B|169:309|169:309|195:211,1,136.499993751526,4|0,0:0|0:0,0:0:0:0:
203,211,148621,1,8,0:0:0:0:
166,234,148705,1,8,0:0:0:0:
122,226,148789,1,8,0:0:0:0:
95,190,148873,1,8,0:0:0:0:
100,146,148958,5,8,0:0:0:0:
121,107,149042,1,8,0:0:0:0:
109,64,149126,1,8,0:0:0:0:
71,41,149211,1,8,0:0:0:0:
28,50,149295,5,8,0:0:0:0:
1,85,149379,1,8,0:0:0:0:
5,129,149463,1,8,0:0:0:0:
39,158,149548,1,8,0:0:0:0:
87,154,149632,5,8,0:0:0:0:
69,266,149800,1,0,0:0:0:0:
305,41,149969,1,8,0:0:0:0:
259,48,150053,1,2,0:0:0:0:
214,55,150137,1,2,0:0:0:0:
375,151,150306,5,0,0:0:0:0:
173,211,150475,1,8,0:0:0:0:
209,185,150559,1,8,0:0:0:0:
254,184,150643,1,8,0:0:0:0:
292,208,150727,1,8,0:0:0:0:
317,245,150812,1,8,0:0:0:0:
358,263,150896,1,8,0:0:0:0:
403,257,150980,6,0,L|411:178,4,70,4|0|0|0|8,0:0|0:0|0:0|0:0|0:0,0:0:0:0:
275,18,151486,1,12,0:0:0:0:
279,52,151570,1,8,0:0:0:0:
284,87,151654,1,8,0:0:0:0:
289,121,151739,1,8,0:0:0:0:
294,156,151823,1,8,0:0:0:0:
411,55,151991,5,8,0:0:0:0:
512,299,152160,2,0,B|467:271|467:271|374:304,1,136.499993751526,4|0,0:0|0:0,0:0:0:0:
383,309,152497,1,0,0:0:0:0:
418,70,152666,1,8,0:0:0:0:
363,222,153003,6,0,P|330:234|272:229,1,78.7500030040742,2|0,0:3|0:0,0:0:0:0:
258,246,153340,1,8,0:0:0:0:
226,231,153424,1,0,0:0:0:0:
192,233,153508,1,0,0:0:0:0:
164,253,153593,1,0,0:0:0:0:
142,282,153677,6,0,B|114:233|114:233|122:113,1,162.750001241684,4|0,0:0|0:0,0:0:0:0:
226,258,154014,2,0,P|260:262|310:269,1,78.7500030040742,12|0,0:0|0:0,0:0:0:0:
311,261,154351,1,2,0:3:0:0:
254,2,154520,2,0,L|246:110,1,105.000004005432,0|8,0:0|0:0,0:0:0:0:
64,106,154857,6,0,P|114:77|177:100,1,105.000004005432,0|2,0:0|0:3,0:0:0:0:
305,232,155194,2,0,P|355:261|418:238,1,105.000004005432,0|8,0:0|0:0,0:0:0:0:
463,56,155531,1,0,0:0:0:0:
449,43,155615,2,0,B|393:12|333:41|333:41|371:69,1,157.500006008148,8|0,0:0|0:0,0:0:0:0:
512,0,156036,1,8,0:0:0:0:
335,133,156205,1,0,0:0:0:0:
512,260,156373,6,0,B|480:214|480:214|403:170|334:252,1,210.000008010865,2|8,0:3|0:0,0:0:0:0:
198,343,156879,1,0,0:0:0:0:
210,303,156963,1,0,0:0:0:0:
203,263,157048,1,2,0:3:0:0:
322,358,157216,1,0,0:0:0:0:
192,119,157385,1,8,0:0:0:0:
2,329,157553,6,0,B|47:297|101:313|101:313|139:358|218:338,1,210.000008010865,0|0,0:0|0:0,0:0:0:0:
24,163,158059,2,0,P|18:197|20:232,1,70,8|0,0:0|0:0,0:0:0:0:
149,155,158396,2,0,L|255:132,1,105.000004005432,2|0,0:3|0:0,0:0:0:0:
509,244,158733,2,0,L|361:232,1,105.000004005432,8|0,0:0|0:0,0:0:0:0:
315,212,158986,1,8,0:0:0:0:
329,199,159070,6,0,B|350:154|350:154|341:75,1,125.999996154785,4|0,0:0|0:0,0:0:0:0:
330,65,159407,1,8,0:0:0:0:
428,152,159576,1,0,0:0:0:0:
90,182,159744,2,0,P|133:165|172:164,1,83.9999974365235,2|0,0:3|0:0,0:0:0:0:
249,164,159997,1,0,0:0:0:0:
249,164,160081,1,8,0:0:0:0:
175,26,160250,6,0,B|186:77|186:77|236:111|236:111|252:176,1,167.999994873047,0|0,0:0|0:0,0:0:0:0:
256,30,160671,1,8,0:0:0:0:
259,21,160755,2,0,L|405:-1,1,125.999996154785,8|0,0:0|0:0,0:0:0:0:
452,73,161093,2,0,L|489:179,1,83.9999974365235,2|0,0:3|0:0,0:0:0:0:
254,153,161345,1,8,0:0:0:0:
249,164,161430,2,0,L|229:273,1,83.9999974365235,8|0,0:0|0:0,0:0:0:0:
422,344,161767,6,0,B|388:306|388:306|327:284|265:342,1,167.999994873047,4|8,0:0|0:0,0:0:0:0:
494,217,162272,2,0,B|491:280|412:317|412:317|343:278|278:330,1,280,4|0,0:0|0:0,0:0:0:0:
278,329,162778,1,8,0:0:0:0:
203,40,162946,6,0,B|236:93|236:93|206:191,1,157.500006008148,4|0,0:0|0:0,0:0:0:0:
196,193,163284,1,0,0:0:0:0:
368,32,163452,5,8,0:0:0:0:
364,66,163536,1,8,0:0:0:0:
371,100,163621,1,8,0:0:0:0:
383,133,163705,1,8,0:0:0:0:
395,166,163789,1,8,0:0:0:0:
400,200,163873,1,8,0:0:0:0:
392,234,163958,1,8,0:0:0:0:
283,384,164126,5,8,0:0:0:0:
274,350,164211,1,8,0:0:0:0:
274,315,164295,1,8,0:0:0:0:
284,281,164379,1,8,0:0:0:0:
299,252,164463,6,0,B|254:265|254:265|179:249,1,105,4|0,0:0|0:0,0:0:0:0:
91,384,164800,2,0,L|84:301,1,70,12|0,0:0|0:0,0:0:0:0:
255,169,165137,1,2,0:3:0:0:
172,332,165306,1,0,0:0:0:0:
64,192,165475,1,8,0:0:0:0:
196,253,165643,6,0,P|150:253|116:270,1,70,4|2,0:0|0:3,0:0:0:0:
2,351,165980,2,0,P|29:313|34:275,1,70,0|8,0:0|0:0,0:0:0:0:
0,88,166317,1,8,0:0:0:0:
22,107,166402,1,8,0:0:0:0:
53,110,166486,1,8,0:0:0:0:
0,198,166654,1,0,0:0:0:0:
158,33,166823,2,0,L|149:111,1,70,12|0,0:0|0:0,0:0:0:0:
329,182,167160,6,0,L|357:108,2,70,12|0|0,0:0|0:0|0:0,0:0:0:0:
226,168,167666,1,0,0:0:0:0:
401,309,167834,1,2,0:3:0:0:
306,199,168003,1,0,0:0:0:0:
236,360,168171,1,8,0:0:0:0:
133,187,168340,6,0,L|113:255,1,52.5000020027161,4|0,0:0|0:0,0:0:0:0:
230,125,168677,2,0,L|221:238,1,105.000004005432,4|8,0:0|0:0,0:0:0:0:
335,59,169014,2,0,L|358:252,1,157.500006008148,4|0,0:0|0:0,0:0:0:0:
343,224,169351,1,8,0:0:0:0:
374,208,169435,1,8,0:0:0:0:
409,208,169520,1,8,0:0:0:0:
440,223,169604,1,8,0:0:0:0:
461,251,169688,1,8,0:0:0:0:
501,104,169857,5,2,0:3:0:0:
390,290,170109,5,2,0:0:0:0:
300,95,170362,5,2,0:0:0:0:
414,189,170531,6,0,P|367:180|305:200,1,105.000004005432,2|0,0:3|0:0,0:0:0:0:
242,384,170868,2,0,L|251:288,1,78.7500030040742,8|0,0:0|0:0,0:0:0:0:
258,298,171205,5,2,0:3:0:0:
192,100,171458,5,2,0:0:0:0:
63,261,171711,5,2,0:0:0:0:
196,221,171879,5,2,0:3:0:0:
36,171,172048,1,8,0:0:0:0:
66,146,172132,1,8,0:0:0:0:
102,149,172216,1,8,0:0:0:0:
285,357,172385,6,0,B|264:308|264:308|291:212,1,140,4|0,0:0|0:0,0:0:0:0:
287,224,172890,1,8,0:0:0:0:
468,330,173059,1,0,0:0:0:0:
439,311,173143,1,0,0:0:0:0:
401,312,173227,1,2,0:3:0:0:
505,233,173396,1,0,0:0:0:0:
279,114,173564,2,0,L|351:133,1,70,12|0,0:0|0:0,0:0:0:0:
135,268,173902,5,2,0:3:0:0:
206,59,174070,1,0,0:0:0:0:
363,210,174239,1,8,0:0:0:0:
354,197,174576,2,0,P|305:183|278:183,1,70,2|0,0:3|0:0,0:0:0:0:
201,194,174828,1,0,0:0:0:0:
201,194,174913,1,8,0:0:0:0:
419,374,175081,6,0,L|429:220,1,140,4|0,0:0|0:0,0:0:0:0:
226,75,175587,2,0,P|278:100|341:92,1,105.000004005432,8|0,0:0|0:0,0:0:0:0:
205,167,175924,1,2,0:3:0:0:
292,13,176093,1,0,0:0:0:0:
373,165,176261,1,8,0:0:0:0:
63,120,176430,6,0,P|106:57|237:91,1,210.000008010865
120,326,176935,2,0,L|100:217,1,105.000004005432,8|0,0:0|0:0,0:0:0:0:
153,136,177272,1,2,0:3:0:0:
284,254,177441,1,0,0:0:0:0:
249,262,177525,1,0,0:0:0:0:
215,270,177609,1,8,0:0:0:0:
393,23,177778,6,0,B|360:91|360:91|397:235,1,210.000008010865,4|0,0:0|0:0,0:0:0:0:
360,332,178284,1,8,0:0:0:0:
184,218,178452,1,0,0:0:0:0:
218,221,178536,1,0,0:0:0:0:
253,224,178621,1,2,0:3:0:0:
138,302,178789,1,0,0:0:0:0:
258,111,178958,1,8,0:0:0:0:
370,321,179126,6,0,B|348:268|348:268|360:105,1,210.000008010865,0|0,0:0|0:0,0:0:0:0:
54,87,179632,2,0,P|98:115|155:116,1,105.000004005432,8|0,0:0|0:0,0:0:0:0:
230,34,179969,1,2,0:3:0:0:
136,230,180137,1,8,0:0:0:0:
162,206,180222,1,8,0:0:0:0:
196,199,180306,1,8,0:0:0:0:
229,207,180390,1,8,0:0:0:0:
255,230,180475,6,0,P|315:260|377:179,1,157.500006008148,4|0,0:0|0:0,0:0:0:0:
375,194,180812,1,0,0:0:0:0:
279,351,180980,1,8,0:0:0:0:
121,201,181149,1,0,0:0:0:0:
127,235,181233,1,0,0:0:0:0:
134,269,181317,1,2,0:3:0:0:
200,135,181486,1,0,0:0:0:0:
63,338,181654,1,8,0:0:0:0:
54,122,181823,6,0,B|31:174|31:174|74:345,1,210.000008010865,4|0,0:0|0:0,0:0:0:0:
193,367,182328,1,8,0:0:0:0:
182,151,182497,1,0,0:0:0:0:
150,165,182581,1,0,0:0:0:0:
118,180,182666,1,2,0:3:0:0:
253,238,182834,1,0,0:0:0:0:
186,45,183003,2,0,L|301:53,1,105.000004005432,8|0,0:0|0:0,0:0:0:0:
432,26,183340,6,0,B|399:75|399:75|431:189,1,157.500006008148,2|0,0:3|0:0,0:0:0:0:
438,180,183677,1,8,0:0:0:0:
256,272,183845,1,0,0:0:0:0:
414,364,184014,1,2,0:3:0:0:
315,95,184182,2,0,P|329:152|326:219,1,105.000004005432,0|8,0:0|0:0,0:0:0:0:
114,305,184520,6,0,P|161:267|280:333,1,210.000008010865,4|0,0:0|0:0,0:0:0:0:
125,188,185025,2,0,P|118:155|118:106,1,78.7500030040742,12|0,0:0|0:0,0:0:0:0:
125,100,185362,1,2,0:3:0:0:
191,350,185531,1,0,0:0:0:0:
181,343,185868,6,0,B|232:322|252:270|252:270|281:315|346:329,1,210.000008010865,4|0,0:0|0:0,0:0:0:0:
439,124,186373,2,0,L|321:154,1,105.000004005432,8|0,0:0|0:0,0:0:0:0:
257,178,186626,1,0,0:0:0:0:
257,178,186711,1,2,0:3:0:0:
327,46,186879,1,0,0:0:0:0:
320,240,187048,1,8,0:0:0:0:
43,126,187216,6,0,B|114:99|114:99|171:115|171:115|265:78,1,210.000008010865
404,23,187722,2,0,L|295:13,1,105.000004005432,8|0,0:0|0:0,0:0:0:0:
207,7,187975,1,0,0:0:0:0:
207,7,188059,1,2,0:3:0:0:
358,147,188227,1,0,0:0:0:0:
182,221,188396,1,8,0:0:0:0:
415,80,188564,6,0,P|364:63|260:154,1,157.500006008148
277,119,188902,1,0,0:0:0:0:
310,288,189070,1,8,0:0:0:0:
114,156,189239,1,0,0:0:0:0:
139,132,189323,1,0,0:0:0:0:
171,135,189407,1,2,0:3:0:0:
109,264,189576,1,0,0:0:0:0:
340,170,189744,1,8,0:0:0:0:
222,66,189913,6,0,B|252:124|252:124|230:282,1,210.000008010865,4|0,0:0|0:0,0:0:0:0:
133,351,190418,1,8,0:0:0:0:
70,172,190587,1,0,0:0:0:0:
104,167,190671,1,0,0:0:0:0:
139,162,190755,1,2,0:3:0:0:
30,288,190924,1,0,0:0:0:0:
157,65,191093,1,8,0:0:0:0:
196,258,191261,6,0,B|229:212|229:212|332:182|376:280,1,210.000008010865,4|0,0:0|0:0,0:0:0:0:
491,123,191767,2,0,L|387:118,1,105.000004005432,8|0,0:0|0:0,0:0:0:0:
294,117,192020,1,0,0:0:0:0:
294,117,192104,1,2,0:3:0:0:
431,206,192272,1,0,0:0:0:0:
337,29,192441,1,8,0:0:0:0:
140,212,192609,6,0,B|190:191|237:224|237:224|304:239|353:180,1,210.000008010865,4|0,0:0|0:0,0:0:0:0:
234,0,193115,2,0,P|213:50|216:104,1,105.000004005432,8|0,0:0|0:0,0:0:0:0:
258,179,193368,1,0,0:0:0:0:
258,179,193452,1,0,0:0:0:0:
386,117,193621,1,0,0:0:0:0:
130,120,193789,2,0,L|135:3,1,105.000004005432,12|0,0:0|0:0,0:0:0:0:
296,63,194126,5,2,0:3:0:0:
146,272,194295,2,0,P|160:219|200:174,1,105.000004005432,0|8,0:0|0:0,0:0:0:0:
424,192,194632,2,0,P|372:210|312:203,1,105.000004005432,0|2,0:0|0:3,0:0:0:0:
220,0,194969,2,0,P|265:31|293:84,1,105.000004005432,0|8,0:0|0:0,0:0:0:0:
30,330,195306,6,0,P|53:279|152:276,1,157.500006008148,4|0,0:0|0:0,0:0:0:0:
158,285,195643,1,0,0:0:0:0:
96,106,195812,1,8,0:0:0:0:
351,359,196149,5,2,0:3:0:0:
349,324,196233,1,0,0:0:0:0:
358,290,196317,1,0,0:0:0:0:
377,261,196402,1,0,0:0:0:0:
405,240,196486,1,8,0:0:0:0:
427,213,196570,1,0,0:0:0:0:
439,180,196654,1,0,0:0:0:0:
441,145,196739,1,0,0:0:0:0:
433,112,196823,6,0,B|379:85|379:85|266:130,1,157.500006008148,4|0,0:0|0:0,0:0:0:0:
204,41,197160,2,0,P|211:100|187:164,1,105.000004005432,8|0,0:0|0:0,0:0:0:0:
132,302,197497,1,2,0:3:0:0:
85,110,197666,1,0,0:0:0:0:
265,206,197834,1,8,0:0:0:0:
71,232,198003,6,0,P|121:214|186:219,1,105.000004005432,0|2,0:0|0:3,0:0:0:0:
269,198,198340,1,0,0:0:0:0:
344,341,198508,2,0,L|358:224,1,105.000004005432,8|0,0:0|0:0,0:0:0:0:
351,229,198761,1,0,0:0:0:0:
346,220,198845,2,0,P|336:161|347:102,1,105.000004005432,2|0,0:3|0:0,0:0:0:0:
338,9,199098,2,0,P|298:50|240:75,1,105.000004005432,2|0,0:3|0:0,0:0:0:0:
202,150,199351,2,0,P|258:160|291:182,1,52.5000020027161,2|0,0:3|0:0,0:0:0:0:
414,65,199520,5,2,0:3:0:0:
260,0,199688,1,0,0:0:0:0:
272,172,199857,1,8,0:0:0:0:
73,15,200025,2,0,L|100:79,1,52.5000020027161
232,96,200194,1,2,0:3:0:0:
162,0,200362,1,0,0:0:0:0:
0,162,200531,1,8,0:0:0:0:
16,158,200615,1,0,0:0:0:0:
35,153,200699,6,0,B|90:142|90:142|135:178|135:178|209:164,1,167.999994873047,0|0,0:0|0:0,0:0:0:0:
361,132,201205,1,8,0:0:0:0:
302,283,201373,1,0,0:0:0:0:
153,96,201542,2,0,L|134:283,1,167.999994873047,2|8,0:3|0:0,0:0:0:0:
396,342,202048,6,0,B|428:293|428:293|407:162,1,167.999994873047,0|0,0:0|0:0,0:0:0:0:
394,100,202553,1,8,0:0:0:0:
329,270,202722,2,0,L|264:262,1,52.5000020027161,0|0,0:0|0:0,0:0:0:0:
127,177,202890,1,2,0:3:0:0:
224,344,203059,1,0,0:0:0:0:
327,161,203227,1,8,0:0:0:0:
180,263,203396,1,0,0:0:0:0:
216,57,203564,5,2,0:3:0:0:
278,252,203733,1,0,0:0:0:0:
411,103,203902,1,8,0:0:0:0:
215,193,204070,2,0,P|265:164|360:223,1,167.999994873047
461,353,204576,2,0,L|470:257,1,83.9999974365235,8|0,0:0|0:0,0:0:0:0:
446,169,204913,5,2,0:3:0:0:
369,317,205081,2,0,P|317:323|276:338,1,83.9999974365235,0|8,0:0|0:0,0:0:0:0:
85,115,205418,1,0,0:0:0:0:
137,274,205587,2,0,P|188:272|231:280,1,83.9999974365235,2|0,0:3|0:0,0:0:0:0:
261,196,205924,1,8,0:0:0:0:
66,351,206093,6,0,B|47:250|47:250|101:186,1,167.999994873047
314,263,206598,2,0,P|274:278|226:274,1,83.9999974365235,8|0,0:0|0:0,0:0:0:0:
137,53,206935,2,0,P|172:77|196:118,1,83.9999974365235,2|0,0:3|0:0,0:0:0:0:
178,207,207188,1,0,0:0:0:0:
178,207,207272,1,8,0:0:0:0:
352,27,207441,1,0,0:0:0:0:
317,32,207525,1,0,0:0:0:0:
284,38,207609,6,0,L|278:162,1,105.000004005432,2|0,0:3|0:0,0:0:0:0:
95,264,207946,2,0,L|200:197,1,105.000004005432,8|0,0:0|0:0,0:0:0:0:
364,105,208284,1,2,0:3:0:0:
195,122,208452,1,0,0:0:0:0:
337,276,208621,1,8,0:0:0:0:
270,62,208789,6,0,L|289:186,1,105.000004005432,0|2,0:0|0:3,0:0:0:0:
229,301,209126,1,0,0:0:0:0:
414,193,209295,1,8,0:0:0:0:
195,122,209463,1,0,0:0:0:0:
354,337,209632,2,0,L|340:228,1,105.000004005432,2|0,0:3|0:0,0:0:0:0:
109,80,209969,2,0,L|123:189,1,105.000004005432,8|0,0:0|0:0,0:0:0:0:
22,318,210306,6,0,P|62:285|202:357,1,210.000008010865,2|8,0:3|0:0,0:0:0:0:
262,162,210812,1,0,0:0:0:0:
227,167,210896,1,0,0:0:0:0:
192,172,210980,1,2,0:3:0:0:
344,275,211149,2,0,L|275:261,1,70,0|8,0:0|0:0,0:0:0:0:
92,362,211486,6,0,B|107:288|107:288|147:261|147:261|163:171,1,210.000008010865,0|0,0:0|0:0,0:0:0:0:
357,133,211991,1,8,0:0:0:0:
180,236,212160,1,0,0:0:0:0:
296,11,212328,2,0,P|303:71|267:118,1,105.000004005432
275,193,212581,2,0,P|221:164|196:128,1,105.000004005432
166,52,212834,2,0,P|209:45|232:47,1,52.5000020027161
352,154,213003,6,0,P|360:212|339:261,1,105.000004005432,2|0,0:3|0:0,0:0:0:0:
88,261,213340,2,0,P|145:247|196:252,1,105.000004005432,8|0,0:0|0:0,0:0:0:0:
244,332,213593,2,0,P|301:345|352:340,1,105.000004005432,8|0,0:0|0:0,0:0:0:0:
454,211,214014,1,8,0:0:0:0:
456,349,214182,6,0,B|431:312|431:312|446:208,1,140,8|0,0:0|0:0,0:0:0:0:
459,116,214688,1,8,0:0:0:0:
261,290,214857,1,0,0:0:0:0:
273,256,214941,1,0,0:0:0:0:
267,225,215025,1,0,0:0:0:0:
340,377,215194,1,0,0:0:0:0:
346,139,215362,2,0,L|421:106,1,70,8|0,0:0|0:0,0:0:0:0:
72,297,215699,5,4,0:0:0:0:
86,113,215868,1,0,0:0:0:0:
352,347,216036,2,0,L|370:228,1,105.000004005432,8|0,0:0|0:0,0:0:0:0:
86,113,216373,2,0,L|104:232,1,105.000004005432,2|0,0:3|0:0,0:0:0:0:
208,300,216711,1,2,0:3:0:0:
259,36,216879,6,0,B|229:87|229:87|278:235,1,210.000008010865,4|0,0:0|0:0,0:0:0:0:
358,276,217300,1,0,0:0:0:0:
358,276,217385,1,8,0:0:0:0:
341,104,217553,1,0,0:0:0:0:
190,214,217722,1,2,0:3:0:0:
425,195,217890,1,0,0:0:0:0:
197,28,218059,2,0,L|271:50,1,70,8|0,0:0|0:0,0:0:0:0:
432,55,218396,6,0,L|440:216,1,140,4|0,0:0|0:0,0:0:0:0:
438,194,218902,1,0,0:0:0:0:
340,130,219070,1,0,0:0:0:0:
334,265,219239,2,0,L|263:290,1,70
143,40,219576,6,0,B|164:88|164:88|138:193,1,140,0|0,0:0|0:0,0:0:0:0:
67,220,220081,2,0,L|78:300,1,70
206,272,220418,2,0,L|198:348,1,70
312,181,220755,2,0,L|329:255,1,70
328,71,221093,6,0,L|183:112,1,140,2|0,0:0|0:0,0:0:0:0:
418,321,221598,2,0,L|391:224,1,70,2|0,0:0|0:0,0:0:0:0:
368,154,221935,1,2,0:0:0:0:
219,324,222104,2,0,P|269:302|326:314,1,105
383,359,222441,5,2,0:0:0:0:
74,303,222946,1,0,0:0:0:0:
93,274,223031,1,0,0:0:0:0:
88,236,223115,1,2,0:0:0:0:
208,298,223452,1,0,0:0:0:0:
15,77,223789,6,0,B|96:89|96:89|118:136|118:136|210:151,1,210.000008010865
279,233,224463,2,0,P|322:196|252:56,1,210.000008010865,0|0,0:3|0:0,0:0:0:0:
470,5,225137,6,0,B|439:73|439:73|484:215,1,210,0|0,0:3|0:0,0:0:0:0:
479,201,225812,1,2,0:0:0:0:
353,129,225980,1,2,0:0:0:0:
337,277,226149,2,0,L|262:296,1,70,8|0,0:0|0:0,0:0:0:0:
512,0,226486,6,0,L|376:18,1,105.000004005432,2|0,0:3|0:0,0:0:0:0:
226,64,226823,2,0,L|362:46,1,105.000004005432,2|0,0:3|0:0,0:0:0:0:
463,202,227160,6,0,L|327:184,1,105.000004005432,2|0,0:3|0:0,0:0:0:0:
177,138,227497,2,0,L|313:156,1,105.000004005432,2|0,0:3|0:0,0:0:0:0:
487,282,227834,6,0,L|351:300,1,105.000004005432,2|0,0:3|0:0,0:0:0:0:
201,346,228171,2,0,L|337:328,1,105.000004005432,2|0,0:3|0:0,0:0:0:0:
503,115,228508,6,0,L|367:97,1,105.000004005432,2|0,0:3|0:0,0:0:0:0:
114,200,228845,1,2,0:3:0:0:
262,112,229014,1,0,0:0:0:0:
195,351,229182,6,0,L|206:239,1,105.000004005432,2|0,0:3|0:0,0:0:0:0:
367,62,229520,2,0,L|356:174,1,105.000004005432,2|0,0:3|0:0,0:0:0:0:
429,384,229857,6,0,L|440:272,1,105.000004005432,2|0,0:3|0:0,0:0:0:0:
272,7,230194,2,0,L|261:119,1,105.000004005432,2|0,0:3|0:0,0:0:0:0:
84,384,230531,6,0,L|95:272,1,105.000004005432,2|0,0:3|0:0,0:0:0:0:
166,63,230868,2,0,L|155:175,1,105.000004005432,2|0,0:3|0:0,0:0:0:0:
185,299,231205,5,2,0:3:0:0:
283,178,231373,1,0,0:0:0:0:
372,384,231542,2,0,L|384:256,1,105,2|0,0:3|0:0,0:0:0:0:
401,269,231879,5,8,0:0:0:0:
203,316,232048,1,8,0:0:0:0:
469,217,232216,5,8,0:0:0:0:
152,195,232385,1,8,0:0:0:0:
486,294,232553,5,8,0:0:0:0:
118,279,232722,1,8,0:0:0:0:
497,141,232890,5,8,0:0:0:0:
115,367,233059,1,8,0:0:0:0:
339,52,233227,5,8,0:0:0:0:
306,337,233396,1,8,0:0:0:0:
193,56,233564,5,8,0:0:0:0:
226,341,233733,1,8,0:0:0:0:
19,116,233902,5,8,0:0:0:0:
147,372,234070,1,8,0:0:0:0:
441,129,234239,5,8,0:0:0:0:
394,153,234323,1,0,0:0:0:0:
343,164,234407,1,0,0:0:0:0:
291,161,234491,1,0,0:0:0:0:
241,145,234576,5,2,0:3:0:0:
269,102,234660,1,0,0:0:0:0:
260,51,234744,1,0,0:0:0:0:
220,19,234828,1,0,0:0:0:0:
169,23,234913,1,8,0:0:0:0:
134,61,234997,1,0,0:0:0:0:
134,112,235081,5,0,0:0:0:0:
94,80,235166,1,0,0:0:0:0:
42,83,235250,1,2,0:3:0:0:
7,120,235334,1,0,0:0:0:0:
6,172,235418,1,0,0:0:0:0:
39,210,235503,1,0,0:0:0:0:
90,216,235587,5,8,0:0:0:0:
142,215,235671,1,0,0:0:0:0:
183,246,235755,1,0,0:0:0:0:
195,296,235840,1,0,0:0:0:0:
173,343,235924,6,0,B|205:334|205:334|275:344,1,70,2|0,0:3|0:0,0:0:0:0:
422,91,236177,2,0,B|386:81|386:81|326:93,1,70,2|0,0:0|0:0,0:0:0:0:
21,289,236430,2,0,B|54:301|54:301|121:287,1,70,2|0,0:0|0:0,0:0:0:0:
421,265,236598,6,0,B|388:251|388:251|325:263,1,70,2|0,0:0|0:0,0:0:0:0:
17,205,236851,2,0,B|51:196|51:196|119:208,1,70,2|0,0:0|0:0,0:0:0:0:
512,9,237104,2,0,B|479:2|479:2|421:14,1,70,6|0,0:0|0:0,0:0:0:0:
438,12,237946,6,0,P|479:4|535:-3,1,70
371,128,238284,2,0,P|330:136|250:145,1,105.000004005432
28,58,238621,6,0,B|87:0|87:0|141:261|141:261|68:236,1,420,4|0,0:0|0:0,0:0:0:0:
74,238,239295,1,2,0:3:0:0:
371,128,239463,2,0,L|249:144,1,105.000004005432,0|0,0:0|0:0,0:0:0:0:
329,350,239800,6,0,L|386:363,1,52.5000020027161,4|0,0:0|0:0,0:0:0:0:
269,257,240137,2,0,L|378:240,1,105.000004005432,0|8,0:0|0:0,0:0:0:0:
70,185,240475,2,0,L|182:131,1,105.000004005432,4|2,0:0|0:3,0:0:0:0:
180,113,240727,1,0,0:0:0:0:
201,151,240812,1,0,0:0:0:0:
245,177,240896,1,0,0:0:0:0:
297,178,240980,2,0,L|367:166,3,70,8|0|0|0,0:0|0:0|0:0|0:0,0:0:0:0:
102,316,241317,6,0,P|146:260|239:348,1,210,4|0,0:0|0:0,0:0:0:0:
241,344,241654,2,0,B|293:315|293:315|390:351,1,140,8|0,0:0|0:0,0:0:0:0:
67,156,241991,2,0,B|119:185|119:185|216:149,1,140,2|0,0:3|0:0,0:0:0:0:
157,275,242328,1,8,0:0:0:0:
418,75,242497,6,0,B|406:122|406:122|422:212,1,140,0|2,0:0|0:3,0:0:0:0:
404,237,242750,1,8,0:0:0:0:
394,206,242834,1,8,0:0:0:0:
375,187,242918,1,8,0:0:0:0:
351,176,243003,1,8,0:0:0:0:
325,175,243087,1,8,0:0:0:0:
300,184,243171,1,8,0:0:0:0:
280,200,243255,1,8,0:0:0:0:
268,223,243340,5,8,0:0:0:0:
263,257,243424,1,8,0:0:0:0:
241,284,243508,1,8,0:0:0:0:
209,296,243593,1,8,0:0:0:0:
171,284,243677,1,8,0:0:0:0:
145,240,243761,1,8,0:0:0:0:
161,192,243845,1,8,0:0:0:0:
208,173,243930,1,8,0:0:0:0:
242,205,244014,6,0,B|270:158|270:158|252:30,1,167.999994873047,4|8,0:0|0:0,0:0:0:0:
19,69,244520,1,0,0:0:0:0:
17,89,244604,1,0,0:0:0:0:
17,111,244688,2,0,B|30:143|30:143|91:181,1,83.9999974365235,2|0,0:3|0:0,0:0:0:0:
324,220,245025,1,8,0:0:0:0:
76,380,245194,6,0,B|84:328|84:328|126:304|126:304|141:222,1,167.999994873047,0|0,0:0|0:0,0:0:0:0:
164,379,245699,2,0,L|282:365,1,83.9999974365235,8|0,0:0|0:0,0:0:0:0:
343,359,245952,1,0,0:0:0:0:
343,359,246036,1,2,0:3:0:0:
170,135,246205,1,8,0:0:0:0:
179,124,246289,2,0,L|181:168,1,41.9999987182618
290,209,246458,1,8,0:0:0:0:
281,198,246542,2,0,L|279:242,1,41.9999987182618
411,73,246711,6,0,B|387:118|387:118|389:183|465:220,1,167.999994873047,4|8,0:0|0:0,0:0:0:0:
266,38,247216,2,0,B|326:34|388:93|388:93|377:173|456:215,1,280,4|0,0:0|0:0,0:0:0:0:
448,211,247722,1,8,0:0:0:0:
143,251,247890,6,0,B|193:214|193:214|291:244,1,157.500006008148,4|0,0:0|0:0,0:0:0:0:
289,256,248227,1,0,0:0:0:0:
367,154,248396,1,8,0:0:0:0:
419,286,248564,1,0,0:0:0:0:
231,96,248733,5,2,0:3:0:0:
120,340,248902,1,8,0:0:0:0:
136,320,248986,1,8,0:0:0:0:
149,296,249070,1,8,0:0:0:0:
157,271,249154,1,8,0:0:0:0:
159,245,249239,1,8,0:0:0:0:
156,219,249323,1,8,0:0:0:0:
144,193,249407,6,0,B|196:204|196:204|251:189,1,105,4|0,0:0|0:0,0:0:0:0:
323,249,249744,2,0,L|330:166,1,70,8|0,0:0|0:0,0:0:0:0:
276,113,249997,1,0,0:0:0:0:
276,113,250081,1,2,0:3:0:0:
366,314,250250,1,0,0:0:0:0:
485,133,250418,1,8,0:0:0:0:
315,238,250587,6,0,P|358:222|395:226,1,70,4|2,0:0|0:3,0:0:0:0:
487,345,250924,2,0,P|460:307|455:269,1,70,0|8,0:0|0:0,0:0:0:0:
509,94,251261,1,0,0:0:0:0:
476,104,251345,1,0,0:0:0:0:
444,107,251430,1,2,0:3:0:0:
512,202,251598,1,0,0:0:0:0:
322,15,251767,2,0,L|331:93,1,70,12|0,0:0|0:0,0:0:0:0:
174,110,252104,6,0,L|165:32,2,70,12|0|0,0:0|0:0|0:0,0:0:0:0:
266,156,252609,1,0,0:0:0:0:
116,276,252778,1,2,0:3:0:0:
186,197,252946,1,0,0:0:0:0:
276,327,253115,1,8,0:0:0:0:
361,189,253284,6,0,L|368:263,1,52.5000020027161,4|0,0:0|0:0,0:0:0:0:
273,126,253621,2,0,L|260:238,1,105,4|8,0:0|0:0,0:0:0:0:
153,59,253958,2,0,L|177:257,1,157.500006008148,4|0,0:0|0:0,0:0:0:0:
166,224,254295,1,0,0:0:0:0:
135,208,254379,1,0,0:0:0:0:
100,208,254463,1,8,0:0:0:0:
69,223,254548,1,0,0:0:0:0:
48,251,254632,1,0,0:0:0:0:
0,105,254800,5,2,0:3:0:0:
122,290,255053,5,2,0:0:0:0:
222,90,255306,5,2,0:0:0:0:
110,188,255475,2,0,P|164:179|219:192,1,105.000004005432,2|0,0:3|0:0,0:0:0:0:
270,380,255812,2,0,L|257:292,1,78.7500030040742,8|0,0:0|0:0,0:0:0:0:
250,293,256149,5,2,0:3:0:0:
320,100,256402,5,2,0:0:0:0:
457,252,256654,5,2,0:0:0:0:
316,221,256823,5,2,0:3:0:0:
505,141,256991,1,8,0:0:0:0:
469,132,257076,1,8,0:0:0:0:
433,140,257160,1,8,0:0:0:0:
227,357,257328,6,0,B|248:308|248:308|221:212,1,140,4|0,0:0|0:0,0:0:0:0:
224,224,257834,1,8,0:0:0:0:
44,330,258003,1,8,0:0:0:0:
73,311,258087,1,8,0:0:0:0:
111,312,258171,1,8,0:0:0:0:
6,211,258340,1,0,0:0:0:0:
192,99,258508,2,0,L|120:118,1,70,8|0,0:0|0:0,0:0:0:0:
377,268,258845,5,2,0:3:0:0:
306,59,259014,1,0,0:0:0:0:
149,210,259182,1,8,0:0:0:0:
277,178,259351,5,8,0:0:0:0:
277,178,259435,1,8,0:0:0:0:
277,178,259520,1,8,0:0:0:0:
261,208,259604,1,8,0:0:0:0:
274,239,259688,1,8,0:0:0:0:
306,250,259772,1,8,0:0:0:0:
335,233,259857,5,8,0:0:0:0:
369,210,259941,1,8,0:0:0:0:
410,211,260025,1,8,0:0:0:0:
442,238,260109,1,8,0:0:0:0:
460,265,260194,6,0,B|505:211|505:211|484:51,1,188.999994232178,4|0,0:0|0:0,0:0:0:0:
376,260,260531,2,0,P|341:254|279:270,1,84,12|0,0:0|0:0,0:0:0:0:
286,273,260868,1,2,0:3:0:0:
254,2,261036,2,0,L|243:146,1,125.999996154785,0|8,0:0|0:0,0:0:0:0:
127,276,261373,6,0,P|70:241|-2:270,1,125.999996154785,0|2,0:0|0:3,0:0:0:0:
302,71,261711,2,0,P|237:74|180:23,1,125.999996154785,0|8,0:0|0:0,0:0:0:0:
509,214,262048,1,0,0:0:0:0:
492,204,262132,2,0,B|416:177|372:232|372:232|399:267|435:254,1,188.999994232178,8|0,0:0|0:0,0:0:0:0:
302,71,262553,2,0,P|288:125|311:197,1,125.999996154785,8|0,0:0|0:0,0:0:0:0:
460,333,262806,1,8,0:0:0:0:
454,317,262890,6,0,P|369:273|279:425,1,251.999992309571,2|8,0:3|0:0,0:0:0:0:
179,138,263396,1,0,0:0:0:0:
171,114,263480,1,0,0:0:0:0:
172,88,263564,1,2,0:3:0:0:
152,226,263733,1,0,0:0:0:0:
35,71,263902,1,8,0:0:0:0:
0,299,264070,6,0,B|66:267|119:309|119:309|193:329|262:243,1,251.999992309571
65,103,264576,2,0,P|56:154|58:207,1,105.000004005432,8|0,0:0|0:0,0:0:0:0:
168,179,264913,2,0,L|268:149,1,105.000004005432,2|8,0:3|0:0,0:0:0:0:
512,231,265166,1,8,0:0:0:0:
504,243,265250,2,0,L|330:221,1,157.500006008148,8|0,0:0|0:0,0:0:0:0:
328,228,265587,6,0,B|300:181|300:181|318:53,1,167.999994873047,4|8,0:0|0:0,0:0:0:0:
315,68,266093,1,0,0:0:0:0:
66,171,266261,2,0,P|109:154|148:153,1,83.9999974365235,2|0,0:3|0:0,0:0:0:0:
304,305,266598,1,12,0:0:0:0:
172,27,266767,6,0,B|180:79|180:79|226:112|226:112|240:182,1,167.999994873047,0|0,0:0|0:0,0:0:0:0:
257,35,267188,1,8,0:0:0:0:
265,28,267272,2,0,L|368:42,1,83.9999974365235,12|0,0:0|0:0,0:0:0:0:
151,158,267609,2,0,L|51:201,1,83.9999974365235,2|0,0:3|0:0,0:0:0:0:
335,142,267862,1,8,0:0:0:0:
344,139,267946,2,0,L|431:174,1,83.9999974365235,12|0,0:0|0:0,0:0:0:0:
146,319,268284,6,0,B|180:281|180:281|241:259|303:317,1,167.999994873047,4|8,0:0|0:0,0:0:0:0:
74,193,268789,2,0,B|77:256|154:293|154:293|225:251|290:306,1,280,4|0,0:0|0:0,0:0:0:0:
288,304,269295,1,8,0:0:0:0:
239,35,269463,6,0,B|276:85|276:85|246:183,1,157.500006008148,4|0,0:0|0:0,0:0:0:0:
234,185,269800,1,0,0:0:0:0:
372,47,269969,5,12,0:0:0:0:
376,81,270053,1,8,0:0:0:0:
369,115,270137,1,8,0:0:0:0:
357,148,270222,1,8,0:0:0:0:
345,181,270306,1,8,0:0:0:0:
340,215,270390,1,8,0:0:0:0:
348,249,270475,1,8,0:0:0:0:
216,367,270643,5,8,0:0:0:0:
225,333,270727,1,8,0:0:0:0:
225,298,270812,1,8,0:0:0:0:
215,264,270896,1,8,0:0:0:0:
194,231,270980,6,0,B|154:220|154:220|85:238,1,105,4|0,0:0|0:0,0:0:0:0:
0,228,271317,2,0,P|17:195|20:158,1,70,12|0,0:0|0:0,0:0:0:0:
1,89,271654,1,2,0:3:0:0:
76,296,271823,1,0,0:0:0:0:
227,130,271991,1,8,0:0:0:0:
101,197,272160,6,0,P|147:197|181:214,1,70,4|2,0:0|0:3,0:0:0:0:
275,338,272497,2,0,P|248:300|243:262,1,70,0|8,0:0|0:0,0:0:0:0:
372,93,272834,1,0,0:0:0:0:
350,112,272918,1,0,0:0:0:0:
319,118,273003,1,2,0:3:0:0:
411,194,273171,1,0,0:0:0:0:
220,35,273340,2,0,L|211:113,1,70,8|0,0:0|0:0,0:0:0:0:
336,262,273677,6,0,P|304:246|229:263,1,105,4|0,0:0|0:0,0:0:0:0:
227,272,274014,2,0,L|214:363,1,70,12|0,0:0|0:0,0:0:0:0:
404,170,274351,2,0,L|417:261,1,70,4|0,0:0|0:0,0:0:0:0:
400,323,274688,1,0,0:0:0:0:
130,186,274857,6,0,L|123:260,1,52.5000020027161,4|0,0:0|0:0,0:0:0:0:
256,221,275194,2,0,B|264:290|264:290|245:336,1,105.000004005432,4|0,0:0|0:0,0:0:0:0:
385,85,275531,2,0,B|352:200|352:200|361:283,1,157.500006008148,4|0,0:0|0:0,0:0:0:0:
347,247,275868,1,8,0:0:0:0:
378,231,275952,1,8,0:0:0:0:
413,231,276036,1,8,0:0:0:0:
444,246,276121,1,8,0:0:0:0:
465,274,276205,1,8,0:0:0:0:
506,126,276373,5,2,0:3:0:0:
391,319,276626,5,2,0:0:0:0:
158,252,276879,5,2,0:0:0:0:
238,210,277048,6,0,P|242:264|208:334,1,105,2|0,0:3|0:0,0:0:0:0:
391,373,277385,2,0,L|381:261,1,105,8|0,0:0|0:0,0:0:0:0:
373,260,277722,5,2,0:3:0:0:
209,107,277975,5,2,0:0:0:0:
16,253,278227,5,2,0:0:0:0:
196,221,278396,5,2,0:3:0:0:
0,102,278564,1,0,0:0:0:0:
30,77,278649,1,0,0:0:0:0:
66,80,278733,1,8,0:0:0:0:
285,357,278902,6,0,B|264:308|264:308|291:212,1,140,4|0,0:0|0:0,0:0:0:0:
287,224,279407,1,8,0:0:0:0:
468,330,279576,1,8,0:0:0:0:
439,311,279660,1,8,0:0:0:0:
401,312,279744,1,8,0:0:0:0:
512,178,279913,1,0,0:0:0:0:
287,106,280081,2,0,L|361:111,1,70,12|0,0:0|0:0,0:0:0:0:
135,268,280418,5,2,0:3:0:0:
206,59,280587,1,0,0:0:0:0:
363,210,280755,1,8,0:0:0:0:
351,226,281093,6,0,P|300:221|275:212,1,70
197,171,281430,1,8,0:0:0:0:
226,370,281598,6,0,L|210:260,1,105,4|0,0:0|0:0,0:0:0:0:
216,256,281935,1,0,0:0:0:0:
137,359,282104,1,8,0:0:0:0:
335,122,282272,6,0,L|351:232,1,105,4|0,0:0|0:0,0:0:0:0:
343,236,282609,1,0,0:0:0:0:
452,129,282778,1,8,0:0:0:0:
478,384,282946,6,0,B|451:333|451:333|463:234,1,140,4|0,0:0|0:0,0:0:0:0:
478,163,283452,1,8,0:0:0:0:
241,248,283621,2,0,P|283:248|339:236,1,70,4|2,0:0|0:3,0:0:0:0:
326,232,283873,1,0,0:0:0:0:
313,208,283958,1,0,0:0:0:0:
305,174,284042,1,0,0:0:0:0:
306,139,284126,1,12,0:0:0:0:
315,105,284211,1,0,0:0:0:0:
332,75,284295,1,0,0:0:0:0:
95,255,284463,6,0,B|146:222|146:222|181:138|98:98,1,210.000008010865,4|0,0:0|0:0,0:0:0:0:
296,0,284969,2,0,B|264:51|264:51|272:137|360:155,1,210.000008010865,4|0,0:0|0:0,0:0:0:0:
356,154,285475,1,0,0:0:0:0:
211,357,285643,6,0,B|255:318|249:263|249:263|289:301|346:294,1,210.000008010865,4|0,0:0|0:0,0:0:0:0:
321,200,286149,1,8,0:0:0:0:
305,384,286317,1,0,0:0:0:0:
0,264,286486,5,2,0:3:0:0:
38,228,286570,1,0,0:0:0:0:
89,221,286654,1,0,0:0:0:0:
135,246,286739,1,0,0:0:0:0:
156,283,286823,2,0,L|166:113,1,157.500006008148,12|0,0:0|0:0,0:0:0:0:
176,116,287160,5,2,0:3:0:0:
176,116,287666,2,0,B|224:86|224:86|329:124,1,157.500006008148
368,220,288003,1,8,0:0:0:0:
396,23,288171,1,8,0:0:0:0:
512,283,288340,6,0,B|464:234|464:234|452:94,1,210.000008010865,4|0,0:0|0:0,0:0:0:0:
390,284,288845,2,0,P|362:292|295:283,1,70,8|0,0:0|0:0,0:0:0:0:
238,251,289098,1,0,0:0:0:0:
238,251,289182,2,0,L|179:157,1,105.000004005432,2|0,0:3|0:0,0:0:0:0:
224,65,289435,2,0,L|178:170,1,105.000004005432,2|0,0:0|0:0,0:0:0:0:
54,189,289688,2,0,L|128:172,1,52.5000020027161,2|0,0:0|0:0,0:0:0:0:
274,164,289857,5,4,0:0:0:0:
271,156,290194,1,8,0:0:0:0:
411,236,290362,2,0,P|396:199|403:116,1,105
402,125,290699,1,0,0:0:0:0:
306,258,290868,1,8,0:0:0:0:
270,0,291036,6,0,B|282:50|282:50|243:134,1,140,4|0,0:0|0:0,0:0:0:0:
18,187,291542,2,0,P|55:170|174:208,1,157.500006008148,8|0,0:0|0:0,0:0:0:0:
170,210,291879,1,2,0:3:0:0:
71,73,292048,1,0,0:0:0:0:
0,269,292216,1,8,0:0:0:0:
219,369,292553,6,0,P|208:304|218:259,1,105.000004005432,4|0,0:0|0:0,0:0:0:0:
336,225,292890,1,8,0:0:0:0:
135,251,293059,2,0,P|142:189|125:135,1,105.000004005432,0|2,0:0|0:3,0:0:0:0:
364,47,293396,2,0,P|357:109|374:163,1,105.000004005432,0|8,0:0|0:0,0:0:0:0:
63,87,293733,6,0,P|115:56|206:97,1,157.500006008148,4|0,0:0|0:0,0:0:0:0:
215,88,294070,1,0,0:0:0:0:
193,308,294239,1,8,0:0:0:0:
283,200,294576,2,0,P|212:207|173:191,1,105.000004005432,4|0,0:0|0:0,0:0:0:0:
96,190,294828,2,0,P|111:225|117:297,1,105.000004005432,2|0,0:0|0:0,0:0:0:0:
281,335,295081,2,0,P|274:302|272:271,1,52.5000020027161,2|0,0:0|0:0,0:0:0:0:
422,98,295250,6,0,B|405:147|405:147|430:213,1,105.000004005432,4|0,0:0|0:0,0:0:0:0:
398,283,295755,1,0,0:0:0:0:
336,219,295924,2,0,B|266:198|243:236|239:243|205:279|127:253,1,210.000008010865
80,219,297272,5,8,0:0:0:0:
103,193,297357,1,0,0:0:0:0:
137,186,297441,1,0,0:0:0:0:
169,199,297525,1,0,0:0:0:0:
188,227,297609,5,8,0:0:0:0:
202,258,297694,1,0,0:0:0:0:
231,277,297778,1,0,0:0:0:0:
265,278,297862,1,0,0:0:0:0:
295,260,297946,6,0,B|278:218|278:218|291:147,1,105.000004005432,4|0,0:0|0:0,0:0:0:0:
444,103,298284,2,0,B|461:145|461:145|448:216,1,105.000004005432,12|0,0:0|0:0,0:0:0:0:
382,260,298621,1,2,0:3:0:0:
97,86,298789,2,0,L|197:50,1,105.000004005432,0|8,0:0|0:0,0:0:0:0:
375,178,299126,6,0,B|321:176|282:133|282:133|273:189|226:220,1,210.000008010865
184,136,299632,1,8,0:0:0:0:
318,259,299800,1,0,0:0:0:0:
368,83,299969,1,2,0:3:0:0:
326,265,300137,1,0,0:0:0:0:
179,136,300306,1,8,0:0:0:0:
330,274,300475,1,0,0:0:0:0:
22,147,300643,6,0,B|104:162|104:162|129:208|129:208|214:222,1,210.000008010865,4|8,0:0|0:0,0:0:0:0:
321,285,301149,1,0,0:0:0:0:
294,288,301233,1,0,0:0:0:0:
266,292,301317,1,2,0:3:0:0:
229,22,301486,2,0,L|203:148,1,105.000004005432,0|8,0:0|0:0,0:0:0:0:
20,304,301823,6,0,P|57:265|184:338,1,210.000008010865,0|0,0:0|0:0,0:0:0:0:
190,329,302328,1,8,0:0:0:0:
65,162,302497,1,0,0:0:0:0:
37,379,302666,1,2,0:3:0:0:
66,146,302834,1,0,0:0:0:0:
199,341,303003,1,8,0:0:0:0:
59,138,303171,1,0,0:0:0:0:
331,247,303340,6,0,B|261:273|261:273|130:214,1,210.000008010865,4|8,0:0|0:0,0:0:0:0:
301,95,303845,1,0,0:0:0:0:
337,102,303930,1,0,0:0:0:0:
375,110,304014,1,2,0:3:0:0:
194,309,304182,2,0,L|164:187,1,105.000004005432,0|8,0:0|0:0,0:0:0:0:
207,26,304520,6,0,B|221:80|221:80|197:125|197:125|239:146|239:146|258:215,1,210.000008010865
295,277,305025,1,8,0:0:0:0:
131,65,305194,1,0,0:0:0:0:
294,298,305362,1,2,0:3:0:0:
361,44,305531,1,0,0:0:0:0:
300,309,305699,1,8,0:0:0:0:
113,83,305868,1,0,0:0:0:0:
483,204,306036,6,0,B|413:206|365:141|365:141|363:182|330:217,1,210.000008010865,4|8,0:0|0:0,0:0:0:0:
199,174,306542,1,2,0:3:0:0:
425,39,306711,1,2,0:3:0:0:
280,296,306879,1,2,0:3:0:0:
166,59,307048,1,8,0:0:0:0:
461,208,307216,1,4,0:0:0:0:
248,217,307553,5,0,0:0:0:0:
345,138,307722,1,8,0:0:0:0:
363,269,307890,1,0,0:0:0:0:
231,34,308059,5,2,0:3:0:0:
315,339,308227,1,2,0:3:0:0:
509,117,308396,1,8,0:0:0:0:
66,201,308564,1,4,0:0:0:0:
