osu file format v14

[General]
AudioFilename: audio.mp3
AudioLeadIn: 0
PreviewTime: 11161
Countdown: 1
SampleSet: None
StackLeniency: 0.7
Mode: 0
LetterboxInBreaks: 0
WidescreenStoryboard: 1

[Editor]
DistanceSpacing: 1.8
BeatDivisor: 4
GridSize: 4
TimelineZoom: 1.6

[Metadata]
Title:D se Dab
TitleUnicode:D se Dab
Artist:Chotu (C.V: Saurav Chakraborty)
ArtistUnicode:Chotu (C.V: সৌরভ চক্রবর্তী)
Creator:Mismagius
Version:deetz' Insane
Source:
Tags:commercial motu patlu nickelodeon india deetz
BeatmapID:1557375
BeatmapSetID:725103

[Difficulty]
HPDrainRate:5
CircleSize:4
OverallDifficulty:7
ApproachRate:8.4
SliderMultiplier:1.4
SliderTickRate:1

[Events]
//Background and Video events
0,0,"h.png",0,0
Video,0,"DAB.avi"
//Break Periods
//Storyboard Layer 0 (Background)
//Storyboard Layer 1 (Fail)
//Storyboard Layer 2 (Pass)
//Storyboard Layer 3 (Foreground)
//Storyboard Sound Samples

[TimingPoints]
2807,379.746835443038,4,3,0,40,1,0
24058,379.746835443038,4,3,0,40,1,0

[Colours]
Combo1 : 255,185,238
Combo2 : 179,255,102
Combo3 : 255,255,0

[HitObjects]
256,192,338,12,0,2047,0:0:0:0:
0,123,2427,5,0,0:0:0:0:
0,123,2617,1,0,0:0:0:0:
210,196,2807,5,4,0:0:0:0:
156,292,2996,2,0,L|182:385,1,70,0|0,0:0|0:0,0:0:0:0:
234,41,3376,5,0,0:0:0:0:
34,247,3566,2,0,L|144:213,1,105,2|0,0:0|0:0,0:0:0:0:
134,215,3946,5,0,0:0:0:0:
317,61,4136,1,0,0:0:0:0:
397,83,4325,1,0,0:0:0:0:
477,106,4515,2,0,L|486:200,1,70,0|0,0:0|0:0,0:0:0:0:
302,161,4895,5,0,0:0:0:0:
468,25,5085,1,2,0:0:0:0:
493,250,5275,1,4,0:0:0:0:
493,250,5844,5,4,0:0:0:0:
422,327,6034,2,0,L|344:340,1,70,0|0,0:0|0:0,0:0:0:0:
149,158,6414,5,0,0:0:0:0:
276,347,6604,1,2,0:0:0:0:
305,244,6794,5,0,0:0:0:0:
305,244,6984,1,0,0:0:0:0:
112,327,7174,1,0,0:0:0:0:
55,265,7363,2,0,P|46:213|41:123,1,140,4|0,0:0|0:0,0:0:0:0:
331,145,7933,5,0,0:0:0:0:
192,289,8123,1,2,0:0:0:0:
118,91,8313,2,0,P|127:143|132:233,1,140,4|0,0:0|0:0,0:0:0:0:
215,372,8882,6,0,P|259:366|312:368,1,70,4|0,0:0|0:0,0:0:0:0:
349,312,9262,2,0,P|393:306|446:308,1,70,0|0,0:0|0:0,0:0:0:0:
469,373,9642,5,2,0:0:0:0:
480,192,9832,1,0,0:0:0:0:
495,15,10022,1,4,0:0:0:0:
495,15,10401,5,2,0:0:0:0:
256,192,10781,5,0,0:0:0:0:
17,369,11161,5,2,0:0:0:0:
164,328,11351,1,4,0:0:0:0:
46,281,11541,2,0,L|30:197,1,70,0|0,0:0|0:0,0:0:0:0:
201,76,11920,5,2,0:0:0:0:
215,82,12490,1,2,0:0:0:0:
229,88,13060,1,2,0:0:0:0:
397,47,13439,6,0,L|427:42,4,17.5,2|2|2|2|2,0:0|0:0|0:0|0:0|0:0,0:0:0:0:
327,152,13819,6,0,L|384:143,2,46.6666666666667,2|2|2,0:0|0:0|0:0,0:0:0:0:
415,248,14199,6,0,L|490:235,1,70,0|2,0:0|0:0,0:0:0:0:
477,219,14484,1,2,0:0:0:0:
469,203,14579,1,2,0:0:0:0:
297,377,14769,1,2,0:0:0:0:
492,343,14958,6,0,L|331:312,1,140,4|0,0:0|0:0,0:0:0:0:
32,256,15528,1,0,0:0:0:0:
32,256,15718,1,2,0:0:0:0:
32,256,16098,6,0,P|22:219|21:167,1,70,4|0,0:0|0:0,0:0:0:0:
259,17,16477,1,0,0:0:0:0:
259,17,16667,2,0,P|273:66|277:166,1,140,0|0,0:0|0:0,0:0:0:0:
227,215,17237,1,2,0:0:0:0:
75,137,17427,1,4,0:0:0:0:
142,87,17617,6,0,P|152:124|153:176,1,70,0|0,0:0|0:0,0:0:0:0:
394,312,17996,6,0,P|359:314|325:324,1,70,4|0,0:0|0:0,0:0:0:0:
423,157,18376,2,0,P|425:191|435:225,1,70,0|0,0:0|0:0,0:0:0:0:
268,128,18756,2,0,P|302:125|336:115,1,70,2|0,0:0|0:0,0:0:0:0:
239,283,19136,2,0,P|236:248|226:214,1,70,0|0,0:0|0:0,0:0:0:0:
0,112,19515,6,0,P|16:164|109:182,1,140,2|0,0:0|0:0,0:0:0:0:
460,48,20275,6,0,L|463:17,4,17.5,2|2|2|2|2,0:0|0:0|0:0|0:0|0:0,0:0:0:0:
451,132,20655,1,2,0:0:0:0:
448,222,20844,1,2,0:0:0:0:
448,222,20939,1,0,0:0:0:0:
448,222,21034,2,0,P|390:241|303:251,1,140,4|0,0:0|0:0,0:0:0:0:
84,368,21604,2,0,L|176:344,1,70,0|2,0:0|0:0,0:0:0:0:
224,159,21984,1,0,0:0:0:0:
224,159,22174,2,0,L|231:82,2,46.6666666666667,0|0|0,0:0|0:0|0:0,0:0:0:0:
138,102,22553,6,0,L|124:222,1,105,2|0,0:0|0:0,0:0:0:0:
125,205,22933,2,0,P|160:227|206:241,1,70,0|0,0:0|0:0,0:0:0:0:
294,64,23313,2,0,L|370:45,1,70,2|0,0:0|0:0,0:0:0:0:
512,264,23693,1,2,0:0:0:0:
512,264,23882,1,0,0:0:0:0:
391,120,24058,6,0,L|254:154,1,140,4|0,0:0|0:0,0:0:0:0:
24,330,24817,6,0,L|21:361,4,17.5,2|2|2|2|2,0:0|0:0|0:0|0:0|0:0,0:0:0:0:
33,246,25197,1,2,0:0:0:0:
47,169,25386,1,2,0:0:0:0:
47,169,25481,1,0,0:0:0:0:
47,169,25576,2,0,P|105:150|192:140,1,140,4|0,0:0|0:0,0:0:0:0:
376,9,26146,2,0,L|366:90,1,70,0|2,0:0|0:0,0:0:0:0:
247,296,26526,1,0,0:0:0:0:
247,296,26716,2,0,L|324:303,2,46.6666666666667,0|0|0,0:0|0:0|0:0,0:0:0:0:
333,211,27095,6,0,L|220:200,1,105,2|0,0:0|0:0,0:0:0:0:
228,200,27475,2,0,P|190:223|170:255,1,70,0|0,0:0|0:0,0:0:0:0:
379,384,27855,2,0,L|461:376,1,70,2|0,0:0|0:0,0:0:0:0:
465,101,28235,1,0,0:0:0:0:
465,101,28425,1,0,0:0:0:0:
475,296,28614,6,0,L|330:309,1,140,4|0,0:0|0:0,0:0:0:0:
251,318,29184,1,0,0:0:0:0:
256,192,29374,12,2,34501,0:0:0:0:
