osu file format v14

[General]
AudioFilename: audio.mp3
AudioLeadIn: 0
PreviewTime: 49404
Countdown: 0
SampleSet: Normal
StackLeniency: 0.7
Mode: 1
LetterboxInBreaks: 0
WidescreenStoryboard: 0

[Editor]
Bookmarks: 11678,31687,76152
DistanceSpacing: 0.9
BeatDivisor: 16
GridSize: 4
TimelineZoom: 1.149999

[Metadata]
Title:Ishukan Communication (TV size)
TitleUnicode:イシュカン・コミュニケーション (TV size)
Artist:Chorogons
ArtistUnicode:ちょろゴンず
Creator:Skylish
Version:Futsuu
Source:小林さんちのメイドラゴン
Tags:松井洋平 佐藤純一 rionos ending ed Kobayashi-san Chi no Meidoragon Miss Maid Dragon maidragon トール 桑原由気 Kuwahara Yuuki カンナ 長縄まりあ Naganawa Maria エルマ 高田憂希 Takada Yuuki ルコア 高橋未奈美 Takahashi Minami Taiko
BeatmapID:1272807
BeatmapSetID:602600

[Difficulty]
HPDrainRate:7
CircleSize:2
OverallDifficulty:3
ApproachRate:5
SliderMultiplier:1.4
SliderTickRate:1

[Events]
//Background and Video events
0,0,"wp_1_1920x1080.jpg",0,70
//Break Periods
//Storyboard Layer 0 (Background)
//Storyboard Layer 1 (Fail)
//Storyboard Layer 2 (Pass)
//Storyboard Layer 3 (Foreground)
//Storyboard Layer 4 (Overlay)
//Storyboard Sound Samples

[TimingPoints]
568,555.761393108559,4,1,0,75,1,0
568,-83.3333333333333,4,1,0,75,0,0
49475,-83.3333333333333,4,1,0,75,0,1
76151,-83.3333333333333,4,1,0,75,0,0

[HitObjects]
220,152,568,5,4,0:0:0:0:
220,152,1575,1,0,0:0:0:0:
220,152,2235,1,8,0:0:0:0:
220,152,2791,1,0,0:0:0:0:
236,136,3902,1,0,0:0:0:0:
236,136,4458,1,8,0:0:0:0:
236,136,5014,1,12,0:0:0:0:
236,136,6021,1,0,0:0:0:0:
236,136,6681,1,8,0:0:0:0:
236,136,7237,1,0,0:0:0:0:
236,136,8348,1,8,0:0:0:0:
236,136,8904,1,8,0:0:0:0:
236,136,9460,5,4,0:0:0:0:
224,100,10467,1,0,0:0:0:0:
224,100,11023,1,8,0:0:0:0:
224,100,11683,5,12,0:0:0:0:
224,100,12690,1,0,0:0:0:0:
224,100,13350,1,8,0:0:0:0:
208,172,13628,1,8,0:0:0:0:
224,100,13906,1,0,0:0:0:0:
224,100,14462,1,8,0:0:0:0:
224,100,14913,1,0,0:0:0:0:
224,140,15573,1,8,0:0:0:0:
224,140,16129,5,0,0:0:0:0:
224,140,16685,1,8,0:0:0:0:
224,140,17136,1,0,0:0:0:0:
224,140,17796,1,8,0:0:0:0:
224,140,18074,1,8,0:0:0:0:
224,140,18352,1,0,0:0:0:0:
224,140,18908,1,8,0:0:0:0:
224,140,19359,1,0,0:0:0:0:
224,140,20019,1,8,0:0:0:0:
224,140,20575,5,12,0:0:0:0:
224,140,21582,1,0,0:0:0:0:
208,120,22242,1,8,0:0:0:0:
224,140,22798,1,0,0:0:0:0:
208,120,23076,1,8,0:0:0:0:
224,140,23354,1,0,0:0:0:0:
224,140,23805,1,8,0:0:0:0:
224,140,24465,1,8,0:0:0:0:
224,140,25021,5,0,0:0:0:0:
224,140,25577,1,8,0:0:0:0:
224,140,26028,1,8,0:0:0:0:
224,140,26688,1,8,0:0:0:0:
224,140,27244,1,0,0:0:0:0:
224,140,27522,1,8,0:0:0:0:
224,140,27800,1,8,0:0:0:0:
96,12,28251,1,0,0:0:0:0:
216,132,28911,1,8,0:0:0:0:
216,132,29189,1,8,0:0:0:0:
216,132,29467,1,4,0:0:0:0:
60,76,30023,1,8,0:0:0:0:
220,132,30579,1,0,0:0:0:0:
140,104,30856,1,0,0:0:0:0:
140,104,31134,1,8,0:0:0:0:
140,104,31690,5,4,0:0:0:0:
292,208,32246,1,8,0:0:0:0:
184,56,32697,1,0,0:0:0:0:
288,204,33357,1,8,0:0:0:0:
244,140,33635,1,8,0:0:0:0:
168,92,33913,1,0,0:0:0:0:
296,200,34469,1,8,0:0:0:0:
160,88,35025,1,8,0:0:0:0:
220,140,35303,1,0,0:0:0:0:
296,196,35580,1,8,0:0:0:0:
148,88,36136,1,4,0:0:0:0:
316,180,36692,1,8,0:0:0:0:
156,92,37144,1,0,0:0:0:0:
316,184,37804,1,8,0:0:0:0:
104,24,38359,1,12,0:0:0:0:
100,28,39471,1,12,0:0:0:0:
256,148,40027,1,12,0:0:0:0:
224,128,40582,5,4,0:0:0:0:
224,128,41138,1,8,0:0:0:0:
224,128,41590,1,8,0:0:0:0:
144,24,41972,1,0,0:0:0:0:
224,128,42250,1,8,0:0:0:0:
224,128,42805,1,0,0:0:0:0:
136,88,43083,1,0,0:0:0:0:
224,128,43361,1,8,0:0:0:0:
200,120,43813,1,0,0:0:0:0:
200,120,44195,1,0,0:0:0:0:
224,128,44473,1,8,0:0:0:0:
256,192,45028,12,0,46696,0:0:0:0:
240,168,47251,5,0,0:0:0:0:
168,152,47529,1,8,0:0:0:0:
240,168,47807,1,0,0:0:0:0:
240,168,48363,1,8,0:0:0:0:
240,168,48641,1,0,0:0:0:0:
240,168,48919,1,8,0:0:0:0:
256,192,49475,5,4,0:0:0:0:
252,208,50482,1,8,0:0:0:0:
252,208,50864,1,0,0:0:0:0:
252,208,51142,1,8,0:0:0:0:
252,208,51698,1,8,0:0:0:0:
252,208,52705,1,0,0:0:0:0:
252,208,53087,1,8,0:0:0:0:
252,208,53365,1,8,0:0:0:0:
252,172,53921,1,0,0:0:0:0:
252,208,54198,1,8,0:0:0:0:
280,224,54476,1,8,0:0:0:0:
252,208,54893,1,0,0:0:0:0:
252,208,55310,1,8,0:0:0:0:
252,208,55588,1,0,0:0:0:0:
252,208,56144,5,12,0:0:0:0:
252,208,56977,1,4,0:0:0:0:
252,208,57811,1,8,0:0:0:0:
252,208,58367,5,12,0:0:0:0:
252,208,59374,1,8,0:0:0:0:
252,208,59756,1,0,0:0:0:0:
252,208,60034,1,8,0:0:0:0:
252,208,60590,1,8,0:0:0:0:
252,208,61597,1,0,0:0:0:0:
252,208,61979,1,8,0:0:0:0:
252,208,62257,1,8,0:0:0:0:
252,208,62813,5,0,0:0:0:0:
252,208,63091,1,8,0:0:0:0:
248,196,63369,1,8,0:0:0:0:
252,208,63820,1,0,0:0:0:0:
252,208,64202,1,8,0:0:0:0:
252,208,64480,1,8,0:0:0:0:
252,208,65036,5,4,0:0:0:0:
252,208,65869,1,12,0:0:0:0:
252,208,66703,1,4,0:0:0:0:
252,208,67259,5,4,0:0:0:0:
252,208,67815,1,8,0:0:0:0:
252,208,68266,1,0,0:0:0:0:
252,208,68648,1,8,0:0:0:0:
252,208,68926,1,0,0:0:0:0:
252,208,69482,5,12,0:0:0:0:
252,176,69933,1,8,0:0:0:0:
252,208,70489,1,4,0:0:0:0:
252,208,71149,1,8,0:0:0:0:
252,208,71705,5,12,0:0:0:0:
128,64,72157,1,0,0:0:0:0:
256,180,72539,1,8,0:0:0:0:
280,332,73372,1,8,0:0:0:0:
252,208,73928,5,12,0:0:0:0:
120,68,74380,1,8,0:0:0:0:
252,208,74762,1,8,0:0:0:0:
252,208,75595,1,0,0:0:0:0:
220,152,76151,5,4,0:0:0:0:
220,152,77158,1,0,0:0:0:0:
220,152,77818,1,8,0:0:0:0:
220,152,78374,1,0,0:0:0:0:
236,136,79486,1,0,0:0:0:0:
236,136,80041,1,8,0:0:0:0:
236,136,80597,1,12,0:0:0:0:
236,136,81604,1,0,0:0:0:0:
236,136,82264,1,8,0:0:0:0:
236,136,82820,1,0,0:0:0:0:
236,136,83932,1,8,0:0:0:0:
236,136,84487,1,8,0:0:0:0:
236,136,85043,5,4,0:0:0:0:
224,100,85599,1,8,0:0:0:0:
224,100,86051,1,8,0:0:0:0:
224,100,86606,1,0,0:0:0:0:
224,100,87266,5,12,0:0:0:0:
224,100,88100,1,12,0:0:0:0:
