osu file format v14

[General]
AudioFilename: audio.mp3
AudioLeadIn: 0
PreviewTime: 49404
Countdown: 0
SampleSet: Normal
StackLeniency: 0.7
Mode: 1
LetterboxInBreaks: 0
WidescreenStoryboard: 0

[Editor]
Bookmarks: 11678,31687,40997,76152
DistanceSpacing: 0.9
BeatDivisor: 16
GridSize: 32
TimelineZoom: 2.500005

[Metadata]
Title:Ishukan Communication (TV size)
TitleUnicode:イシュカン・コミュニケーション (TV size)
Artist:Chorogons
ArtistUnicode:ちょろゴンず
Creator:Skylish
Version:Dragon Inner Oni
Source:小林さんちのメイドラゴン
Tags:松井洋平 佐藤純一 rionos ending ed Kobayashi-san Chi no Meidoragon Miss Maid Dragon maidragon トール 桑原由気 Kuwahara Yuuki カンナ 長縄まりあ Naganawa Maria エルマ 高田憂希 Takada Yuuki ルコア 高橋未奈美 Takahashi Minami Taiko anime japanese pop jpop j-pop
BeatmapID:1272810
BeatmapSetID:602600

[Difficulty]
HPDrainRate:7
CircleSize:2
OverallDifficulty:6
ApproachRate:5
SliderMultiplier:1.4
SliderTickRate:1

[Events]
//Background and Video events
0,0,"wp_1_1920x1080.jpg",0,70
//Break Periods
//Storyboard Layer 0 (Background)
//Storyboard Layer 1 (Fail)
//Storyboard Layer 2 (Pass)
//Storyboard Layer 3 (Foreground)
//Storyboard Layer 4 (Overlay)
//Storyboard Sound Samples

[TimingPoints]
568,555.761393108559,4,1,0,75,1,0
568,-66.6666666666667,4,1,0,75,0,0
49475,-66.6666666666667,4,1,0,75,0,1
76151,-66.6666666666667,4,1,0,75,0,0
87266,-40,4,1,0,75,0,0

[HitObjects]
248,176,568,5,4,0:0:0:0:
248,176,741,1,8,0:0:0:0:
248,176,845,1,0,0:0:0:0:
261,169,1019,1,0,0:0:0:0:
240,168,1123,1,8,0:0:0:0:
248,176,1297,1,8,0:0:0:0:
248,176,1401,1,0,0:0:0:0:
236,152,1575,1,8,0:0:0:0:
236,152,1853,1,8,0:0:0:0:
236,152,1957,1,0,0:0:0:0:
221,159,2131,1,8,0:0:0:0:
221,162,2408,1,0,0:0:0:0:
221,162,2513,1,8,0:0:0:0:
232,156,2791,1,0,0:0:0:0:
221,148,2964,1,8,0:0:0:0:
221,148,3068,1,0,0:0:0:0:
240,158,3242,1,0,0:0:0:0:
232,156,3346,1,8,0:0:0:0:
204,123,3520,1,8,0:0:0:0:
204,123,3624,1,0,0:0:0:0:
202,114,3798,1,0,0:0:0:0:
218,108,3902,1,8,0:0:0:0:
218,108,4076,1,0,0:0:0:0:
213,108,4180,1,8,0:0:0:0:
200,136,4354,1,0,0:0:0:0:
232,156,4458,1,8,0:0:0:0:
189,134,4632,1,8,0:0:0:0:
218,146,4736,1,0,0:0:0:0:
248,176,5014,5,12,0:0:0:0:
248,176,5187,1,8,0:0:0:0:
248,176,5291,1,0,0:0:0:0:
261,169,5465,1,0,0:0:0:0:
240,168,5569,1,8,0:0:0:0:
248,176,5743,1,8,0:0:0:0:
248,176,5847,1,0,0:0:0:0:
236,152,6021,1,8,0:0:0:0:
236,152,6299,1,8,0:0:0:0:
236,152,6403,1,0,0:0:0:0:
221,159,6577,1,8,0:0:0:0:
221,162,6855,1,0,0:0:0:0:
221,162,6959,1,8,0:0:0:0:
232,156,7237,1,8,0:0:0:0:
221,148,7410,1,8,0:0:0:0:
221,148,7515,1,0,0:0:0:0:
240,158,7688,1,0,0:0:0:0:
232,156,7792,1,8,0:0:0:0:
204,123,7966,1,8,0:0:0:0:
204,123,8070,1,0,0:0:0:0:
202,114,8244,1,0,0:0:0:0:
218,108,8348,1,8,0:0:0:0:
213,108,8522,1,0,0:0:0:0:
218,108,8626,1,8,0:0:0:0:
200,136,8800,1,8,0:0:0:0:
232,156,8904,1,8,0:0:0:0:
189,134,9078,1,0,0:0:0:0:
218,146,9182,1,8,0:0:0:0:
222,139,9460,5,4,0:0:0:0:
195,143,9911,1,0,0:0:0:0:
202,140,10015,1,8,0:0:0:0:
177,128,10189,1,8,0:0:0:0:
204,121,10467,1,0,0:0:0:0:
204,121,10745,1,0,0:0:0:0:
204,121,11023,1,8,0:0:0:0:
187,123,11301,1,0,0:0:0:0:
197,129,11405,1,8,0:0:0:0:
182,120,11683,5,12,0:0:0:0:
152,216,11961,1,0,0:0:0:0:
196,129,12238,1,8,0:0:0:0:
206,124,12516,1,0,0:0:0:0:
206,124,12690,1,8,0:0:0:0:
206,124,12968,1,8,0:0:0:0:
206,124,13246,1,0,0:0:0:0:
206,124,13350,1,8,0:0:0:0:
206,124,13628,1,8,0:0:0:0:
206,124,13906,1,0,0:0:0:0:
248,173,14184,1,8,0:0:0:0:
248,173,14462,1,8,0:0:0:0:
248,173,14635,1,0,0:0:0:0:
248,173,14913,1,8,0:0:0:0:
248,173,15191,1,8,0:0:0:0:
248,173,15295,1,0,0:0:0:0:
240,166,15469,1,0,0:0:0:0:
248,173,15573,1,8,0:0:0:0:
235,165,15747,1,0,0:0:0:0:
248,173,15851,1,8,0:0:0:0:
235,176,16025,1,8,0:0:0:0:
248,173,16129,5,0,0:0:0:0:
248,150,16407,1,8,0:0:0:0:
238,161,16580,1,0,0:0:0:0:
248,173,16685,1,8,0:0:0:0:
325,158,16962,1,0,0:0:0:0:
325,158,17136,1,8,0:0:0:0:
325,158,17414,1,8,0:0:0:0:
325,158,17692,1,0,0:0:0:0:
325,158,17796,1,8,0:0:0:0:
325,158,18074,1,8,0:0:0:0:
325,158,18352,1,0,0:0:0:0:
325,158,18630,1,8,0:0:0:0:
325,158,18803,1,0,0:0:0:0:
325,158,18908,1,8,0:0:0:0:
325,158,19081,1,0,0:0:0:0:
325,158,19359,1,8,0:0:0:0:
325,158,19637,1,8,0:0:0:0:
289,152,19741,1,8,0:0:0:0:
285,158,19915,1,0,0:0:0:0:
325,158,20019,1,8,0:0:0:0:
325,158,20193,1,8,0:0:0:0:
325,158,20297,1,0,0:0:0:0:
325,158,20575,5,12,0:0:0:0:
325,158,20853,1,8,0:0:0:0:
325,158,21026,1,0,0:0:0:0:
325,158,21131,1,8,0:0:0:0:
325,158,21304,1,0,0:0:0:0:
325,158,21582,1,8,0:0:0:0:
277,152,21860,1,8,0:0:0:0:
277,152,21964,1,0,0:0:0:0:
247,126,22138,1,0,0:0:0:0:
247,126,22242,1,8,0:0:0:0:
247,126,22416,1,8,0:0:0:0:
247,126,22520,1,8,0:0:0:0:
325,158,22798,1,0,0:0:0:0:
325,158,23076,1,8,0:0:0:0:
315,171,23250,1,0,0:0:0:0:
325,158,23354,1,8,0:0:0:0:
285,154,23527,1,8,0:0:0:0:
268,144,23632,1,0,0:0:0:0:
325,158,23805,1,0,0:0:0:0:
325,158,24083,1,8,0:0:0:0:
325,158,24187,1,8,0:0:0:0:
295,162,24361,1,0,0:0:0:0:
325,158,24465,1,8,0:0:0:0:
295,162,24639,1,8,0:0:0:0:
325,158,24743,1,0,0:0:0:0:
325,158,24917,1,8,0:0:0:0:
325,158,25021,5,0,0:0:0:0:
325,158,25299,1,8,0:0:0:0:
288,150,25473,1,0,0:0:0:0:
325,158,25577,1,8,0:0:0:0:
325,158,25855,1,8,0:0:0:0:
325,158,26028,1,0,0:0:0:0:
325,158,26306,1,0,0:0:0:0:
300,141,26410,1,8,0:0:0:0:
325,158,26584,1,0,0:0:0:0:
325,158,26688,1,8,0:0:0:0:
325,158,26966,1,8,0:0:0:0:
325,158,27244,1,0,0:0:0:0:
325,158,27522,1,8,0:0:0:0:
325,158,27696,1,0,0:0:0:0:
325,158,27800,1,8,0:0:0:0:
325,158,27973,1,0,0:0:0:0:
307,147,28078,1,0,0:0:0:0:
325,158,28251,1,8,0:0:0:0:
325,158,28529,1,8,0:0:0:0:
325,158,28633,1,8,0:0:0:0:
280,148,28807,1,0,0:0:0:0:
280,148,28911,1,8,0:0:0:0:
290,162,29085,1,8,0:0:0:0:
290,162,29189,1,8,0:0:0:0:
325,158,29467,5,4,0:0:0:0:
325,158,30023,1,8,0:0:0:0:
278,159,30301,1,0,0:0:0:0:
265,141,30474,1,0,0:0:0:0:
275,187,30579,1,8,0:0:0:0:
249,158,30752,1,8,0:0:0:0:
265,141,30856,1,0,0:0:0:0:
325,158,31134,1,8,0:0:0:0:
257,169,31308,1,0,0:0:0:0:
325,158,31412,1,8,0:0:0:0:
325,158,31690,5,4,0:0:0:0:
248,170,31968,1,8,0:0:0:0:
248,170,32246,1,8,0:0:0:0:
248,170,32420,1,0,0:0:0:0:
248,170,32697,1,8,0:0:0:0:
248,170,32975,1,0,0:0:0:0:
248,170,33080,1,8,0:0:0:0:
248,170,33357,1,8,0:0:0:0:
248,170,33635,1,8,0:0:0:0:
248,170,33913,5,0,0:0:0:0:
248,170,34191,1,8,0:0:0:0:
248,170,34469,1,8,0:0:0:0:
248,170,34643,1,0,0:0:0:0:
234,172,34747,1,8,0:0:0:0:
230,152,34921,1,0,0:0:0:0:
248,170,35025,1,8,0:0:0:0:
248,170,35303,1,0,0:0:0:0:
248,170,35580,1,8,0:0:0:0:
248,170,36136,5,4,0:0:0:0:
248,170,36414,1,8,0:0:0:0:
248,170,36588,1,8,0:0:0:0:
244,160,36692,1,0,0:0:0:0:
248,170,36866,1,8,0:0:0:0:
248,170,37144,1,0,0:0:0:0:
252,176,37248,1,8,0:0:0:0:
248,170,37526,1,0,0:0:0:0:
248,170,37804,1,8,0:0:0:0:
236,140,37977,1,8,0:0:0:0:
248,170,38081,1,0,0:0:0:0:
248,170,38359,5,12,0:0:0:0:
236,140,38637,1,0,0:0:0:0:
236,140,38811,1,8,0:0:0:0:
248,170,38915,1,8,0:0:0:0:
240,156,39089,1,0,0:0:0:0:
240,156,39193,1,8,0:0:0:0:
248,170,39471,1,4,0:0:0:0:
236,140,39644,1,8,0:0:0:0:
248,170,39749,1,0,0:0:0:0:
248,170,40027,1,12,0:0:0:0:
248,170,40582,5,4,0:0:0:0:
248,170,40860,1,8,0:0:0:0:
248,170,41034,1,0,0:0:0:0:
232,128,41138,1,8,0:0:0:0:
228,136,41312,1,0,0:0:0:0:
216,116,41590,1,8,0:0:0:0:
208,124,41868,1,8,0:0:0:0:
220,136,41972,1,0,0:0:0:0:
240,176,42250,1,8,0:0:0:0:
248,170,42527,1,8,0:0:0:0:
248,170,42805,5,0,0:0:0:0:
248,170,43083,1,0,0:0:0:0:
248,170,43257,1,0,0:0:0:0:
248,170,43361,1,8,0:0:0:0:
248,170,43535,1,0,0:0:0:0:
248,164,43813,1,0,0:0:0:0:
248,170,43917,1,8,0:0:0:0:
260,160,44091,1,8,0:0:0:0:
260,160,44195,1,0,0:0:0:0:
248,170,44473,1,8,0:0:0:0:
248,164,44646,1,8,0:0:0:0:
248,170,44751,1,0,0:0:0:0:
248,170,45028,5,12,0:0:0:0:
256,192,45167,12,0,46696,0:0:0:0:
240,180,47251,5,0,0:0:0:0:
224,192,47529,1,8,0:0:0:0:
228,192,47703,1,0,0:0:0:0:
232,184,47807,1,8,0:0:0:0:
216,176,48085,1,8,0:0:0:0:
220,176,48259,1,0,0:0:0:0:
232,184,48363,5,8,0:0:0:0:
224,192,48537,1,8,0:0:0:0:
232,180,48641,1,0,0:0:0:0:
232,184,48815,1,0,0:0:0:0:
232,184,48919,1,8,0:0:0:0:
256,192,49475,5,4,0:0:0:0:
232,184,49752,1,0,0:0:0:0:
252,208,50030,1,8,0:0:0:0:
252,208,50308,1,0,0:0:0:0:
252,208,50482,1,8,0:0:0:0:
252,188,50760,1,8,0:0:0:0:
252,208,50864,1,0,0:0:0:0:
252,208,51142,1,8,0:0:0:0:
244,184,51315,1,8,0:0:0:0:
252,208,51420,1,0,0:0:0:0:
252,208,51698,1,8,0:0:0:0:
244,184,51975,1,0,0:0:0:0:
244,184,52149,1,0,0:0:0:0:
252,208,52253,1,8,0:0:0:0:
252,208,52531,1,8,0:0:0:0:
252,208,52705,1,0,0:0:0:0:
232,180,52983,1,0,0:0:0:0:
252,208,53087,1,8,0:0:0:0:
252,208,53365,1,8,0:0:0:0:
252,208,53643,1,0,0:0:0:0:
236,172,53816,1,8,0:0:0:0:
252,208,53921,5,0,0:0:0:0:
252,208,54198,1,8,0:0:0:0:
252,208,54476,1,8,0:0:0:0:
280,224,54650,1,8,0:0:0:0:
252,208,54893,1,0,0:0:0:0:
236,208,55206,1,0,0:0:0:0:
252,208,55310,1,8,0:0:0:0:
252,208,55588,1,0,0:0:0:0:
252,208,55866,1,8,0:0:0:0:
252,208,56144,5,12,0:0:0:0:
252,208,56595,1,12,0:0:0:0:
252,208,56977,1,4,0:0:0:0:
252,208,57533,1,8,0:0:0:0:
216,184,57707,1,0,0:0:0:0:
252,208,57811,1,8,0:0:0:0:
252,208,57985,1,8,0:0:0:0:
232,172,58089,1,0,0:0:0:0:
252,208,58367,5,12,0:0:0:0:
252,208,58645,1,8,0:0:0:0:
252,208,58818,1,0,0:0:0:0:
252,208,58922,1,8,0:0:0:0:
252,208,59200,1,0,0:0:0:0:
252,208,59374,1,8,0:0:0:0:
248,200,59652,1,8,0:0:0:0:
252,208,59756,1,0,0:0:0:0:
252,208,60034,1,8,0:0:0:0:
216,184,60208,1,8,0:0:0:0:
252,208,60312,1,0,0:0:0:0:
252,208,60590,1,8,0:0:0:0:
252,208,60868,1,0,0:0:0:0:
252,184,61041,1,0,0:0:0:0:
252,208,61145,1,8,0:0:0:0:
252,208,61423,1,8,0:0:0:0:
252,208,61597,1,0,0:0:0:0:
240,184,61875,1,0,0:0:0:0:
252,208,61979,1,8,0:0:0:0:
252,208,62257,1,8,0:0:0:0:
224,160,62431,1,0,0:0:0:0:
252,208,62535,1,8,0:0:0:0:
252,208,62709,1,8,0:0:0:0:
252,208,62813,5,0,0:0:0:0:
252,208,63091,1,8,0:0:0:0:
252,208,63369,1,8,0:0:0:0:
252,208,63542,1,8,0:0:0:0:
248,196,63646,1,0,0:0:0:0:
252,208,63820,1,8,0:0:0:0:
244,188,64098,1,0,0:0:0:0:
252,208,64202,1,8,0:0:0:0:
252,208,64480,1,8,0:0:0:0:
252,208,64758,1,0,0:0:0:0:
252,208,65036,5,12,0:0:0:0:
252,208,65487,1,4,0:0:0:0:
252,208,65869,1,12,0:0:0:0:
128,96,66321,1,0,0:0:0:0:
252,208,66425,1,8,0:0:0:0:
252,208,66703,1,0,0:0:0:0:
252,208,66877,1,8,0:0:0:0:
252,208,67259,5,4,0:0:0:0:
252,208,67537,1,8,0:0:0:0:
252,208,67815,1,8,0:0:0:0:
252,208,67988,1,8,0:0:0:0:
252,208,68266,1,0,0:0:0:0:
192,128,68544,1,0,0:0:0:0:
252,208,68648,1,8,0:0:0:0:
252,208,68926,1,0,0:0:0:0:
252,208,69204,1,8,0:0:0:0:
252,208,69482,5,12,0:0:0:0:
252,208,69760,1,0,0:0:0:0:
252,208,69933,1,8,0:0:0:0:
252,208,70211,1,8,0:0:0:0:
252,208,70489,1,4,0:0:0:0:
152,112,70767,1,8,0:0:0:0:
152,112,70871,1,0,0:0:0:0:
252,208,71149,1,8,0:0:0:0:
252,208,71323,1,0,0:0:0:0:
252,208,71427,1,8,0:0:0:0:
252,208,71705,5,12,0:0:0:0:
252,208,71983,1,8,0:0:0:0:
252,208,72157,1,0,0:0:0:0:
252,208,72434,1,0,0:0:0:0:
252,208,72539,1,8,0:0:0:0:
228,180,72816,1,0,0:0:0:0:
240,216,72990,1,0,0:0:0:0:
240,216,73094,1,8,0:0:0:0:
252,208,73372,1,8,0:0:0:0:
252,208,73546,1,8,0:0:0:0:
252,208,73650,1,0,0:0:0:0:
252,208,73928,5,12,0:0:0:0:
252,208,74206,1,8,0:0:0:0:
240,192,74380,1,8,0:0:0:0:
252,208,74657,1,0,0:0:0:0:
252,208,74762,1,8,0:0:0:0:
248,168,74935,1,8,0:0:0:0:
244,196,75040,1,0,0:0:0:0:
252,208,75491,1,8,0:0:0:0:
252,208,75595,1,0,0:0:0:0:
252,208,75769,1,0,0:0:0:0:
252,208,75873,1,8,0:0:0:0:
248,176,76151,5,4,0:0:0:0:
248,176,76325,1,8,0:0:0:0:
248,176,76429,1,0,0:0:0:0:
261,169,76603,1,0,0:0:0:0:
240,168,76707,1,8,0:0:0:0:
248,176,76880,1,8,0:0:0:0:
248,176,76985,1,0,0:0:0:0:
236,152,77158,1,8,0:0:0:0:
236,152,77436,1,8,0:0:0:0:
236,152,77540,1,0,0:0:0:0:
221,159,77714,1,8,0:0:0:0:
221,162,77992,1,0,0:0:0:0:
221,162,78096,1,8,0:0:0:0:
232,156,78374,1,0,0:0:0:0:
221,148,78548,1,8,0:0:0:0:
221,148,78652,1,0,0:0:0:0:
240,158,78826,1,0,0:0:0:0:
232,156,78930,1,8,0:0:0:0:
204,123,79104,1,8,0:0:0:0:
204,123,79208,1,0,0:0:0:0:
202,114,79381,1,0,0:0:0:0:
218,108,79486,1,8,0:0:0:0:
213,108,79659,1,0,0:0:0:0:
218,108,79763,1,8,0:0:0:0:
200,136,79937,1,0,0:0:0:0:
232,156,80041,1,8,0:0:0:0:
189,134,80215,1,8,0:0:0:0:
218,146,80319,1,0,0:0:0:0:
248,176,80597,5,12,0:0:0:0:
248,176,80771,1,8,0:0:0:0:
248,176,80875,1,0,0:0:0:0:
261,169,81049,1,0,0:0:0:0:
240,168,81153,1,8,0:0:0:0:
248,176,81327,1,8,0:0:0:0:
248,176,81431,1,0,0:0:0:0:
236,152,81604,1,8,0:0:0:0:
236,152,81882,1,8,0:0:0:0:
236,152,81987,1,0,0:0:0:0:
221,159,82160,1,8,0:0:0:0:
221,162,82438,1,0,0:0:0:0:
221,162,82542,1,8,0:0:0:0:
232,156,82820,1,8,0:0:0:0:
221,148,82994,1,8,0:0:0:0:
221,148,83098,1,0,0:0:0:0:
240,158,83272,1,0,0:0:0:0:
232,156,83376,1,8,0:0:0:0:
204,123,83550,1,8,0:0:0:0:
204,123,83654,1,0,0:0:0:0:
202,114,83828,1,0,0:0:0:0:
218,108,83932,1,8,0:0:0:0:
213,108,84105,1,0,0:0:0:0:
218,108,84210,1,8,0:0:0:0:
200,136,84383,1,8,0:0:0:0:
232,156,84487,1,8,0:0:0:0:
189,134,84661,1,0,0:0:0:0:
218,146,84765,1,8,0:0:0:0:
222,139,85043,5,4,0:0:0:0:
195,143,85495,1,0,0:0:0:0:
202,140,85599,1,8,0:0:0:0:
177,128,85773,1,8,0:0:0:0:
204,121,86051,1,8,0:0:0:0:
204,121,86328,1,0,0:0:0:0:
204,121,86606,1,8,0:0:0:0:
187,123,86884,1,0,0:0:0:0:
197,129,86988,1,8,0:0:0:0:
182,120,87266,5,12,0:0:0:0:
200,120,87544,1,12,0:0:0:0:
182,120,88100,1,12,0:0:0:0:
200,120,88378,1,12,0:0:0:0:
