osu file format v14

[General]
AudioFilename: audio.mp3
AudioLeadIn: 0
PreviewTime: 49321
Countdown: 0
SampleSet: Soft
StackLeniency: 0.3
Mode: 0
LetterboxInBreaks: 0
WidescreenStoryboard: 1

[Editor]
Bookmarks: 74459
DistanceSpacing: 1.1
BeatDivisor: 6
GridSize: 4
TimelineZoom: 1.8

[Metadata]
Title:Ishukan Communication
TitleUnicode:イシュカン・コミュニケーション
Artist:Chorogons
ArtistUnicode:ちょろゴンず
Creator:Pho
Version:Normal
Source:小林さんちのメイドラゴン
Tags:松井洋平 佐藤純一 rionos ending ed Kobayashi-san Chi no Meidoragon Miss Maid Dragon Elma エルマ Tooru トール Quetzalcoatl ケツァルコアトル Lucoa Kanna Kamui カンナカムイ kantoku ravioli
BeatmapID:1258912
BeatmapSetID:595314

[Difficulty]
HPDrainRate:3
CircleSize:3.5
OverallDifficulty:4
ApproachRate:5
SliderMultiplier:1.5
SliderTickRate:2

[Events]
//Background and Video events
0,0,"bg.jpg",0,0
Video,0,"Kobayashi-san Chi no Maid Dragon ED.avi"
//Break Periods
//Storyboard Layer 0 (Background)
//Storyboard Layer 1 (Fail)
//Storyboard Layer 2 (Pass)
//Storyboard Layer 3 (Foreground)
//Storyboard Sound Samples

[TimingPoints]
562,555.812876331635,4,2,1,70,1,0
562,-100,4,2,1,70,0,0
2738,-100,4,2,1,5,0,0
2785,-100,4,2,1,60,0,0
4360,-100,4,2,1,60,0,0
5008,-100,4,2,1,60,0,0
8806,-100,4,2,1,60,0,0
11956,-100,4,2,1,60,0,0
31131,-100,4,2,1,60,0,0
31409,-100,4,2,1,60,0,0
31687,-100,4,2,1,60,0,0
38357,-100,4,2,1,60,0,0
40580,-100,4,2,1,60,0,0
44424,-100,4,2,1,5,0,0
44471,-100,4,2,1,60,0,0
46138,-100,4,2,1,60,0,0
47250,-100,4,2,1,60,0,0
47806,-100,4,2,1,60,0,0
48361,-100,4,2,1,60,0,0
48917,-100,4,2,1,60,0,0
49473,-90.9090909090909,4,2,1,60,0,0
56977,-100,4,2,1,60,0,0
57810,-90.9090909090909,4,2,1,60,0,0
58366,-90.9090909090909,4,2,1,60,0,0
65870,-100,4,2,1,60,0,0
66703,-90.9090909090909,4,2,1,60,0,0
67259,-90.9090909090909,4,2,1,60,0,0
76152,-100,4,2,1,60,0,0
79950,-100,4,2,1,60,0,0
87268,-100,4,2,1,60,0,0
87546,-100,4,2,1,60,0,0
88102,-100,4,2,1,60,0,0
88380,-100,4,2,1,60,0,0
89214,-100,4,2,1,5,0,0

[Colours]
Combo1 : 82,218,139
Combo2 : 239,211,254
Combo3 : 244,162,251
Combo4 : 236,71,53
Combo5 : 241,213,97
Combo6 : 58,95,190
Combo7 : 218,147,112
Combo8 : 240,249,79

[HitObjects]
106,294,562,6,0,P|188:271|255:294,1,150,4|2,3:1|1:2,0:0:0:0:
313,339,1395,1,0,0:0:0:0:
368,277,1673,2,0,B|333:217|333:217|352:124,1,150,0|0,3:0|1:0,0:0:0:0:
464,19,2785,6,0,P|421:50|309:46,1,150,2|2,3:2|1:2,0:0:0:0:
248,27,3618,1,0,3:0:0:0:
188,83,3896,2,0,L|95:102,1,75,2|0,0:0|3:0,0:0:0:0:
62,117,4360,2,0,P|43:188|53:227,1,100,2|2,0:0|3:2,0:0:0:0:
110,266,5008,6,0,B|168:252|168:252|202:211|202:211|254:200,1,150,2|2,3:2|1:2,0:0:0:0:
303,152,5842,1,0,3:0:0:0:
367,202,6120,2,0,P|398:280|365:338,1,150,0|0,3:0|1:0,0:0:0:0:
250,219,7231,6,0,P|219:141|252:83,1,150,2|0,3:2|1:0,0:0:0:0:
293,18,8065,1,2,3:2:0:0:
362,61,8343,2,0,P|407:64|449:53,1,75,2|0,3:2|3:0,0:0:0:0:
487,38,8806,2,0,L|481:151,1,100,2|2,0:0|3:2,0:0:0:0:
476,220,9455,5,4,3:2:0:0:
316,179,10010,2,0,L|248:192,1,50,0|0,1:0|1:0,0:0:0:0:
210,248,10473,2,0,P|179:211|152:199,1,75,0|8,1:0|0:3,0:0:0:0:
145,118,11029,2,0,P|78:130|45:163,1,100,4|4,0:3|0:3,0:0:0:0:
24,225,11678,85,4,3:2:0:0:
108,366,12234,2,0,P|141:323|175:313,1,75,2|0,1:2|3:0,0:0:0:0:
210,335,12697,2,0,L|296:322,1,75,2|2,3:2|1:2,0:0:0:0:
365,248,13345,1,2,1:2:0:0:
419,309,13623,1,0,3:0:0:0:
485,259,13901,6,0,P|498:211|493:169,1,75,2|2,3:2|3:2,0:0:0:0:
442,124,14457,2,0,L|334:131,1,75,2|0,1:2|0:0,0:0:0:0:
312,133,14920,2,0,P|301:179|251:215,1,100,2|0,3:2|3:0,0:0:0:0:
184,181,15568,2,0,P|135:167|94:183,1,75,2|0,1:2|3:0,0:0:0:0:
47,222,16124,69,2,3:2:0:0:
24,57,16680,2,0,P|91:71|110:64,1,75,2|0,1:2|3:0,0:0:0:0:
138,35,17143,2,0,L|231:48,1,75,2|2,3:2|1:2,0:0:0:0:
292,122,17792,1,2,1:2:0:0:
361,77,18070,1,2,3:2:0:0:
414,139,18348,6,0,P|406:184|416:230,1,75,0|2,3:2|3:2,0:0:0:0:
477,260,18903,2,0,L|469:318,1,50,2|0,1:2|0:0,0:0:0:0:
405,360,19367,2,0,P|355:349|299:353,1,100,2|0,3:2|3:0,0:0:0:0:
267,278,20015,2,0,P|215:293|192:322,1,75,2|0,1:2|3:0,0:0:0:0:
132,353,20571,38,0,L|114:258,1,75,6|0,3:2|3:0,0:0:0:0:
40,251,21127,2,0,L|29:156,1,75,2|0,1:2|3:0,0:0:0:0:
29,121,21590,2,0,P|93:137|136:124,1,100,2|0,3:2|3:0,0:0:0:0:
180,68,22238,1,2,1:2:0:0:
244,124,22516,1,0,3:2:0:0:
299,62,22794,6,0,P|339:48|388:57,1,75,2|2,3:2|3:2,0:0:0:0:
348,130,23350,2,0,L|334:198,1,50,2|2,1:2|3:2,0:0:0:0:
363,257,23813,2,0,P|432:280|476:267,1,100,2|0,3:2|3:0,0:0:0:0:
497,203,24461,2,0,L|501:116,2,75,2|4|2,1:2|3:2|3:2,0:0:0:0:
493,368,25573,6,0,P|450:369|412:349,1,75,2|0,1:2|3:0,0:0:0:0:
380,319,26036,2,0,P|328:305|288:320,1,75,2|2,3:2|1:2,0:0:0:0:
212,364,26685,2,0,L|196:269,1,75,2|0,1:2|3:0,0:0:0:0:
138,234,27241,5,2,3:2:0:0:
58,256,27518,1,2,3:2:0:0:
14,185,27796,2,0,P|6:143|10:120,1,50,2|0,1:2|0:0,0:0:0:0:
59,72,28260,2,0,P|103:82|175:61,1,100,2|0,3:2|3:0,0:0:0:0:
220,19,28908,2,0,L|303:23,1,75,2|0,1:2|3:0,0:0:0:0:
349,84,29464,101,6,3:2:0:0:
405,239,30020,1,0,1:0:0:0:
447,79,30575,1,0,3:0:0:0:
328,194,31131,2,0,L|252:191,1,75,2|2,1:0|3:0,0:0:0:0:
194,132,31687,22,0,P|139:149|125:168,1,75,4|2,3:2|0:0,0:0:0:0:
48,179,32243,2,0,L|70:264,1,75,2|8,1:2|3:0,0:0:0:0:
85,303,32706,2,0,P|128:321|194:312,1,100,0|2,3:0|3:2,0:0:0:0:
238,259,33354,2,0,L|320:273,2,75,0|8|0,1:0|3:0|3:0,0:0:0:0:
177,201,34188,85,2,0:0:0:0:
215,128,34466,2,0,P|251:114|302:124,1,75,2|8,1:2|0:3,0:0:0:0:
337,182,35022,2,0,P|410:204|440:137,1,150,2|2,0:0|1:2,0:0:0:0:
376,100,35856,1,4,0:3:0:0:
418,28,36134,5,4,3:2:0:0:
497,172,36689,1,2,1:2:0:0:
347,241,37245,2,0,P|332:288|343:335,1,75,2|2,0:0|3:2,0:0:0:0:
402,360,37801,2,0,P|417:313|406:266,1,75,2|0,1:2|3:0,0:0:0:0:
347,241,38357,6,0,P|265:245|178:226,1,150,4|4,3:2|3:2,0:0:0:0:
40,180,39468,2,0,P|113:166|182:124,1,150,0|4,3:0|1:2,0:0:0:0:
180,45,40302,1,4,0:3:0:0:
252,84,40580,54,0,L|261:220,1,125,4|2,3:2|0:2,0:0:0:0:
204,269,41321,1,0,0:0:0:0:
245,340,41599,2,0,P|284:360|351:358,1,100,2|2,0:0|3:2,0:0:0:0:
417,333,42247,1,0,1:0:0:0:
373,175,42803,86,0,P|432:171|482:214,1,125,2|2,3:2|0:0,0:0:0:0:
481,293,43544,1,2,0:0:0:0:
406,257,43822,2,0,L|287:257,1,100,0|2,3:0|3:0,0:0:0:0:
254,322,44471,1,2,1:2:0:0:
122,220,45027,6,0,P|69:239|156:311,1,225,4|0,3:2|0:0,0:0:0:0:
200,257,46138,2,0,B|284:206|333:306|427:245,1,225,0|0,0:0|0:0,0:0:0:0:
462,182,47250,102,0,P|466:124|451:99,1,75,6|0,3:2|0:0,0:0:0:0:
384,75,47806,2,0,P|380:133|395:158,1,75,6|0,1:2|0:0,0:0:0:0:
325,201,48361,2,0,L|227:194,1,75,6|0,3:2|0:0,0:0:0:0:
197,131,48917,2,0,L|116:149,1,75,6|0,1:2|0:0,0:0:0:0:
50,200,49473,6,0,L|44:302,2,82.5000025177003,6|2|0,3:2|3:2|1:0,0:0:0:0:
57,117,50307,1,2,3:2:0:0:
57,117,50492,2,0,P|117:76|168:73,1,110.000003356934,0|2,3:0|3:2,0:0:0:0:
232,91,51140,1,0,1:0:0:0:
299,42,51418,1,2,3:2:0:0:
361,96,51696,6,0,L|351:200,2,82.5000025177003,2|2|0,3:2|3:2|1:0,0:0:0:0:
443,93,52530,1,2,3:2:0:0:
443,93,52715,2,0,P|466:129|439:208,1,110.000003356934,0|2,3:2|3:2,0:0:0:0:
403,260,53364,2,0,P|377:326|383:346,1,82.5000025177003,0|2,1:0|3:2,0:0:0:0:
460,320,53920,5,0,3:0:0:0:
403,260,54197,2,0,L|304:248,1,82.5000025177003,0|2,3:0|1:2,0:0:0:0:
270,273,54661,1,0,0:0:0:0:
204,323,54939,2,0,P|167:290|161:215,1,110.000003356934,0|0,3:0|3:0,0:0:0:0:
192,158,55587,2,0,P|146:151|99:172,1,82.5000025177003,2|0,1:2|3:0,0:0:0:0:
45,116,56143,6,0,P|62:74|151:27,1,137.500004196167,4|4,3:2|1:2,0:0:0:0:
226,79,56977,2,0,B|307:97|307:97|379:71,1,150,4|2,3:2|3:2,0:0:0:0:
444,109,57810,2,0,P|413:155|419:197,1,82.5000025177003,4|0,1:2|0:0,0:0:0:0:
456,250,58366,6,0,L|442:339,2,82.5000025177003,6|2|0,3:2|3:2|1:0,0:0:0:0:
375,268,59200,1,2,3:2:0:0:
375,268,59385,2,0,P|322:281|262:260,1,110.000003356934,0|2,3:0|3:2,0:0:0:0:
226,195,60033,1,0,1:0:0:0:
179,263,60311,1,2,3:2:0:0:
102,233,60589,6,0,L|90:137,2,82.5000025177003,2|2|0,3:2|0:0|1:0,0:0:0:0:
47,294,61423,1,2,3:2:0:0:
47,294,61608,2,0,P|90:338|142:339,1,110.000003356934,0|2,3:0|3:2,0:0:0:0:
198,287,62257,1,0,1:0:0:0:
279,275,62535,1,2,3:2:0:0:
357,299,62813,5,0,3:0:0:0:
428,340,63090,2,0,L|442:245,1,82.5000025177003,0|2,3:0|1:2,0:0:0:0:
450,204,63554,1,0,0:0:0:0:
369,177,63832,2,0,P|336:133|339:68,1,110.000003356934,0|0,3:0|3:0,0:0:0:0:
386,13,64480,2,0,P|427:10|491:26,1,82.5000025177003,2|0,1:2|3:0,0:0:0:0:
470,102,65036,6,0,P|426:102|313:70,1,137.500004196167,4|2,1:2|1:2,0:0:0:0:
235,33,65870,2,0,P|142:40|97:88,1,150,4|2,1:2|3:2,0:0:0:0:
84,157,66703,2,0,L|101:244,1,82.5000025177003,0|0,1:0|0:0,0:0:0:0:
152,302,67259,6,0,P|239:329|315:301,1,165.000005035401,4|2,3:2|1:2,0:0:0:0:
373,257,68093,1,0,3:0:0:0:
442,301,68371,2,0,B|481:238|481:238|460:145,1,165.000005035401,0|2,0:0|1:2,0:0:0:0:
398,95,69204,1,0,3:0:0:0:
330,141,69482,6,0,P|280:167|200:155,1,137.500004196167,4|2,3:2|0:2,0:0:0:0:
147,93,70223,1,2,0:2:0:0:
70,130,70501,2,0,L|82:239,1,110.000003356934,4|0,3:2|3:0,0:0:0:0:
41,311,71150,2,0,P|92:321|128:308,1,82.5000025177003,2|2,1:2|3:2,0:0:0:0:
175,248,71706,5,4,3:2:0:0:
313,159,72261,1,0,1:0:0:0:
147,152,72817,1,0,3:0:0:0:
275,255,73373,1,0,1:0:0:0:
241,93,73929,6,0,P|220:155|226:191,1,82.5000025177003,4|0,1:2|3:2,0:0:0:0:
301,190,74485,2,0,P|337:221|385:233,1,82.5000025177003,4|2,1:2|3:2,0:0:0:0:
439,186,75040,1,2,1:2:0:0:
386,122,75318,1,0,3:0:0:0:
451,71,75596,1,0,1:0:0:0:
305,35,76152,6,0,P|227:73|166:62,1,150,4|2,3:2|1:2,0:0:0:0:
96,20,76986,1,0,3:0:0:0:
58,93,77264,2,0,B|88:166|88:166|59:239,1,150,2|2,0:0|1:2,0:0:0:0:
150,371,78375,6,0,P|205:377|280:313,1,150,2|0,3:2|1:0,0:0:0:0:
273,238,79209,1,2,3:2:0:0:
334,183,79487,2,0,P|396:173|425:185,1,75,0|0,0:0|3:0,0:0:0:0:
459,192,79950,2,0,L|439:290,1,100,2|2,0:2|3:2,0:0:0:0:
383,351,80599,6,0,P|315:354|240:313,1,150,0|2,3:0|1:2,0:0:0:0:
196,249,81432,1,0,0:0:0:0:
116,270,81710,2,0,P|91:211|118:120,1,150,0|2,3:0|1:2,0:0:0:0:
240,28,82822,6,0,L|403:37,1,150,2|0,3:2|1:0,0:0:0:0:
449,93,83656,1,2,3:2:0:0:
388,149,83933,2,0,P|343:160|317:196,1,75,2|0,0:0|3:0,0:0:0:0:
296,227,84397,2,0,B|234:255|188:219,1,100,2|2,0:0|3:0,0:0:0:0:
121,252,85045,5,4,3:2:0:0:
23,116,85601,2,0,P|30:80|47:58,1,50,0|0,1:0|1:0,0:0:0:0:
108,29,86064,2,0,P|118:70|103:118,1,75,0|8,1:0|1:3,0:0:0:0:
80,178,86620,2,0,P|64:227|85:280,1,100,4|4,0:3|0:3,0:0:0:0:
153,306,87268,6,0,L|223:297,2,37.5,4|2|4,0:0|0:0|0:0,0:0:0:0:
279,199,88102,6,0,L|209:190,2,37.5,4|2|4,0:0|0:0|1:0,0:0:0:0:
