osu file format v14

[General]
AudioFilename: audio.mp3
AudioLeadIn: 0
PreviewTime: 49321
Countdown: 0
SampleSet: Soft
StackLeniency: 0.3
Mode: 0
LetterboxInBreaks: 0
WidescreenStoryboard: 1

[Editor]
Bookmarks: 74459
DistanceSpacing: 1.5
BeatDivisor: 4
GridSize: 4
TimelineZoom: 1.8

[Metadata]
Title:Ishukan Communication
TitleUnicode:イシュカン・コミュニケーション
Artist:Chorogons
ArtistUnicode:ちょろゴンず
Creator:Pho
Version:Hard
Source:小林さんちのメイドラゴン
Tags:松井洋平 佐藤純一 rionos ending ed Kobayashi-san Chi no Meidoragon Miss Maid Dragon Elma エルマ Tooru トール Quetzalcoatl ケツァルコアトル Lucoa Kanna Kamui カンナカムイ kantoku ravioli
BeatmapID:1258910
BeatmapSetID:595314

[Difficulty]
HPDrainRate:4
CircleSize:3.5
OverallDifficulty:6
ApproachRate:7
SliderMultiplier:1.9
SliderTickRate:1

[Events]
//Background and Video events
0,0,"bg.jpg",0,0
Video,0,"Kobayashi-san Chi no Maid Dragon ED.avi"
//Break Periods
//Storyboard Layer 0 (Background)
//Storyboard Layer 1 (Fail)
//Storyboard Layer 2 (Pass)
//Storyboard Layer 3 (Foreground)
//Storyboard Sound Samples

[TimingPoints]
562,555.812876331635,4,2,1,70,1,0
562,-100,4,2,1,70,0,0
2738,-100,4,2,1,5,0,0
2785,-100,4,2,1,60,0,0
4360,-100,4,2,1,60,0,0
5008,-100,4,2,1,60,0,0
8806,-100,4,2,1,60,0,0
11956,-100,4,2,1,60,0,0
31131,-100,4,2,1,60,0,0
31409,-100,4,2,1,60,0,0
31687,-100,4,2,1,60,0,0
38357,-100,4,2,1,60,0,0
40580,-100,4,2,1,60,0,0
44424,-100,4,2,1,5,0,0
44471,-100,4,2,1,60,0,0
46138,-100,4,2,1,60,0,0
47250,-100,4,2,1,60,0,0
47806,-90.9090909090909,4,2,1,60,0,0
48361,-83.3333333333333,4,2,1,60,0,0
48917,-100,4,2,1,60,0,0
49473,-90.9090909090909,4,2,1,60,0,0
56977,-125,4,2,1,60,0,0
57810,-83.3333333333333,4,2,1,60,0,0
58366,-90.9090909090909,4,2,1,60,0,0
65870,-125,4,2,1,60,0,0
66703,-83.3333333333333,4,2,1,60,0,0
67259,-90.9090909090909,4,2,1,60,0,0
76152,-100,4,2,1,60,0,0
79950,-100,4,2,1,60,0,0
87268,-83.3333333333333,4,2,1,60,0,0
87546,-100,4,2,1,60,0,0
88102,-83.3333333333333,4,2,1,60,0,0
88380,-133.333333333333,4,2,1,60,0,0
88473,-133.333333333333,4,2,1,15,0,0
89214,-100,4,2,1,5,0,0

[Colours]
Combo1 : 82,218,139
Combo2 : 239,211,254
Combo3 : 244,162,251
Combo4 : 236,71,53
Combo5 : 241,213,97
Combo6 : 58,95,190
Combo7 : 218,147,112
Combo8 : 240,249,79

[HitObjects]
359,81,562,6,0,P|321:89|293:80,1,63.3333333333333,4|0,3:1|0:0,0:0:0:0:
271,67,839,2,0,P|228:51|199:53,1,63.3333333333333,2|0,0:0|0:0,0:0:0:0:
184,67,1117,2,0,B|162:103|162:103|178:167,1,95,2|0,1:2|0:0,0:0:0:0:
88,260,1580,2,0,B|110:224|110:224|94:160,1,95,2|0,3:2|0:0,0:0:0:0:
69,156,1951,1,0,3:0:0:0:
188,185,2136,2,0,P|243:196|290:176,1,95,2|0,0:0|0:0,0:0:0:0:
305,167,2507,2,0,P|357:142|403:149,1,95,0|2,3:0|3:2,0:0:0:0:
485,199,2970,5,0,0:0:0:0:
485,199,3063,1,2,3:2:0:0:
412,247,3248,1,0,0:0:0:0:
412,247,3341,2,0,P|395:286|406:322,1,63.3333333333333,2|0,1:2|0:0,0:0:0:0:
406,336,3618,2,0,P|375:371|338:377,1,63.3333333333333,0|0,3:0|3:2,0:0:0:0:
330,364,3896,2,0,L|211:356,1,95,2|0,0:0|3:0,0:0:0:0:
111,301,4360,2,0,L|227:278,1,95,2|0,0:0|0:0,0:0:0:0:
231,276,4730,2,0,P|244:238|222:165,1,95,2|0,3:2|3:0,0:0:0:0:
127,159,5193,5,0,0:0:0:0:
127,159,5286,2,0,P|96:146|73:118,1,63.3333333333333,2|0,3:2|0:0,0:0:0:0:
89,95,5564,2,0,P|87:49|100:28,1,63.3333333333333,2|0,1:2|0:0,0:0:0:0:
120,17,5842,1,0,3:0:0:0:
215,59,6027,2,0,L|331:51,1,95,2|0,3:2|1:0,0:0:0:0:
332,29,6398,1,0,3:0:0:0:
404,70,6583,2,0,P|391:121|397:180,1,95,2|0,0:0|0:0,0:0:0:0:
403,193,6953,2,0,P|449:176|515:188,1,95,0|2,3:0|3:2,0:0:0:0:
512,273,7417,5,0,0:0:0:0:
512,273,7509,1,2,3:2:0:0:
437,320,7694,1,0,0:0:0:0:
437,320,7787,2,0,P|387:333|358:325,1,63.3333333333333,0|0,1:0|0:0,0:0:0:0:
350,316,8065,2,0,P|307:302|267:310,1,63.3333333333333,2|0,3:2|3:0,0:0:0:0:
261,317,8343,2,0,P|232:293|225:232,1,95,2|0,0:0|3:0,0:0:0:0:
265,161,8806,2,0,P|223:123|162:129,1,95,2|2,0:0|0:0,0:0:0:0:
157,134,9177,2,0,P|128:105|120:67,1,63.3333333333333,2|0,3:2|1:0,0:0:0:0:
152,15,9455,6,0,L|260:0,1,95,4|0,3:2|3:0,0:0:0:0:
341,61,9918,1,0,1:0:0:0:
341,61,10010,2,0,L|422:70,1,63.3333333333333,0|0,1:0|1:0,0:0:0:0:
403,67,10473,2,0,P|385:113|402:167,1,95,0|8,1:0|0:3,0:0:0:0:
501,178,11029,2,0,P|519:224|502:278,1,95,4|4,0:3|0:3,0:0:0:0:
493,295,11400,2,0,L|389:277,1,95,4|4,0:3|3:2,0:0:0:0:
314,327,11956,85,0,3:0:0:0:
229,239,12234,2,0,P|180:231|125:267,1,95,2|0,1:2|3:0,0:0:0:0:
95,310,12697,2,0,L|74:203,1,95,2|2,3:2|1:2,0:0:0:0:
50,93,13253,1,0,0:0:0:0:
50,93,13345,2,0,P|87:72|128:71,1,63.3333333333333,2|0,1:2|0:0,0:0:0:0:
137,79,13623,2,0,P|208:82|241:56,1,95,0|2,3:0|3:2,0:0:0:0:
159,177,14179,5,2,3:2:0:0:
239,226,14457,2,0,P|288:224|318:204,1,63.3333333333333,2|0,1:2|0:0,0:0:0:0:
355,125,14920,2,0,P|333:75|344:23,1,95,2|2,3:2|1:2,0:0:0:0:
461,129,15476,1,0,0:0:0:0:
461,129,15568,2,0,P|457:172|434:203,1,63.3333333333333,2|0,1:2|0:0,0:0:0:0:
421,207,15846,2,0,L|414:286,1,63.3333333333333,0|0,3:0|0:0,0:0:0:0:
414,301,16124,1,2,3:2:0:0:
305,372,16402,69,0,3:0:0:0:
240,293,16680,2,0,P|183:272|138:282,1,95,2|0,1:2|3:0,0:0:0:0:
75,283,17143,2,0,P|111:247|119:183,1,95,2|2,3:2|1:2,0:0:0:0:
53,85,17699,1,0,0:0:0:0:
53,85,17792,2,0,P|35:130|47:165,1,63.3333333333333,2|0,1:2|0:0,0:0:0:0:
60,164,18070,2,0,L|175:133,1,95,0|2,3:2|3:2,0:0:0:0:
320,222,18625,6,0,L|254:216,1,47.5,2|0,3:2|0:0,0:0:0:0:
244,238,18903,2,0,L|178:232,1,47.5,2|2,1:2|0:2,0:0:0:0:
196,233,19367,102,0,P|200:190|241:146,1,95,2|2,3:2|1:2,0:0:0:0:
314,88,19922,1,0,0:0:0:0:
314,88,20015,2,0,L|398:99,1,63.3333333333333,2|0,1:2|0:0,0:0:0:0:
395,121,20293,2,0,L|479:110,1,63.3333333333333,0|0,3:0|1:0,0:0:0:0:
502,46,20571,1,6,3:2:0:0:
492,196,20849,53,0,3:0:0:0:
413,245,21034,2,0,L|411:298,1,31.6666666666667,0|2,0:0|1:2,0:0:0:0:
333,198,21312,2,0,L|335:145,1,31.6666666666667,0|0,0:0|3:0,0:0:0:0:
271,254,21590,2,0,P|239:292|191:306,1,95,2|2,3:2|1:2,0:0:0:0:
167,295,21960,2,0,P|110:287|87:300,1,63.3333333333333,0|0,3:0|0:0,0:0:0:0:
76,298,22238,2,0,L|88:374,1,63.3333333333333,2|0,1:2|0:0,0:0:0:0:
57,374,22516,1,0,3:2:0:0:
0,238,22794,6,0,P|55:221|82:175,1,95,2|2,3:2|3:2,0:0:0:0:
47,115,23257,2,0,L|22:83,1,31.6666666666667,0|2,0:0|1:2,0:0:0:0:
129,122,23535,2,0,L|165:85,1,31.6666666666667,2|0,3:2|3:0,0:0:0:0:
152,202,23813,2,0,P|203:220|268:200,1,95,2|0,3:2|1:0,0:0:0:0:
270,197,24184,1,0,3:0:0:0:
346,120,24369,101,0,0:0:0:0:
346,120,24461,2,0,L|261:112,1,63.3333333333333,2|0,1:2|0:0,0:0:0:0:
215,80,24739,2,0,L|300:72,1,63.3333333333333,4|0,3:2|0:0,0:0:0:0:
343,33,25017,1,2,3:2:0:0:
451,93,25295,21,0,3:0:0:0:
352,156,25573,2,0,P|339:202|367:263,1,95,2|0,1:2|3:0,0:0:0:0:
420,296,26036,2,0,P|458:269|504:269,2,95,2|2|0,3:2|1:2|0:0,0:0:0:0:
401,314,26685,1,2,1:2:0:0:
214,382,26963,2,0,L|199:281,1,95,0|2,3:0|3:2,0:0:0:0:
129,154,27518,6,0,P|86:159|47:209,1,95,2|2,3:2|1:2,0:0:0:0:
75,271,27982,1,0,0:0:0:0:
75,271,28260,2,0,P|130:269|189:256,1,95,2|2,3:2|1:2,0:0:0:0:
220,156,28815,1,0,0:0:0:0:
220,156,28908,2,0,P|229:116|221:74,1,63.3333333333333,2|0,1:2|0:0,0:0:0:0:
217,63,29186,2,0,P|274:77|297:71,1,63.3333333333333,0|0,3:0|0:0,0:0:0:0:
306,65,29464,102,0,P|370:56|415:81,1,95,6|0,3:2|3:0,0:0:0:0:
512,171,30020,2,0,P|448:180|403:155,1,95,0|0,1:0|3:0,0:0:0:0:
322,174,30575,2,0,L|316:283,1,95,0|2,3:0|3:0,0:0:0:0:
378,367,31131,2,0,P|425:371|452:358,1,63.3333333333333,2|0,1:0|1:0,0:0:0:0:
456,329,31409,2,0,P|482:310|492:276,1,63.3333333333333,2|0,3:0|0:0,0:0:0:0:
454,215,31687,21,4,3:2:0:0:
368,283,31965,1,2,0:0:0:0:
265,218,32243,2,0,L|195:223,1,63.3333333333333,2|0,1:2|0:0,0:0:0:0:
170,224,32521,1,8,3:0:0:0:
80,274,32706,2,0,P|132:325|209:315,1,126.666666666667,0|2,3:0|3:2,0:0:0:0:
334,278,33354,1,0,1:0:0:0:
288,368,33632,1,8,3:0:0:0:
239,229,33910,1,0,3:0:0:0:
281,49,34188,85,2,0:0:0:0:
281,49,34466,2,0,P|243:76|200:75,1,63.3333333333333,2|0,1:2|0:0,0:0:0:0:
109,127,34929,1,8,0:3:0:0:
109,127,35022,2,0,P|158:156|191:151,1,63.3333333333333,2|0,0:2|1:0,0:0:0:0:
194,153,35300,2,0,P|202:205|195:228,1,63.3333333333333,2|0,3:2|0:0,0:0:0:0:
191,245,35578,2,0,P|139:256|103:308,1,95,2|4,1:2|0:3,0:0:0:0:
260,349,36134,5,4,3:2:0:0:
316,228,36411,1,2,0:0:0:0:
320,232,36597,2,0,P|370:240|429:213,1,95,2|2,0:0|0:0,0:0:0:0:
349,46,37153,2,0,P|330:95|369:162,1,126.666666666667,8|2,0:3|3:2,0:0:0:0:
459,126,37801,2,0,P|460:81|424:38,1,95,2|0,1:2|3:0,0:0:0:0:
267,30,38357,6,0,L|153:22,1,95,4|8,3:2|0:3,0:0:0:0:
122,117,38820,1,0,0:0:0:0:
122,117,38913,2,0,L|206:102,1,63.3333333333333,4|0,3:2|0:0,0:0:0:0:
211,122,39190,2,0,P|213:163|224:190,1,63.3333333333333,4|0,0:3|0:0,0:0:0:0:
238,209,39468,2,0,P|294:189|351:211,1,95,0|4,3:0|3:0,0:0:0:0:
383,317,40024,1,4,1:2:0:0:
341,214,40302,1,4,0:3:0:0:
275,338,40580,54,0,L|154:323,1,95,4|2,3:2|0:0,0:0:0:0:
100,365,41043,2,0,L|86:319,1,31.6666666666667,0|2,0:0|1:2,0:0:0:0:
14,300,41321,2,0,L|26:251,1,31.6666666666667,0|0,0:0|0:0,0:0:0:0:
49,191,41599,2,0,P|99:181|158:207,1,95,2|0,3:2|1:0,0:0:0:0:
170,182,41970,2,0,P|195:127|184:74,2,95,2|2|0,3:2|1:2|3:0,0:0:0:0:
276,152,42711,85,0,3:0:0:0:
276,152,42803,2,0,P|312:126|373:124,1,95,2|2,3:2|3:2,0:0:0:0:
433,67,43266,2,0,L|458:10,1,31.6666666666667,0|0,0:0|1:0,0:0:0:0:
501,125,43544,2,0,L|518:170,1,31.6666666666667,2|0,0:0|3:0,0:0:0:0:
472,247,43822,2,0,P|422:231|365:247,1,95,0|0,3:0|1:0,0:0:0:0:
381,238,44193,1,2,3:0:0:0:
340,369,44471,6,0,L|289:196,1,158.333333333333,2|0,1:2|0:0,0:0:0:0:
202,206,45027,102,0,B|149:174|120:76|162:56|220:82|198:142|148:154|58:136,1,285,4|0,3:2|0:0,0:0:0:0:
169,7,46138,6,0,B|246:15|269:98|269:98|302:37|407:51,1,285,0|0,0:0|0:0,0:0:0:0:
512,128,47250,6,0,P|476:156|419:162,1,95,6|0,3:2|0:0,0:0:0:0:
332,191,47713,1,0,0:0:0:0:
332,191,47806,2,0,B|314:235|314:235|332:290,1,104.500003189087,6|0,1:2|0:0,0:0:0:0:
435,367,48269,1,0,1:2:0:0:
435,367,48361,2,0,B|456:322|456:322|434:246,1,113.999996520996,6|0,3:2|0:0,0:0:0:0:
263,137,48917,2,0,P|218:145|178:263,1,158.333333333333,6|0,1:2|0:0,0:0:0:0:
169,237,49473,6,0,L|49:226,1,104.500003189087,6|2,3:2|3:2,0:0:0:0:
110,366,50029,2,0,L|230:355,1,104.500003189087,0|2,1:0|3:2,0:0:0:0:
286,312,50492,2,0,P|348:293|418:331,1,139.333337585449,0|2,3:0|3:2,0:0:0:0:
491,195,51140,1,0,1:0:0:0:
512,289,51418,1,2,3:2:0:0:
383,179,51696,6,0,P|332:153|253:153,1,104.500003189087,2|2,3:2|3:2,0:0:0:0:
128,117,52252,2,0,P|163:84|229:70,1,104.500003189087,0|2,1:0|3:2,0:0:0:0:
272,163,52715,2,0,L|266:285,1,104.500003189087,0|0,3:2|1:0,0:0:0:0:
267,298,53086,1,2,3:2:0:0:
148,350,53364,1,0,1:0:0:0:
163,232,53642,1,2,3:2:0:0:
64,307,53920,5,0,3:0:0:0:
28,195,54197,2,0,P|15:148|21:93,1,104.500003189087,0|2,3:0|1:2,0:0:0:0:
69,28,54661,1,0,0:0:0:0:
215,135,54939,2,0,P|261:134|317:48,1,139.333337585449,0|0,3:0|3:0,0:0:0:0:
233,53,55587,1,2,1:2:0:0:
119,153,55865,1,0,3:0:0:0:
258,211,56143,6,0,P|302:224|375:209,1,104.500003189087,4|0,3:2|3:0,0:0:0:0:
457,123,56606,1,0,1:0:0:0:
457,123,56699,2,0,B|436:162|436:162|444:211,1,69.6666687927247,4|0,1:2|0:0,0:0:0:0:
448,220,56977,2,0,B|473:249|465:290|465:290|399:284|378:324,1,152,4|2,3:2|3:2,0:0:0:0:
243,375,57810,1,4,1:2:0:0:
243,375,57995,2,0,L|100:354,1,113.999996520996
55,334,58366,6,0,P|36:289|50:217,1,104.500003189087,6|2,3:2|3:2,0:0:0:0:
144,168,58922,2,0,P|155:120|133:63,1,104.500003189087,0|2,1:0|3:2,0:0:0:0:
5,71,59385,2,0,L|163:42,1,139.333337585449,0|2,3:0|3:2,0:0:0:0:
265,79,60033,1,0,1:0:0:0:
164,151,60311,1,2,3:2:0:0:
272,210,60589,6,0,P|333:229|396:210,1,104.500003189087,2|2,3:2|0:0,0:0:0:0:
506,315,61145,2,0,P|436:314|401:334,1,104.500003189087,0|2,1:0|3:2,0:0:0:0:
325,375,61608,2,0,B|249:389|267:332|169:349,1,139.333337585449,0|2,3:0|3:2,0:0:0:0:
49,350,62257,1,0,1:0:0:0:
106,233,62535,1,2,3:2:0:0:
30,366,62813,5,0,3:0:0:0:
133,380,63090,2,0,P|177:344|186:285,1,104.500003189087,0|2,3:0|1:2,0:0:0:0:
187,299,63554,1,0,0:0:0:0:
44,198,63832,2,0,P|28:155|40:94,1,104.500003189087,0|0,3:0|1:0,0:0:0:0:
61,61,64202,2,0,L|170:12,2,104.500003189087,0|2|0,3:0|1:2|3:0,0:0:0:0:
185,124,65036,6,0,P|236:139|303:109,1,104.500003189087,4|0,1:2|0:0,0:0:0:0:
356,65,65499,2,0,P|393:40|473:65,1,104.500003189087,2|0,1:2|3:0,0:0:0:0:
501,116,65870,6,0,L|491:271,1,152,4|2,1:2|3:2,0:0:0:0:
419,349,66703,5,0,1:0:0:0:
419,349,66889,2,0,P|356:324|304:338,1,113.999996520996,0|0,0:0|1:0,0:0:0:0:
247,381,67259,1,4,3:2:0:0:
114,275,67537,1,0,3:0:0:0:
171,220,67815,2,0,P|194:260|189:310,1,69.6666687927247,2|0,1:2|0:0,0:0:0:0:
186,316,68093,1,0,3:0:0:0:
80,183,68278,2,0,P|151:185|225:139,1,139.333337585449,2|0,3:2|3:0,0:0:0:0:
340,120,68926,2,0,P|297:111|235:51,1,104.500003189087,2|0,1:2|3:0,0:0:0:0:
100,41,69482,6,0,P|160:28|204:-6,1,104.500003189087,4|0,3:2|3:0,0:0:0:0:
269,47,69945,2,0,L|292:102,1,34.8333343963623,2|0,0:2|1:0,0:0:0:0:
216,146,70223,2,0,L|201:197,1,34.8333343963623,2|0,0:2|3:0,0:0:0:0:
267,249,70501,2,0,P|315:274|396:274,1,104.500003189087,4|0,3:2|1:0,0:0:0:0:
397,269,70872,1,0,3:0:0:0:
474,172,71150,2,0,P|432:166|362:199,1,104.500003189087,2|2,1:2|3:2,0:0:0:0:
301,357,71706,5,4,3:2:0:0:
270,351,72261,1,0,1:0:0:0:
83,221,72817,5,2,3:2:0:0:
117,212,73373,1,0,1:0:0:0:
394,97,73929,6,0,P|357:65|246:111,1,174.166671981812,4|2,1:2|0:0,0:0:0:0:
254,183,74485,2,0,P|291:215|402:169,1,174.166671981812,4|2,1:2|0:0,0:0:0:0:
323,139,75040,1,2,1:2:0:0:
228,200,75318,1,0,3:0:0:0:
327,295,75596,6,0,L|317:347,2,34.8333343963623,2|0|2,1:2|0:0|0:2,0:0:0:0:
241,332,75874,2,0,L|255:380,2,34.8333343963623,0|0|2,3:0|0:0|0:2,0:0:0:0:
166,365,76152,6,0,L|76:352,1,63.3333333333333,4|0,3:2|0:0,0:0:0:0:
75,349,76430,2,0,P|52:310|58:266,1,63.3333333333333,2|0,3:2|0:0,0:0:0:0:
71,273,76708,2,0,P|88:217|62:173,1,95,2|0,1:2|3:0,0:0:0:0:
172,108,77171,2,0,P|155:164|181:208,1,95,2|0,3:2|1:0,0:0:0:0:
188,215,77542,1,0,3:0:0:0:
277,184,77727,2,0,P|310:225|361:239,1,95,2|0,0:0|0:0,0:0:0:0:
376,229,78097,1,0,3:0:0:0:
497,136,78375,6,0,P|463:127|419:138,1,63.3333333333333,2|0,3:2|0:0,0:0:0:0:
409,142,78653,2,0,P|368:118|351:86,1,63.3333333333333,2|0,3:2|0:0,0:0:0:0:
344,81,78931,2,0,L|224:112,1,95,0|2,1:0|3:2,0:0:0:0:
114,37,79487,2,0,B|62:55|62:55|-5:47,1,95,0|0,0:0|3:0,0:0:0:0:
5,140,79950,2,0,P|57:142|90:189,1,95,2|0,0:2|0:0,0:0:0:0:
82,200,80321,2,0,L|71:311,1,95,2|0,3:2|3:0,0:0:0:0:
159,356,80784,5,2,0:2:0:0:
159,356,80876,2,0,P|212:336|241:338,1,63.3333333333333,0|0,3:0|0:0,0:0:0:0:
247,346,81154,2,0,L|251:262,1,63.3333333333333,2|0,1:2|0:0,0:0:0:0:
252,251,81432,1,0,0:0:0:0:
344,292,81618,2,0,P|400:273|473:322,1,126.666666666667,2|0,3:2|3:0,0:0:0:0:
512,204,82173,2,0,L|475:86,1,95,2|0,0:0|0:0,0:0:0:0:
468,71,82544,1,2,3:2:0:0:
344,121,82822,6,0,L|260:110,1,63.3333333333333,2|0,3:2|0:0,0:0:0:0:
237,105,83100,2,0,P|248:156|239:186,1,63.3333333333333,2|0,3:2|0:0,0:0:0:0:
224,204,83378,2,0,P|178:209|131:261,1,95,0|2,1:0|3:2,0:0:0:0:
205,361,83933,1,2,0:0:0:0:
277,287,84119,1,0,1:0:0:0:
277,287,84211,1,0,3:0:0:0:
324,378,84397,2,0,L|428:361,1,95,2|0,0:0|1:0,0:0:0:0:
452,337,84767,2,0,P|437:289|437:260,1,63.3333333333333,2|0,3:0|1:0,0:0:0:0:
469,198,85045,5,4,3:2:0:0:
336,69,85508,1,0,1:0:0:0:
336,69,85601,2,0,L|424:50,1,63.3333333333333,0|0,1:0|1:0,0:0:0:0:
357,165,86064,2,0,P|302:141|244:139,1,95,0|8,1:0|1:3,0:0:0:0:
154,206,86620,2,0,P|154:251|174:307,1,95,4|0,0:3|3:0,0:0:0:0:
188,323,86990,2,0,L|259:309,1,47.5,4|0,0:3|0:0,0:0:0:0:
346,252,87268,6,0,L|420:269,1,56.9999982604981,4|2,0:0|0:0,0:0:0:0:
455,318,87546,2,0,P|492:273|494:218,1,95,4|0,0:0|0:0,0:0:0:0:
363,128,88102,6,0,L|283:152,1,56.9999982604981,4|2,0:0|0:0,0:0:0:0:
250,198,88380,2,0,B|180:139|214:47|214:47|224:71|254:89,1,213.750008153916,4|0,1:0|0:0,0:0:0:0:
