osu file format v14

[General]
AudioFilename: audio.mp3
AudioLeadIn: 0
PreviewTime: 49321
Countdown: 0
SampleSet: Soft
StackLeniency: 0.3
Mode: 0
LetterboxInBreaks: 0
WidescreenStoryboard: 0

[Editor]
Bookmarks: 74459
DistanceSpacing: 0.7
BeatDivisor: 6
GridSize: 4
TimelineZoom: 1.8

[Metadata]
Title:Ishukan Communication
TitleUnicode:イシュカン・コミュニケーション
Artist:Chorogons
ArtistUnicode:ちょろゴンず
Creator:Pho
Version:Insane
Source:小林さんちのメイドラゴン
Tags:松井洋平 佐藤純一 rionos ending ed Kobayashi-san Chi no Meidoragon Miss Maid Dragon Elma エルマ Tooru トール Quetzalcoatl ケツァルコアトル Lucoa Kanna Kamui カンナカムイ kantoku ravioli
BeatmapID:1258911
BeatmapSetID:595314

[Difficulty]
HPDrainRate:5.5
CircleSize:4
OverallDifficulty:8
ApproachRate:8
SliderMultiplier:2.34
SliderTickRate:2

[Events]
//Background and Video events
0,0,"bg.jpg",0,0
Video,0,"Kobayashi-san Chi no Maid Dragon ED.avi"
//Break Periods
//Storyboard Layer 0 (Background)
//Storyboard Layer 1 (Fail)
//Storyboard Layer 2 (Pass)
//Storyboard Layer 3 (Foreground)
//Storyboard Sound Samples

[TimingPoints]
562,555.812876331635,4,2,1,70,1,0
562,-76.9230769230769,4,2,1,70,0,0
2738,-76.9230769230769,4,2,1,5,0,0
2785,-76.9230769230769,4,2,1,60,0,0
4360,-66.6666666666667,4,2,1,60,0,0
5008,-76.9230769230769,4,2,1,60,0,0
8806,-66.6666666666667,4,2,1,60,0,0
11956,-80,4,2,1,60,0,0
31131,-71.4285714285714,4,2,1,60,0,0
31409,-62.5,4,2,1,60,0,0
31687,-100,4,2,1,60,0,0
38357,-83.3333333333333,4,2,1,60,0,0
40580,-100,4,2,1,60,0,0
44424,-100,4,2,1,5,0,0
44471,-100,4,2,1,60,0,0
46138,-133.333333333333,4,2,1,60,0,0
47250,-80,4,2,1,60,0,0
47806,-74.0740740740741,4,2,1,60,0,0
48361,-68.9655172413793,4,2,1,60,0,0
48917,-64.5161290322581,4,2,1,60,0,0
49473,-71.4285714285714,4,2,1,60,0,0
56977,-133.333333333333,4,2,1,60,0,0
57810,-62.5,4,2,1,60,0,0
58366,-71.4285714285714,4,2,1,60,0,0
65870,-133.333333333333,4,2,1,60,0,0
66703,-66.6666666666667,4,2,1,60,0,0
67259,-71.4285714285714,4,2,1,60,0,0
76152,-76.9230769230769,4,2,1,60,0,0
79950,-66.6666666666667,4,2,1,60,0,0
88380,-133.333333333333,4,2,1,60,0,0
88473,-133.333333333333,4,2,1,15,0,0
89173,-133.333333333333,4,2,1,5,0,0

[Colours]
Combo1 : 82,218,139
Combo2 : 239,211,254
Combo3 : 244,162,251
Combo4 : 236,71,53
Combo5 : 241,213,97
Combo6 : 58,95,190
Combo7 : 218,147,112
Combo8 : 240,249,79

[HitObjects]
396,236,562,6,0,P|340:254|282:228,1,101.399995358277,4|0,3:1|0:0,0:0:0:0:
241,183,839,2,0,P|134:181|111:206,1,101.399995358277,2|0,0:0|0:0,0:0:0:0:
145,173,1117,1,2,1:2:0:0:
181,310,1303,2,0,P|190:252|187:242,1,50.6999976791383
97,92,1580,6,0,B|167:62|167:62|254:84,1,152.099993037415,2|0,3:2|0:0,0:0:0:0:
240,80,1951,1,0,3:0:0:0:
464,156,2136,2,0,P|481:114|413:28,1,152.099993037415,2|0,0:0|0:0,0:0:0:0:
326,91,2507,2,0,L|347:239,1,126.749994197846,0|0,3:0|0:0,0:0:0:0:
344,217,2785,6,0,P|290:193|231:206,1,101.399995358277,2|0,3:2|0:0,0:0:0:0:
189,142,3063,2,0,P|154:178|137:245,1,101.399995358277,2|0,3:2|0:0,0:0:0:0:
252,295,3341,2,0,B|368:312,1,101.399995358277,2|0,1:2|0:0,0:0:0:0:
191,364,3618,2,0,L|75:376,1,101.399995358277,0|0,3:0|3:2,0:0:0:0:
50,361,3896,5,2,0:0:0:0:
106,262,4082,1,0,1:0:0:0:
106,262,4174,1,0,3:0:0:0:
0,165,4360,2,0,P|58:124|30:25,1,175.500006694794,2|0,0:0|0:0,0:0:0:0:
39,32,4730,2,0,B|142:72|127:-1|232:45,1,175.500006694794,2|0,3:2|3:0,0:0:0:0:
472,100,5193,5,0,0:0:0:0:
460,133,5286,1,2,3:2:0:0:
352,187,5471,1,0,0:0:0:0:
365,219,5564,1,2,1:2:0:0:
496,241,5749,1,0,0:0:0:0:
488,275,5842,1,0,3:0:0:0:
387,340,6027,6,0,L|223:326,1,152.099993037415,2|0,3:2|1:0,0:0:0:0:
235,327,6398,1,0,3:0:0:0:
233,211,6583,1,2,0:0:0:0:
233,211,6675,1,0,1:0:0:0:
126,142,6861,1,0,0:0:0:0:
126,142,6953,2,0,B|106:100|123:64|123:64|145:80|159:78,1,101.399995358277,0|0,3:0|0:0,0:0:0:0:
225,76,7231,6,0,P|285:58|343:62,1,101.399995358277,2|0,3:2|0:0,0:0:0:0:
368,125,7509,2,0,P|403:73|395:24,1,101.399995358277,2|0,3:2|0:0,0:0:0:0:
292,134,7787,2,0,P|269:206|281:241,1,101.399995358277,0|0,1:0|0:0,0:0:0:0:
341,280,8065,2,0,L|448:268,1,101.399995358277,2|0,3:2|3:0,0:0:0:0:
485,206,8343,5,2,0:0:0:0:
328,360,8528,1,2,1:2:0:0:
328,360,8621,1,0,3:0:0:0:
185,211,8806,2,0,P|104:195|21:261,1,175.500006694794,2|2,0:0|0:0,0:0:0:0:
45,324,9177,1,2,3:2:0:0:
198,361,9362,1,0,1:0:0:0:
198,361,9455,6,0,B|189:296|189:296|218:253|218:253|205:180,1,175.500006694794,4|0,3:2|3:0,0:0:0:0:
125,29,9918,1,0,1:0:0:0:
125,29,10010,1,0,1:0:0:0:
224,94,10196,2,0,P|263:91|297:82,1,58.500002231598,0|0,1:0|0:0,0:0:0:0:
441,49,10473,2,0,P|409:45|376:37,1,58.500002231598,8|0,1:3|0:0,0:0:0:0:
208,196,10751,2,0,P|248:192|288:175,1,58.500002231598,8|0,0:3|0:0,0:0:0:0:
495,157,11029,6,0,P|420:183|394:298,1,175.500006694794,4|4,0:3|0:3,0:0:0:0:
441,335,11400,2,0,L|512:351,2,58.500002231598,4|0|0,0:3|0:0|0:0,0:0:0:0:
326,377,11678,5,4,3:2:0:0:
297,181,11956,2,0,P|252:211|189:205,1,97.5,0|0,3:0|0:0,0:0:0:0:
143,161,12234,2,0,P|73:206|72:285,1,146.25,2|0,1:2|3:0,0:0:0:0:
125,371,12697,1,2,3:2:0:0:
125,371,12789,2,0,L|241:360,1,97.5
222,361,13067,1,0,3:0:0:0:
327,273,13253,1,0,0:0:0:0:
327,273,13345,2,0,P|372:315|437:315,1,97.5,2|0,1:2|0:0,0:0:0:0:
482,295,13623,2,0,P|506:207|472:139,1,146.25,0|2,3:0|3:2,0:0:0:0:
424,20,14179,5,2,3:2:0:0:
313,129,14457,2,0,B|370:151|370:151|438:136,1,97.5,2|0,1:2|0:0,0:0:0:0:
272,45,14920,2,0,L|260:204,1,146.25,2|2,3:2|1:2,0:0:0:0:
260,190,15291,1,0,3:0:0:0:
76,295,15476,1,0,0:0:0:0:
76,295,15568,2,0,P|154:328|201:305,1,97.5,2|0,1:2|0:0,0:0:0:0:
241,267,15846,2,0,P|296:284|326:342,1,97.5,0|0,3:0|0:0,0:0:0:0:
233,382,16124,1,2,3:2:0:0:
507,235,16402,70,0,P|448:195|418:200,1,97.5,0|0,3:0|0:0,0:0:0:0:
360,242,16680,2,0,B|324:165|393:166|342:79,1,146.25,2|0,1:2|3:0,0:0:0:0:
262,48,17143,2,0,P|192:92|205:167,1,146.25,2|2,3:2|1:2,0:0:0:0:
192,148,17514,1,0,3:0:0:0:
343,221,17699,1,0,0:0:0:0:
343,221,17792,2,0,L|464:202,1,97.5,2|0,1:2|0:0,0:0:0:0:
488,134,18070,2,0,P|424:99|325:119,1,146.25,0|2,3:2|3:2,0:0:0:0:
210,252,18625,5,2,3:2:0:0:
206,337,18764,1,0,0:0:0:0:
123,330,18903,1,2,1:2:0:0:
125,249,19042,1,2,0:2:0:0:
125,249,19367,102,0,P|108:171|124:71,1,146.25,2|2,3:2|1:2,0:0:0:0:
113,105,19737,1,0,3:0:0:0:
234,47,19922,1,0,0:0:0:0:
234,47,20015,2,0,B|278:30|278:30|373:49,1,97.5,2|0,1:2|0:0,0:0:0:0:
369,112,20293,2,0,B|331:131|331:131|277:118,1,97.5,0|0,3:0|1:0,0:0:0:0:
189,151,20571,54,0,L|226:339,1,146.25,6|0,3:2|3:0,0:0:0:0:
354,364,21034,2,0,L|385:303,1,48.75,0|2,0:0|1:2,0:0:0:0:
471,302,21312,2,0,L|405:240,1,48.75,0|0,0:0|3:0,0:0:0:0:
493,192,21590,2,0,P|414:176|353:225,1,146.25,2|2,3:2|1:2,0:0:0:0:
359,244,21960,1,0,3:0:0:0:
267,178,22146,1,0,0:0:0:0:
270,146,22238,1,2,1:2:0:0:
428,67,22423,1,0,0:0:0:0:
425,99,22516,1,0,3:2:0:0:
271,29,22794,6,0,L|85:53,1,146.25,2|2,3:2|3:2,0:0:0:0:
0,94,23257,1,0,0:0:0:0:
7,122,23350,1,2,1:2:0:0:
140,215,23535,2,0,P|171:178|158:111,1,97.5,2|0,3:2|0:0,0:0:0:0:
78,157,23813,2,0,L|105:344,1,146.25,2|0,3:2|1:0,0:0:0:0:
98,301,24184,1,0,3:0:0:0:
363,328,24369,101,0,0:0:0:0:
367,332,24461,2,0,P|312:353|248:339,1,97.5,2|0,1:2|0:0,0:0:0:0:
230,275,24739,2,0,P|285:254|349:268,1,97.5,4|0,3:2|0:0,0:0:0:0:
442,317,25017,1,2,3:2:0:0:
430,181,25295,22,0,P|426:132|401:91,1,97.5,0|0,3:0|0:0,0:0:0:0:
351,34,25573,2,0,P|276:72|197:63,1,146.25,2|0,1:2|3:0,0:0:0:0:
105,30,26036,5,2,3:2:0:0:
105,30,26129,1,0,0:0:0:0:
40,187,26314,2,0,B|124:173|124:173|216:213,1,146.25,2|0,1:2|0:0,0:0:0:0:
216,274,26685,2,0,P|201:347|227:385,1,97.5,2|0,1:2|0:0,0:0:0:0:
292,229,26963,2,0,P|306:184|286:118,1,97.5,0|0,3:0|0:0,0:0:0:0:
283,106,27241,101,2,3:2:0:0:
302,315,27518,1,2,3:2:0:0:
216,72,27796,2,0,P|291:31|333:54,1,97.5,2|0,1:2|0:0,0:0:0:0:
296,32,28074,1,0,3:0:0:0:
494,110,28260,2,0,P|440:89|355:123,1,146.25,2|2,3:2|1:2,0:0:0:0:
360,117,28630,1,0,3:0:0:0:
296,312,28815,1,0,0:0:0:0:
356,266,28908,2,0,B|318:238|318:238|244:243,1,97.5,2|0,1:2|0:0,0:0:0:0:
235,358,29186,2,0,B|273:386|273:386|347:381,1,97.5,0|0,3:0|0:0,0:0:0:0:
207,285,29464,6,0,L|39:271,1,146.25,6|0,3:2|3:0,0:0:0:0:
341,159,30020,2,0,L|509:145,1,146.25,0|0,1:0|3:0,0:0:0:0:
181,38,30483,1,0,3:0:0:0:
181,38,30575,2,0,L|51:27,1,97.5,0|0,3:0|1:0,0:0:0:0:
9,63,30853,2,0,P|35:118|19:172,1,97.5,2|0,3:0|0:0,0:0:0:0:
134,159,31131,2,0,P|108:206|112:281,1,109.199996667481,2|0,1:0|1:0,0:0:0:0:
30,339,31409,2,0,P|107:381|157:372,1,124.8,2|0,3:0|0:0,0:0:0:0:
267,323,31687,5,4,3:2:0:0:
386,379,31965,1,2,0:0:0:0:
369,248,32243,2,0,P|326:199|288:190,1,78,2|0,1:2|0:0,0:0:0:0:
289,196,32521,1,8,3:0:0:0:
216,116,32706,2,0,P|245:67|234:8,1,117,0|0,3:0|0:0,0:0:0:0:
392,65,33077,6,0,P|358:84|320:85,1,78,2|0,3:2|0:0,0:0:0:0:
421,151,33354,2,0,P|474:182|519:173,1,78,0|0,1:0|0:0,0:0:0:0:
439,325,33632,2,0,P|424:289|430:251,1,78,8|0,3:0|0:0,0:0:0:0:
489,105,33910,1,0,3:0:0:0:
320,310,34188,70,0,P|319:266|280:214,1,78,2|0,0:0|3:0,0:0:0:0:
236,198,34466,2,0,B|206:160|206:160|221:82,1,117,2|8,1:2|0:3,0:0:0:0:
75,22,34929,1,8,0:3:0:0:
75,22,35022,2,0,P|18:19|-18:49,1,78,2|0,0:0|1:0,0:0:0:0:
74,102,35300,2,0,P|75:146|119:181,1,78,2|0,3:2|0:0,0:0:0:0:
147,67,35578,2,0,P|195:24|280:34,1,117,2|4,1:2|0:3,0:0:0:0:
465,100,36041,5,0,0:0:0:0:
385,83,36134,1,4,3:2:0:0:
244,189,36411,6,0,P|284:194|334:172,1,78,2|0,0:0|0:0,0:0:0:0:
390,154,36689,2,0,P|418:200|410:244,1,78,2|0,1:2|0:0,0:0:0:0:
367,274,36967,1,8,0:3:0:0:
471,314,37153,2,0,L|293:331,1,156,8|2,0:3|3:2,0:0:0:0:
102,255,37801,1,2,1:2:0:0:
238,381,38079,1,0,3:0:0:0:
0,299,38357,6,0,P|-2:232|51:158,1,140.399995715332,4|8,3:2|0:3,0:0:0:0:
194,214,38820,1,0,0:0:0:0:
194,214,38913,2,0,P|188:145|139:76,1,140.399995715332,4|4,3:2|0:3,0:0:0:0:
324,338,39376,5,0,0:0:0:0:
324,338,39468,2,0,P|323:278|366:205,1,140.399995715332,0|4,3:0|3:0,0:0:0:0:
512,138,39932,1,0,3:0:0:0:
512,138,40024,2,0,L|417:124,1,93.5999971435548,4|0,1:2|0:0,0:0:0:0:
273,67,40302,2,0,L|374:52,1,93.5999971435548,4|0,0:3|0:0,0:0:0:0:
442,42,40580,22,0,P|449:98|415:142,1,78,4|0,3:2|0:0,0:0:0:0:
376,180,40858,2,0,P|408:201|446:204,1,78,2|0,0:0|0:0,0:0:0:0:
331,262,41136,2,0,P|275:241|230:260,1,78,2|0,1:2|0:0,0:0:0:0:
258,243,41414,1,0,0:0:0:0:
133,309,41599,6,0,P|147:263|140:180,1,117,0|0,3:0|1:0,0:0:0:0:
37,164,41970,2,0,P|71:126|110:117,1,78,2|0,3:2|0:0,0:0:0:0:
226,100,42247,2,0,P|184:70|149:68,1,78,2|0,1:2|0:0,0:0:0:0:
97,15,42525,1,0,3:0:0:0:
181,159,42711,69,0,3:0:0:0:
181,159,42803,2,0,L|306:135,1,117,2|2,3:2|3:2,0:0:0:0:
492,172,43266,1,0,0:0:0:0:
492,172,43359,1,0,1:0:0:0:
361,229,43544,2,0,P|353:209|348:162,1,39,2|0,0:0|3:0,0:0:0:0:
418,382,43822,6,0,P|436:339|422:263,1,117,0|0,3:0|1:0,0:0:0:0:
259,206,44193,2,0,P|253:255|290:302,1,97.5,2|0,3:0|0:0,0:0:0:0:
277,294,44471,2,0,B|201:252|170:361|67:298,1,195,2|0,1:2|0:0,0:0:0:0:
14,240,45027,102,0,B|-19:163|12:85|12:85|73:149|73:149|116:75|116:75|161:136|152:199,1,429,4|0,3:2|3:0,0:0:0:0:
312,287,46138,6,0,P|276:182|288:295,1,321.750012273789
450,314,47250,6,0,B|469:305|484:287|484:287|419:251|369:353|443:398|510:364,1,243.75,6|0,3:2|0:0,0:0:0:0:
504,188,47806,6,0,P|450:160|280:237,1,263.250001004219,6|0,1:2|1:2,1:2:0:0:
202,317,48361,6,0,P|150:326|209:214,1,282.750008628845,6|0,3:2|0:0,0:0:0:0:
317,166,48917,6,0,P|354:119|201:75,1,302.250002305984,6|0,1:2|0:0,0:0:0:0:
139,133,49473,6,0,P|113:85|121:32,1,109.199996667481,6|0,3:2|0:0,0:0:0:0:
229,155,49751,2,0,P|246:208|208:267,1,109.199996667481,2|0,3:2|0:0,0:0:0:0:
139,299,50029,2,0,P|79:299|6:278,1,109.199996667481,0|0,1:0|0:0,0:0:0:0:
53,209,50307,1,2,3:2:0:0:
230,361,50492,6,0,P|310:376|395:329,1,163.799995001221,0|0,3:0|1:2,0:0:0:0:
382,342,50863,1,2,3:2:0:0:
200,250,51140,1,0,1:0:0:0:
239,117,51326,1,0,0:0:0:0:
239,117,51418,1,2,3:2:0:0:
334,211,51604,1,0,0:0:0:0:
334,211,51696,6,0,P|383:231|455:226,1,109.199996667481,2|0,3:2|0:0,0:0:0:0:
495,159,51974,2,0,P|433:128|409:82,1,109.199996667481,2|0,3:2|0:0,0:0:0:0:
445,22,52252,1,0,1:0:0:0:
329,135,52437,1,0,0:0:0:0:
329,135,52530,1,2,3:2:0:0:
186,67,52715,6,0,P|117:40|44:110,1,163.799995001221,0|0,3:2|1:0,0:0:0:0:
84,176,53086,2,0,P|89:238|63:293,1,109.199996667481,2|0,3:2|0:0,0:0:0:0:
180,257,53364,2,0,P|229:242|270:193,1,109.199996667481,0|0,1:0|0:0,0:0:0:0:
273,321,53642,2,0,P|330:358|370:362,1,109.199996667481,2|0,3:2|0:0,0:0:0:0:
417,288,53920,5,0,3:0:0:0:
162,344,54197,2,0,P|174:299|174:175,1,163.799995001221,0|2,3:0|1:2,0:0:0:0:
160,45,54661,1,0,0:0:0:0:
160,45,54753,1,0,3:0:0:0:
97,122,54939,6,0,P|181:138|247:86,1,163.799995001221,0|0,3:0|1:0,0:0:0:0:
258,15,55309,1,0,3:0:0:0:
48,57,55587,1,2,1:2:0:0:
70,195,55772,1,0,0:0:0:0:
70,195,55865,1,0,3:0:0:0:
171,103,56143,6,0,P|243:89|348:147,1,163.799995001221,4|0,3:2|3:0,0:0:0:0:
479,333,56606,1,0,1:0:0:0:
479,333,56699,2,0,P|506:278|498:192,1,109.199996667481,4|0,1:2|0:0,0:0:0:0:
442,176,56977,6,0,B|379:184|379:184|340:213|340:213|274:220,1,175.500006694794,4|2,3:2|3:2,0:0:0:0:
66,165,57810,6,0,B|3:261|74:359|74:359|63:292|145:237,1,312,4|0,1:2|0:0,0:0:0:0:
125,262,58366,6,0,P|194:269|235:314,1,109.199996667481,6|0,3:2|0:0,0:0:0:0:
303,269,58644,2,0,P|302:322|271:365,1,109.199996667481,2|0,3:2|0:0,0:0:0:0:
154,339,58922,1,0,1:0:0:0:
241,194,59107,1,0,0:0:0:0:
241,194,59200,1,2,3:2:0:0:
391,331,59385,6,0,L|406:167,1,163.799995001221,0|2,3:0|1:2,0:0:0:0:
415,90,59756,1,0,3:2:0:0:
225,170,60033,1,0,1:0:0:0:
172,36,60219,1,0,0:0:0:0:
172,36,60311,1,2,3:2:0:0:
9,64,60497,1,0,0:0:0:0:
9,64,60589,6,0,P|63:138|64:169,1,109.199996667481,2|0,3:2|3:0,0:0:0:0:
153,167,60867,2,0,P|125:230|74:256,1,109.199996667481,2|0,0:0|0:0,0:0:0:0:
198,268,61145,2,0,P|244:342|335:375,1,163.799995001221,0|2,1:0|3:2,0:0:0:0:
384,81,61608,6,0,L|422:286,1,163.799995001221,0|0,3:0|1:0,0:0:0:0:
446,314,61979,2,0,P|491:275|491:220,1,109.199996667481,2|0,3:2|0:0,0:0:0:0:
317,191,62257,2,0,L|339:304,1,109.199996667481,0|0,1:0|1:0,0:0:0:0:
281,360,62535,2,0,P|199:367|154:331,1,109.199996667481,2|0,3:2|1:0,0:0:0:0:
113,300,62813,5,0,3:0:0:0:
164,48,63090,2,0,B|183:99|183:99|160:181,1,109.199996667481,0|0,3:0|0:0,0:0:0:0:
91,190,63368,2,0,P|22:179|-4:112,1,109.199996667481,2|0,1:2|0:0,0:0:0:0:
0,150,63646,1,0,3:0:0:0:
222,97,63832,6,0,L|385:78,1,163.799995001221,0|0,3:0|1:0,0:0:0:0:
450,15,64202,1,0,3:0:0:0:
423,217,64480,1,2,1:2:0:0:
512,90,64665,1,0,0:0:0:0:
512,90,64758,1,0,3:0:0:0:
277,17,65036,6,0,P|244:87|271:190,1,163.799995001221,4|0,1:2|0:0,0:0:0:0:
379,356,65499,5,0,1:0:0:0:
331,329,65592,1,0,1:0:0:0:
276,325,65684,1,0,3:0:0:0:
223,339,65777,1,0,3:0:0:0:
192,384,65870,2,0,L|150:195,1,175.500006694794,4|2,1:2|3:2,0:0:0:0:
399,69,66703,5,0,1:0:0:0:
473,123,66842,2,0,P|408:161|308:72,1,204.750007810593,2|0,0:0|2:0,0:0:0:0:
224,39,67259,6,0,L|48:17,1,163.799995001221,4|0,3:2|3:0,0:0:0:0:
77,202,67815,1,2,1:2:0:0:
177,127,68000,1,0,0:0:0:0:
177,127,68093,1,0,3:0:0:0:
4,210,68278,6,0,B|56:257|56:257|152:244,1,163.799995001221,2|0,3:2|1:0,0:0:0:0:
215,200,68649,1,0,3:0:0:0:
38,135,68926,1,2,1:2:0:0:
95,328,69204,1,0,3:0:0:0:
264,124,69482,6,0,P|303:182|262:278,1,163.799995001221,4|0,3:2|3:0,0:0:0:0:
183,354,69945,1,2,0:2:0:0:
183,354,70038,1,0,1:0:0:0:
22,275,70223,1,2,0:2:0:0:
22,275,70316,1,0,3:0:0:0:
209,204,70501,6,0,L|417:189,1,163.799995001221,4|0,3:2|1:0,0:0:0:0:
442,243,70872,1,0,3:0:0:0:
100,15,71150,1,2,1:2:0:0:
198,93,71335,1,0,0:2:0:0:
198,93,71428,2,0,P|257:120|307:109,1,109.199996667481,2|0,3:2|0:0,0:0:0:0:
371,62,71706,6,0,P|425:110|418:235,1,163.799995001221,4|2,3:2|3:2,0:0:0:0:
325,272,72169,1,2,3:2:0:0:
325,272,72261,2,0,B|252:283|213:234|213:234|256:210,1,163.799995001221,0|2,1:0|3:2,0:0:0:0:
401,322,72725,1,0,3:0:0:0:
401,322,72817,2,0,B|459:275|516:298|516:298|486:342,1,163.799995001221,0|2,3:0|3:2,0:0:0:0:
287,367,73280,1,2,0:0:0:0:
287,367,73373,2,0,P|213:377|181:359,1,109.199996667481,0|0,1:0|0:0,0:0:0:0:
124,296,73651,2,0,P|154:234|131:175,1,109.199996667481,2|0,3:2|0:0,0:0:0:0:
24,68,73929,6,0,B|38:139|38:139|59:172,1,109.199996667481,4|0,1:2|0:0,0:0:0:0:
168,8,74207,2,0,B|182:76|182:76|177:117,1,109.199996667481,2|2,3:2|0:0,0:0:0:0:
344,8,74485,2,0,B|330:76|330:76|335:117,1,109.199996667481,4|0,1:2|0:0,0:0:0:0:
488,68,74763,2,0,B|474:139|474:139|453:172,1,109.199996667481,2|2,3:2|0:0,0:0:0:0:
315,243,75040,6,0,P|281:243|240:225,2,54.5999983337403,2|0|2,1:2|0:0|0:0,0:0:0:0:
432,304,75318,2,0,P|464:278|500:273,2,54.5999983337403,0|0|2,3:0|0:0|3:2,0:0:0:0:
343,371,75596,1,0,1:0:0:0:
301,380,75689,1,0,0:0:0:0:
260,364,75782,1,2,1:2:0:0:
228,335,75874,1,0,3:0:0:0:
185,329,75967,1,0,0:0:0:0:
144,342,76059,1,2,1:2:0:0:
110,368,76152,6,0,P|82:307|98:256,1,101.399995358277,4|0,3:2|0:0,0:0:0:0:
140,211,76430,2,0,P|168:150|156:108,1,101.399995358277,2|0,3:2|0:0,0:0:0:0:
119,30,76708,1,2,1:2:0:0:
26,166,76893,2,0,L|110:142,1,50.6999976791383,0|0,0:0|3:0,0:0:0:0:
363,90,77171,6,0,B|285:76|285:76|222:27,1,152.099993037415,2|0,3:2|1:0,0:0:0:0:
227,31,77542,1,0,3:0:0:0:
420,31,77727,2,0,P|449:101|397:174,1,152.099993037415,2|0,0:0|0:0,0:0:0:0:
328,185,78097,2,0,L|214:204,1,101.399995358277,0|0,3:0|0:0,0:0:0:0:
120,266,78375,6,0,B|103:328|103:328|125:380,1,101.399995358277,2|0,3:2|0:0,0:0:0:0:
224,298,78653,2,0,B|241:236|241:236|220:182,1,101.399995358277,2|0,3:2|0:0,0:0:0:0:
59,141,78931,2,0,P|118:159|169:140,1,101.399995358277,0|0,1:0|0:0,0:0:0:0:
211,78,79209,2,0,B|273:61|273:61|326:78,1,101.399995358277,2|0,3:2|3:0,0:0:0:0:
380,151,79487,5,0,0:0:0:0:
445,30,79672,1,0,1:0:0:0:
445,30,79765,1,0,3:0:0:0:
428,210,79950,2,0,P|348:221|305:141,1,175.500006694794,2|0,0:2|0:0,0:0:0:0:
305,149,80321,2,0,B|229:216|196:111|111:201,1,175.500006694794,2|0,3:2|3:0,0:0:0:0:
28,279,80784,5,2,0:2:0:0:
63,257,80876,1,0,3:0:0:0:
138,364,81062,1,0,0:0:0:0:
174,384,81154,1,2,1:2:0:0:
229,265,81340,1,0,0:0:0:0:
263,242,81432,1,0,0:0:0:0:
374,359,81618,6,0,P|391:283|367:182,1,175.500006694794,2|0,3:2|1:0,0:0:0:0:
370,188,81988,1,0,3:0:0:0:
273,70,82173,1,0,0:0:0:0:
273,70,82266,1,2,1:2:0:0:
132,114,82451,1,0,0:0:0:0:
132,114,82544,2,0,P|54:103|18:36,1,117.000004463196,2|0,3:2|0:0,0:0:0:0:
135,11,82822,6,0,L|159:150,1,117.000004463196,2|0,3:2|0:0,0:0:0:0:
254,144,83100,2,0,L|230:283,1,117.000004463196,2|0,3:2|0:0,0:0:0:0:
155,340,83378,2,0,P|67:343|25:299,1,117.000004463196,0|0,1:0|0:0,0:0:0:0:
231,276,83656,2,0,L|359:300,1,117.000004463196,2|0,3:2|3:0,0:0:0:0:
399,371,83933,5,2,0:0:0:0:
462,184,84119,1,0,1:0:0:0:
462,184,84211,1,0,3:0:0:0:
216,20,84397,2,0,P|136:39|99:161,1,175.500006694794,2|0,0:0|1:0,0:0:0:0:
161,187,84767,2,0,L|325:142,1,117.000004463196,2|0,3:0|1:0,0:0:0:0:
460,90,85045,6,0,P|437:18|354:52,1,175.500006694794,4|0,3:2|3:0,0:0:0:0:
371,158,85508,1,0,1:0:0:0:
371,158,85601,1,0,1:0:0:0:
458,239,85786,2,0,P|457:268|469:294,1,58.500002231598,0|0,1:0|0:0,0:0:0:0:
255,159,86064,2,0,P|231:175|203:183,1,58.500002231598,0|0,1:0|0:0,0:0:0:0:
294,312,86342,2,0,L|331:247,1,58.500002231598,8|0,1:3|0:0,0:0:0:0:
467,143,86620,2,0,B|425:121|379:131|379:131|365:86|313:67,1,175.500006694794,4|0,0:3|3:0,0:0:0:0:
231,47,86990,2,0,P|165:92|162:134,1,87.750003347397,4|0,0:3|0:0,0:0:0:0:
111,285,87268,5,4,0:0:0:0:
29,254,87407,1,2,0:0:0:0:
42,340,87546,2,0,B|133:351|122:249|228:280,1,175.500006694794,4|0,0:0|0:0,0:0:0:0:
401,109,88102,5,4,0:0:0:0:
476,64,88241,1,2,0:0:0:0:
472,156,88380,2,0,B|381:189|366:95|318:87|301:99|301:99|277:114|284:140|327:151|339:115,1,263.250010042191,4|0,1:0|0:0,0:0:0:0:
