osu file format v14

[General]
AudioFilename: audio.mp3
AudioLeadIn: 0
PreviewTime: 49274
Countdown: 1
SampleSet: Normal
StackLeniency: 0.7
Mode: 0
LetterboxInBreaks: 0
WidescreenStoryboard: 1

[Editor]
DistanceSpacing: 0.8
BeatDivisor: 6
GridSize: 4
TimelineZoom: 1.6

[Metadata]
Title:Ishukan Communication
TitleUnicode:イシュカン・コミュニケーション
Artist:Choro-gonzu
ArtistUnicode:ちょろゴンず
Creator:Flarezi
Version:Maid Dragon
Source:小林さんちのメイドラゴン
Tags:kobayashi-san chi no maid dragon miss kobayashi's dragon maid
BeatmapID:1246073
BeatmapSetID:588602

[Difficulty]
HPDrainRate:5.5
CircleSize:4
OverallDifficulty:7.5
ApproachRate:9.2
SliderMultiplier:2
SliderTickRate:1

[Events]
//Background and Video events
0,0,"maxresdefault.jpg",0,0
//Break Periods
//Storyboard Layer 0 (Background)
//Storyboard Layer 1 (Fail)
//Storyboard Layer 2 (Pass)
//Storyboard Layer 3 (Foreground)
//Storyboard Sound Samples

[TimingPoints]
529,555.555555555556,4,1,0,85,1,0
1640,-100,4,1,0,5,0,0
1825,-100,4,1,0,85,0,0
2195,-100,4,1,0,5,0,0
2380,-100,4,1,0,85,0,0
3491,-100,4,1,0,5,0,0
3584,-100,4,1,0,85,0,0
3677,-100,4,1,0,5,0,0
3862,-100,4,1,0,85,0,0
4510,-100,4,1,0,5,0,0
4695,-100,4,1,0,85,0,0
4788,-100,4,1,0,5,0,0
4973,-100,4,1,0,85,0,0
6084,-100,4,1,0,5,0,0
6269,-100,4,1,0,85,0,0
6640,-100,4,1,0,5,0,0
6825,-100,4,1,0,85,0,0
8214,-100,4,1,0,5,0,0
8306,-100,4,1,0,85,0,0
9047,-100,4,1,0,5,0,0
9140,-100,4,1,0,85,0,0
9232,-100,4,1,0,5,0,0
9417,-100,4,1,0,85,0,0
11825,-100,4,1,0,5,0,0
11917,-71.4285714285714,4,1,0,85,0,0
12103,-71.4285714285714,4,1,0,5,0,0
12195,-71.4285714285714,4,1,0,85,0,0
12473,-71.4285714285714,4,1,0,5,0,0
12658,-71.4285714285714,4,1,0,85,0,0
15436,-71.4285714285714,4,1,0,85,0,0
15899,-71.4285714285714,4,1,0,5,0,0
15991,-71.4285714285714,4,1,0,85,0,0
16084,-71.4285714285714,4,1,0,5,0,0
16362,-71.4285714285714,4,1,0,85,0,0
16825,-71.4285714285714,4,1,0,5,0,0
16917,-71.4285714285714,4,1,0,85,0,0
17566,-71.4285714285714,4,1,0,5,0,0
17658,-71.4285714285714,4,1,0,85,0,0
17936,-71.4285714285714,4,1,0,5,0,0
18029,-71.4285714285714,4,1,0,85,0,0
19510,-71.4285714285714,4,1,0,5,0,0
19603,-71.4285714285714,4,1,0,85,0,0
19880,-71.4285714285714,4,1,0,5,0,0
19973,-71.4285714285714,4,1,0,85,0,0
20991,-71.4285714285714,4,1,0,85,0,0
21177,-71.4285714285714,4,1,0,5,0,0
21269,-71.4285714285714,4,1,0,85,0,0
21362,-71.4285714285714,4,1,0,5,0,0
21547,-71.4285714285714,4,1,0,85,0,0
21732,-71.4285714285714,4,1,0,5,0,0
21825,-71.4285714285714,4,1,0,85,0,0
22288,-71.4285714285714,4,1,0,5,0,0
22380,-71.4285714285714,4,1,0,85,0,0
22473,-71.4285714285714,4,1,0,85,0,0
22658,-71.4285714285714,4,1,0,5,0,0
22751,-71.4285714285714,4,1,0,85,0,0
22936,-71.4285714285714,4,1,0,5,0,0
23029,-71.4285714285714,4,1,0,85,0,0
23491,-71.4285714285714,4,1,0,85,0,0
23584,-71.4285714285714,4,1,0,5,0,0
23769,-71.4285714285714,4,1,0,85,0,0
23862,-71.4285714285714,4,1,0,5,0,0
24325,-71.4285714285714,4,1,0,85,0,0
24973,-71.4285714285714,4,1,0,5,0,0
25251,-71.4285714285714,4,1,0,85,0,0
25343,-71.4285714285714,4,1,0,5,0,0
25436,-71.4285714285714,4,1,0,85,0,0
25529,-71.4285714285714,4,1,0,85,0,0
25621,-71.4285714285714,4,1,0,5,0,0
25806,-71.4285714285714,4,1,0,85,0,0
25899,-71.4285714285714,4,1,0,5,0,0
25991,-71.4285714285714,4,1,0,85,0,0
26177,-71.4285714285714,4,1,0,5,0,0
26269,-71.4285714285714,4,1,0,85,0,0
26547,-71.4285714285714,4,1,0,5,0,0
26640,-71.4285714285714,4,1,0,85,0,0
26825,-71.4285714285714,4,1,0,5,0,0
26917,-71.4285714285714,4,1,0,85,0,0
27473,-71.4285714285714,4,1,0,85,0,0
27658,-71.4285714285714,4,1,0,5,0,0
27751,-71.4285714285714,4,1,0,85,0,0
27843,-71.4285714285714,4,1,0,5,0,0
27936,-71.4285714285714,4,1,0,85,0,0
28121,-71.4285714285714,4,1,0,5,0,0
28214,-71.4285714285714,4,1,0,85,0,0
28399,-71.4285714285714,4,1,0,5,0,0
28491,-71.4285714285714,4,1,0,85,0,0
28677,-71.4285714285714,4,1,0,5,0,0
28769,-71.4285714285714,4,1,0,85,0,0
28862,-71.4285714285714,4,1,0,85,0,0
28954,-71.4285714285714,4,1,0,5,0,0
29047,-71.4285714285714,4,1,0,85,0,0
31917,-71.4285714285714,4,1,0,85,0,0
32103,-71.4285714285714,4,1,0,5,0,0
32195,-71.4285714285714,4,1,0,85,0,0
32288,-71.4285714285714,4,1,0,5,0,0
32380,-71.4285714285714,4,1,0,85,0,0
32566,-71.4285714285714,4,1,0,5,0,0
32658,-71.4285714285714,4,1,0,85,0,0
32936,-71.4285714285714,4,1,0,5,0,0
33029,-71.4285714285714,4,1,0,85,0,0
33121,-71.4285714285714,4,1,0,5,0,0
33306,-71.4285714285714,4,1,0,85,0,0
33399,-71.4285714285714,4,1,0,5,0,0
33584,-71.4285714285714,4,1,0,85,0,0
33862,-71.4285714285714,4,1,0,85,0,0
34140,-71.4285714285714,4,1,0,85,0,0
34325,-71.4285714285714,4,1,0,5,0,0
34417,-71.4285714285714,4,1,0,85,0,0
34510,-71.4285714285714,4,1,0,5,0,0
34603,-71.4285714285714,4,1,0,85,0,0
34695,-71.4285714285714,4,1,0,5,0,0
34788,-71.4285714285714,4,1,0,85,0,0
34880,-71.4285714285714,4,1,0,5,0,0
34973,-71.4285714285714,4,1,0,85,0,0
35158,-71.4285714285714,4,1,0,5,0,0
35251,-71.4285714285714,4,1,0,85,0,0
35436,-71.4285714285714,4,1,0,5,0,0
35529,-71.4285714285714,4,1,0,85,0,0
36084,-71.4285714285714,4,1,0,5,0,0
36362,-71.4285714285714,4,1,0,85,0,0
36454,-71.4285714285714,4,1,0,5,0,0
36547,-71.4285714285714,4,1,0,85,0,0
36732,-71.4285714285714,4,1,0,5,0,0
36825,-71.4285714285714,4,1,0,85,0,0
37010,-71.4285714285714,4,1,0,5,0,0
37103,-71.4285714285714,4,1,0,85,0,0
37380,-71.4285714285714,4,1,0,5,0,0
37473,-71.4285714285714,4,1,0,85,0,0
37658,-71.4285714285714,4,1,0,5,0,0
37751,-71.4285714285714,4,1,0,85,0,0
37936,-71.4285714285714,4,1,0,5,0,0
38029,-71.4285714285714,4,1,0,85,0,0
38214,-71.4285714285714,4,1,0,5,0,0
38306,-71.4285714285714,4,1,0,85,0,0
40806,-71.4285714285714,4,1,0,85,0,0
40899,-71.4285714285714,4,1,0,5,0,0
40991,-71.4285714285714,4,1,0,85,0,0
41084,-71.4285714285714,4,1,0,5,0,0
41269,-71.4285714285714,4,1,0,85,0,0
41454,-71.4285714285714,4,1,0,5,0,0
41547,-71.4285714285714,4,1,0,85,0,0
41825,-71.4285714285714,4,1,0,5,0,0
41917,-71.4285714285714,4,1,0,85,0,0
42103,-71.4285714285714,4,1,0,5,0,0
42195,-71.4285714285714,4,1,0,85,0,0
42380,-71.4285714285714,4,1,0,5,0,0
42473,-71.4285714285714,4,1,0,85,0,0
42658,-71.4285714285714,4,1,0,5,0,0
42751,-71.4285714285714,4,1,0,85,0,0
42936,-71.4285714285714,4,1,0,5,0,0
43029,-71.4285714285714,4,1,0,85,0,0
43121,-71.4285714285714,4,1,0,5,0,0
43214,-71.4285714285714,4,1,0,85,0,0
43399,-71.4285714285714,4,1,0,5,0,0
43491,-71.4285714285714,4,1,0,85,0,0
43677,-71.4285714285714,4,1,0,5,0,0
43769,-71.4285714285714,4,1,0,85,0,0
43954,-71.4285714285714,4,1,0,5,0,0
44047,-71.4285714285714,4,1,0,85,0,0
44325,-71.4285714285714,4,1,0,5,0,0
44417,-71.4285714285714,4,1,0,85,0,0
44695,-71.4285714285714,4,1,0,5,0,0
44973,-71.4285714285714,4,1,0,85,0,0
47195,-62.5,4,1,0,85,0,0
47751,-58.8235294117647,4,1,0,85,0,0
48306,-55.5555555555556,4,1,0,85,0,0
48862,-52.6315789473684,4,1,0,85,0,0
49417,-50,4,1,0,95,0,1
50343,-50,4,1,0,5,0,1
50436,-50,4,1,0,95,0,1
50621,-50,4,1,0,5,0,1
50806,-50,4,1,0,95,0,1
50899,-50,4,1,0,5,0,1
51084,-50,4,1,0,95,0,1
51269,-50,4,1,0,5,0,1
51362,-50,4,1,0,95,0,1
51454,-50,4,1,0,5,0,1
51640,-50,4,1,0,95,0,1
52566,-50,4,1,0,5,0,1
52658,-50,4,1,0,95,0,1
52936,-50,4,1,0,5,0,1
53029,-50,4,1,0,95,0,1
53121,-50,4,1,0,5,0,1
53306,-50,4,1,0,95,0,1
54325,-50,4,1,0,5,0,1
54417,-50,4,1,0,95,0,1
54510,-50,4,1,0,5,0,1
54603,-50,4,1,0,95,0,1
54788,-50,4,1,0,5,0,1
54973,-50,4,1,0,95,0,1
55158,-50,4,1,0,5,0,1
55251,-50,4,1,0,95,0,1
55343,-50,4,1,0,5,0,1
55529,-50,4,1,0,95,0,1
55621,-50,4,1,0,5,0,1
55806,-50,4,1,0,95,0,1
55899,-50,4,1,0,5,0,1
56084,-50,4,1,0,95,0,1
56454,-50,4,1,0,5,0,1
56547,-50,4,1,0,95,0,1
56825,-50,4,1,0,5,0,1
56917,-50,4,1,0,95,0,1
57195,-50,4,1,0,5,0,1
57473,-50,4,1,0,95,0,1
57658,-50,4,1,0,5,0,1
57751,-50,4,1,0,95,0,1
57843,-50,4,1,0,5,0,1
57936,-50,4,1,0,95,0,1
58029,-50,4,1,0,5,0,1
58306,-50,4,1,0,95,0,1
58862,-50,4,1,0,5,0,1
59140,-50,4,1,0,95,0,1
59232,-50,4,1,0,5,0,1
59325,-50,4,1,0,95,0,1
59325,-50,4,1,0,95,0,1
59510,-50,4,1,0,5,0,1
59695,-50,4,1,0,95,0,1
59880,-50,4,1,0,5,0,1
59973,-50,4,1,0,95,0,1
60158,-50,4,1,0,5,0,1
60251,-50,4,1,0,95,0,1
60343,-50,4,1,0,5,0,1
60529,-50,4,1,0,95,0,1
61084,-50,4,1,0,5,0,1
61362,-50,4,1,0,95,0,1
61454,-50,4,1,0,5,0,1
61547,-50,4,1,0,95,0,1
61547,-50,4,1,0,95,0,1
61732,-50,4,1,0,5,0,1
61917,-50,4,1,0,95,0,1
62103,-50,4,1,0,5,0,1
62195,-50,4,1,0,95,0,1
63029,-50,4,1,0,95,0,1
63214,-50,4,1,0,5,0,1
63306,-50,4,1,0,95,0,1
63399,-50,4,1,0,5,0,1
63491,-50,4,1,0,95,0,1
63677,-50,4,1,0,5,0,1
63862,-50,4,1,0,95,0,1
64047,-50,4,1,0,5,0,1
64140,-50,4,1,0,95,0,1
64232,-50,4,1,0,5,0,1
64417,-50,4,1,0,95,0,1
64510,-50,4,1,0,5,0,1
64695,-50,4,1,0,95,0,1
64788,-50,4,1,0,5,0,1
64973,-50,4,1,0,95,0,1
65343,-50,4,1,0,5,0,1
65436,-50,4,1,0,95,0,1
65714,-50,4,1,0,5,0,1
65806,-50,4,1,0,95,0,1
66269,-50,4,1,0,5,0,1
66362,-50,4,1,0,95,0,1
66547,-50,4,1,0,5,0,1
66640,-50,4,1,0,95,0,1
66732,-50,4,1,0,5,0,1
66825,-50,4,1,0,95,0,1
67195,-50,4,1,0,5,0,1
67473,-50,4,1,0,95,0,1
67658,-50,4,1,0,5,0,1
67751,-50,4,1,0,95,0,1
67843,-50,4,1,0,5,0,1
67936,-50,4,1,0,95,0,1
68029,-50,4,1,0,5,0,1
68214,-50,4,1,0,95,0,1
68491,-50,4,1,0,5,0,1
68584,-50,4,1,0,95,0,1
68769,-50,4,1,0,5,0,1
68862,-50,4,1,0,95,0,1
69047,-50,4,1,0,5,0,1
69140,-50,4,1,0,95,0,1
69325,-50,4,1,0,5,0,1
69417,-50,4,1,0,95,0,1
69603,-50,4,1,0,5,0,1
69695,-50,4,1,0,95,0,1
69788,-50,4,1,0,5,0,1
69880,-50,4,1,0,95,0,1
70066,-50,4,1,0,5,0,1
70158,-50,4,1,0,95,0,1
70343,-50,4,1,0,5,0,1
70436,-50,4,1,0,95,0,1
70806,-50,4,1,0,5,0,1
71084,-50,4,1,0,95,0,1
71177,-50,4,1,0,5,0,1
71269,-50,4,1,0,95,0,1
71362,-50,4,1,0,5,0,1
71454,-50,4,1,0,95,0,1
71547,-50,4,1,0,5,0,1
71640,-50,4,1,0,95,0,1
71825,-50,4,1,0,5,0,1
71917,-50,4,1,0,95,0,1
72010,-50,4,1,0,5,0,1
72103,-50,4,1,0,95,0,1
72288,-50,4,1,0,5,0,1
72380,-50,4,1,0,95,0,1
72473,-50,4,1,0,5,0,1
72566,-50,4,1,0,95,0,1
73029,-50,4,1,0,5,0,1
73306,-50,4,1,0,95,0,1
73399,-50,4,1,0,5,0,1
73491,-50,4,1,0,95,0,1
73584,-50,4,1,0,5,0,1
73677,-50,4,1,0,95,0,1
73769,-50,4,1,0,5,0,1
73862,-50,4,1,0,95,0,1
74047,-50,4,1,0,5,0,1
74140,-50,4,1,0,95,0,1
74232,-50,4,1,0,5,0,1
74325,-50,4,1,0,95,0,1
74510,-50,4,1,0,5,0,1
74603,-50,4,1,0,95,0,1
74695,-50,4,1,0,5,0,1
74788,-50,4,1,0,95,0,1
75251,-50,4,1,0,5,0,1
75436,-50,4,1,0,95,0,1
75621,-50,4,1,0,5,0,1
75714,-50,4,1,0,95,0,1
75806,-50,4,1,0,95,0,1
75899,-50,4,1,0,5,0,1
76084,-50,4,1,0,85,0,0
77195,-50,4,1,0,5,0,0
77380,-50,4,1,0,85,0,0
77843,-50,4,1,0,5,0,0
77936,-50,4,1,0,85,0,0
79047,-50,4,1,0,5,0,0
79140,-50,4,1,0,85,0,0
79232,-50,4,1,0,5,0,0
79417,-50,4,1,0,85,0,0
79880,-50,4,1,0,85,0,0
80158,-50,4,1,0,5,0,0
80251,-50,4,1,0,85,0,0
80343,-50,4,1,0,5,0,0
80529,-50,4,1,0,85,0,0
81547,-50,4,1,0,85,0,0
81732,-50,4,1,0,5,0,0
81732,-50,4,1,0,5,0,0
81825,-50,4,1,0,85,0,0
81917,-50,4,1,0,85,0,0
82010,-50,4,1,0,5,0,0
82103,-50,4,1,0,85,0,0
82288,-50,4,1,0,5,0,0
82380,-50,4,1,0,85,0,0
82751,-50,4,1,0,85,0,0
82936,-50,4,1,0,85,0,0
83399,-50,4,1,0,5,0,0
83491,-50,4,1,0,85,0,0
83769,-50,4,1,0,5,0,0
83862,-50,4,1,0,85,0,0
83954,-50,4,1,0,5,0,0
84047,-50,4,1,0,85,0,0
84232,-50,4,1,0,5,0,0
84325,-50,4,1,0,85,0,0
84603,-50,4,1,0,5,0,0
84695,-50,4,1,0,85,0,0
84880,-50,4,1,0,5,0,0
84973,-25,4,1,0,85,0,0
87195,-25,4,1,0,85,0,0
88306,-111.111111111111,4,1,0,85,0,0
89140,-111.111111111111,4,1,0,5,0,0

[HitObjects]
91,116,529,5,0,0:0:0:0:
288,160,714,1,0,0:0:0:0:
302,115,806,1,0,0:0:0:0:
108,189,991,1,0,0:0:0:0:
127,229,1084,1,0,0:0:0:0:
303,322,1269,5,0,0:0:0:0:
331,289,1362,1,0,0:0:0:0:
356,133,1547,2,0,L|320:113,1,33.3333333333333
88,131,1825,1,0,0:0:0:0:
108,161,1917,1,0,0:0:0:0:
293,297,2103,2,0,L|337:251,1,33.3333333333333
394,132,2380,5,0,0:0:0:0:
349,102,2473,1,0,0:0:0:0:
106,126,2751,5,0,0:0:0:0:
195,288,2936,1,0,0:0:0:0:
237,289,3029,1,0,0:0:0:0:
382,123,3214,1,0,0:0:0:0:
339,108,3306,2,0,L|266:85,1,66.6666666666667
225,150,3584,2,0,L|266:189,1,33.3333333333333
392,308,3862,5,0,0:0:0:0:
415,155,4047,1,0,0:0:0:0:
384,134,4140,1,0,0:0:0:0:
198,135,4325,2,0,P|154:162|121:188,1,66.6666666666667
171,281,4695,2,0,L|212:277,1,33.3333333333333
359,140,4973,5,0,0:0:0:0:
191,83,5158,1,0,0:0:0:0:
169,111,5251,1,0,0:0:0:0:
265,316,5436,1,0,0:0:0:0:
305,297,5529,1,0,0:0:0:0:
404,132,5714,1,0,0:0:0:0:
373,105,5806,1,0,0:0:0:0:
213,89,5991,6,0,L|166:91,1,33.3333333333333
51,201,6269,1,0,0:0:0:0:
70,232,6362,1,0,0:0:0:0:
226,327,6547,2,0,L|266:323,1,33.3333333333333
417,188,6825,1,0,0:0:0:0:
386,157,6917,1,0,0:0:0:0:
156,113,7195,5,0,0:0:0:0:
243,325,7380,1,0,0:0:0:0:
281,319,7473,1,0,0:0:0:0:
395,151,7658,1,0,0:0:0:0:
359,130,7751,1,0,0:0:0:0:
115,97,7936,1,0,0:0:0:0:
107,142,8029,2,0,P|105:188|116:222,1,66.6666666666667
256,323,8306,5,0,0:0:0:0:
403,176,8491,1,0,0:0:0:0:
362,145,8584,1,0,0:0:0:0:
204,94,8769,2,0,P|145:95|87:118,1,100
108,188,9140,2,0,L|151:204,1,33.3333333333333
364,299,9417,5,0,0:0:0:0:
247,98,9880,1,0,0:0:0:0:
195,127,9973,1,0,0:0:0:0:
297,323,10158,1,0,0:0:0:0:
397,136,10436,1,0,0:0:0:0:
148,168,10714,1,0,0:0:0:0:
315,327,10991,2,0,L|365:301,1,33.3333333333333
433,140,11269,1,0,0:0:0:0:
379,110,11362,1,0,0:0:0:0:
260,78,11640,6,0,P|220:77|223:83,1,66.6666666666667
116,223,11917,6,0,P|166:275|220:301,1,93.3333304850261
324,324,12195,2,0,P|386:283|406:214,1,139.999995727539
305,144,12658,1,0,0:0:0:0:
164,86,12936,2,0,L|146:134,1,46.6666652425131
161,276,13214,1,0,0:0:0:0:
211,310,13306,1,0,0:0:0:0:
412,211,13584,2,0,P|414:149|339:101,1,139.999995727539
92,192,14140,1,0,0:0:0:0:
288,312,14417,2,0,P|368:288|384:268,1,93.3333304850261
352,80,14880,2,0,P|280:76|136:100,1,186.666660970052
124,276,15436,5,0,0:0:0:0:
164,300,15529,1,0,0:0:0:0:
336,304,15714,1,0,0:0:0:0:
360,276,15806,2,0,L|380:228,1,46.6666652425131
308,196,15991,2,0,L|286:239,1,46.6666652425131
240,80,16362,5,0,0:0:0:0:
112,176,16547,1,0,0:0:0:0:
144,224,16640,2,0,P|200:248|237:248,1,93.3333304850261
332,236,16917,1,0,0:0:0:0:
252,112,17103,1,0,0:0:0:0:
96,160,17288,2,0,P|112:224|188:300,1,139.999995727539
226,308,17658,1,0,0:0:0:0:
300,299,17751,2,0,P|337:249|323:190,1,93.3333304850261
269,156,18029,2,0,L|219:222,1,46.6666652425131
392,316,18306,5,0,0:0:0:0:
377,152,18584,5,0,0:0:0:0:
233,60,18769,1,0,0:0:0:0:
211,88,18862,1,0,0:0:0:0:
187,220,19047,1,0,0:0:0:0:
352,270,19325,2,0,P|391:233|382:178,1,93.3333304850261
289,139,19603,2,0,P|227:165|217:241,1,139.999995727539
250,297,19973,1,0,0:0:0:0:
392,233,20158,1,0,0:0:0:0:
397,187,20251,1,0,0:0:0:0:
284,107,20436,1,0,0:0:0:0:
115,195,20806,5,0,0:0:0:0:
262,262,20991,2,0,P|332:283|349:246,1,93.3333304850261
361,172,21269,2,0,L|309:152,1,46.6666652425131
176,137,21547,2,0,P|137:177|164:217,1,93.3333304850261
301,291,21825,1,0,0:0:0:0:
341,264,21917,1,0,0:0:0:0:
363,122,22103,1,0,0:0:0:0:
324,99,22195,2,0,P|303:87|270:88,1,46.6666652425131
155,151,22380,1,0,0:0:0:0:
151,183,22473,2,0,P|184:237|242:271,1,93.3333304850261
429,252,22751,6,0,P|431:187|409:145,1,93.3333304850261
315,108,23029,1,0,0:0:0:0:
176,192,23306,1,0,0:0:0:0:
244,300,23491,2,0,L|288:268,1,46.6666652425131
356,100,23769,2,0,L|300:76,1,46.6666652425131
158,153,24325,1,0,0:0:0:0:
186,210,24417,1,0,0:0:0:0:
364,221,24603,1,0,0:0:0:0:
394,170,24695,1,0,0:0:0:0:
269,57,24880,2,0,L|226:74,1,46.6666652425131
160,268,25251,6,0,L|200:232,1,46.6666652425131
351,127,25436,1,0,0:0:0:0:
309,101,25529,2,0,L|259:117,1,46.6666652425131
173,272,25806,2,0,L|231:303,1,46.6666652425131
406,293,25991,2,0,P|437:247|430:190,1,93.3333304850261
304,92,26269,2,0,P|235:89|172:130,1,139.999995727539
165,300,26640,2,0,P|241:329|282:322,1,93.3333304850261
386,248,26917,2,0,P|354:210|235:156,1,139.999995727539
150,267,27473,6,0,P|208:294|251:303,1,93.3333304850261
410,242,27751,2,0,L|356:220,1,46.6666652425131
307,106,27936,2,0,P|252:114|206:154,1,93.3333304850261
136,301,28214,2,0,P|207:328|245:322,1,93.3333304850261
416,269,28491,2,0,P|401:219|348:182,1,93.3333304850261
214,96,28769,1,0,0:0:0:0:
182,136,28862,2,0,L|196:181,1,46.6666652425131
318,273,29047,1,0,0:0:0:0:
349,232,29140,2,0,P|382:171|366:128,1,93.3333304850261
187,80,29417,6,0,B|192:75|145:119|119:224|80:371|502:388|351:-82|61:168|157:330,1,559.999982910157
272,339,30714,1,0,0:0:0:0:
309,308,30806,2,0,B|343:269|338:222|296:173,2,139.999995727539
272,339,31640,5,0,0:0:0:0:
111,267,31917,2,0,P|106:194|125:155,1,93.3333304850261
251,105,32195,2,0,L|277:162,1,46.6666652425131
341,317,32380,2,0,P|310:358|274:330,1,93.3333304850261
150,202,32658,2,0,P|167:157|230:197,1,139.999995727539
252,333,33029,2,0,L|176:308,1,46.6666652425131
188,175,33306,2,0,L|244:156,1,46.6666652425131
444,230,33584,2,0,P|408:298|321:322,1,139.999995727539
103,258,34140,6,0,P|102:191|124:150,1,93.3333304850261
242,99,34417,2,0,L|270:151,1,46.6666652425131
371,89,34603,2,0,L|393:164,1,46.6666652425131
432,298,34788,2,0,L|371:323,1,46.6666652425131
314,339,34973,2,0,P|258:323|199:288,1,93.3333304850261
122,167,35251,2,0,P|186:134|245:131,1,93.3333304850261
432,202,35529,2,0,B|428:237|423:252|416:269|413:293|394:308|360:313|338:313|294:306|262:282|276:192,1,279.999991455078
153,147,36362,6,0,L|200:105,1,46.6666652425131
313,186,36547,2,0,L|255:262,1,93.3333304850261
88,293,36825,2,0,P|64:232|80:167,1,93.3333304850261
223,89,37103,2,0,P|280:92|352:187,1,139.999995727539
281,313,37473,2,0,P|209:290|180:261,1,93.3333304850261
102,115,37751,2,0,P|138:80|191:97,1,93.3333304850261
222,189,38029,2,0,P|197:227|153:232,1,93.3333304850261
57,84,38306,6,0,B|112:57|212:56|269:84|308:115|312:151,1,279.999991455078
356,277,39047,1,0,0:0:0:0:
347,318,39140,2,0,P|294:324|216:305,1,93.3333304850261
66,202,39417,2,0,B|117:182|287:197|371:168|353:84|219:35|123:40|197:318,1,559.999982910157
330,324,40806,6,0,L|343:271,1,46.6666652425131
345,160,40991,2,0,L|267:124,1,46.6666652425131
125,116,41269,2,0,P|102:166|120:217,1,93.3333304850261
294,321,41547,2,0,P|336:273|336:179,1,139.999995727539
216,97,41917,2,0,P|145:84|140:124,1,93.3333304850261
87,242,42195,2,0,L|187:305,1,93.3333304850261
247,218,42473,2,0,L|155:162,1,93.3333304850261
47,226,42751,6,0,P|72:301|109:342,1,93.3333304850261
225,330,43029,2,0,L|281:293,1,46.6666652425131
366,239,43214,2,0,P|355:179|333:150,1,93.3333304850261
176,60,43491,2,0,P|127:100|108:134,1,93.3333304850261
141,271,43769,1,0,0:0:0:0:
177,313,43862,2,0,L|220:277,1,46.6666652425131
343,177,44047,1,0,0:0:0:0:
312,152,44140,2,0,P|256:122|183:117,1,93.3333304850261
93,177,44417,2,0,P|116:246|186:305,1,139.999995727539
343,255,44973,6,0,B|350:185|328:145|260:94|194:104|193:201|241:253|329:239|410:152|410:152|434:127|364:83|440:125|457:131|501:140|437:105|397:78,1,559.999982910157
256,138,47195,6,0,B|231:203|238:261|250:302|286:323|396:285,1,266.666666666667
435,192,47751,2,0,B|411:105|355:77|319:65|266:63|248:173,1,283.333338737488
231,277,48306,2,0,B|283:332|321:323|356:319|399:302|421:285|462:272|431:179,1,299.999990844727
337,103,48862,2,0,B|261:118|158:138|149:199|185:238|246:291,1,316.666658210755
240,120,49417,6,0,B|312:176|432:184|472:112|396:44|208:52,1,400
92,136,50251,2,0,L|152:200,1,66.6666666666667
240,168,50436,2,0,L|120:56,1,133.333333333333
16,124,50806,2,0,P|50:197|68:213,1,66.6666666666667
249,310,51084,2,0,P|293:308|245:247,1,133.333333333333
145,197,51362,2,0,P|144:236|163:267,1,66.6666666666667
444,299,51640,6,0,B|473:186|439:95|394:48|301:27|321:233,1,400
298,333,52473,2,0,P|238:313|218:285,1,66.6666666666667
142,238,52658,2,0,P|117:189|225:175,1,200
286,249,53029,2,0,P|326:228|330:195,1,66.6666666666667
315,93,53306,2,0,B|236:73|198:95|172:120|129:215,2,200
461,161,54140,6,0,P|481:215|403:285,1,133.333333333333
344,297,54417,2,0,L|268:268,1,66.6666666666667
164,210,54603,2,0,P|177:159|260:191,1,133.333333333333
401,251,54973,2,0,P|362:337|296:309,1,133.333333333333
261,262,55251,2,0,P|262:215|290:180,1,66.6666666666667
405,107,55529,2,0,P|447:174|430:212,1,66.6666666666667
392,298,55806,2,0,P|311:324|276:303,1,66.6666666666667
109,302,56084,6,0,P|80:235|226:60,1,266.666666666667
230,132,56547,2,0,P|164:176|206:288,1,200
328,282,56917,2,0,P|374:200|312:129,1,200
465,213,57473,6,0,P|417:121|353:77,1,133.333333333333
140,96,57751,2,0,P|188:120|200:152,1,66.6666666666667
208,332,57936,2,0,P|172:352|128:340,1,66.6666666666667
314,265,58306,6,0,B|387:203|382:136|284:66|67:83|207:259,1,400
247,347,59140,2,0,L|313:313,1,66.6666666666667
455,251,59325,2,0,P|493:221|422:199,1,133.333333333333
285,207,59695,2,0,P|250:242|166:263,1,133.333333333333
10,267,59973,2,0,P|-3:218|38:130,1,133.333333333333
112,170,60251,2,0,P|132:217|109:250,1,66.6666666666667
407,200,60529,6,0,B|473:115|450:23|317:21|206:203,1,400
125,331,61362,2,0,L|80:265,1,66.6666666666667
61,128,61547,2,0,P|88:96|184:160,1,133.333333333333
207,272,61917,2,0,P|240:320|316:287,1,133.333333333333
398,151,62195,2,0,P|383:74|257:53,2,200
440,266,63029,6,0,P|422:318|344:305,1,133.333333333333
295,189,63306,2,0,P|280:141|232:102,1,66.6666666666667
138,51,63491,2,0,P|60:85|57:128,1,133.333333333333
109,318,63862,2,0,P|165:343|252:311,1,133.333333333333
346,255,64140,2,0,P|391:223|403:175,1,66.6666666666667
296,58,64417,2,0,P|270:57|218:82,1,66.6666666666667
113,243,64695,2,0,P|148:274|200:280,1,66.6666666666667
433,206,64973,6,0,P|424:149|224:39,1,266.666666666667
239,114,65436,2,0,P|323:142|340:247,1,200
289,345,65806,2,0,P|190:353|166:161,1,333.333333333333
313,72,66362,2,0,P|382:92|391:155,1,133.333333333333
366,294,66640,2,0,P|322:331|283:330,1,66.6666666666667
204,217,66825,2,0,P|224:170|420:162,1,266.666666666667
308,333,67473,6,0,P|252:334|169:302,1,133.333333333333
56,174,67751,2,0,P|142:129|174:129,1,66.6666666666667
318,142,67936,2,0,P|370:167|389:188,1,66.6666666666667
341,356,68214,2,0,P|244:362|132:307,1,200
8,158,68584,2,0,P|71:89|111:82,1,133.333333333333
343,83,68862,2,0,P|368:132|316:194,1,133.333333333333
101,192,69140,2,0,P|72:133|165:83,1,133.333333333333
323,56,69417,2,0,P|372:60|410:170,1,133.333333333333
410,301,69695,2,0,P|382:330|335:331,1,66.6666666666667
131,329,69880,2,0,P|77:286|133:216,1,133.333333333333
257,122,70158,2,0,P|331:154|340:225,1,133.333333333333
285,348,70436,6,0,P|222:352|41:220,1,266.666666666667
144,120,71084,2,0,L|185:208,1,66.6666666666667
258,320,71269,2,0,L|257:240,1,66.6666666666667
357,117,71454,2,0,L|314:212,1,66.6666666666667
233,331,71640,2,0,P|146:311|81:251,1,133.333333333333
41,129,71917,2,0,P|52:77|93:68,1,66.6666666666667
254,72,72103,2,0,P|306:116|310:200,1,133.333333333333
246,289,72380,2,0,P|211:296|148:277,1,66.6666666666667
64,188,72566,6,0,B|81:120|148:94|191:106|198:113|229:172|220:221|189:275|111:177,1,333.333333333333
147,312,73306,6,0,L|183:227,1,66.6666666666667
256,54,73491,2,0,L|256:149,1,66.6666666666667
353,322,73677,2,0,L|314:248,1,66.6666666666667
210,65,73862,2,0,B|137:31|137:31|127:107,1,133.333333333333
125,238,74140,2,0,B|126:292|126:292|174:291,1,66.6666666666667
398,264,74325,2,0,B|422:188|422:188|339:146,1,133.333333333333
156,124,74603,2,0,B|125:136|125:137|125:137|140:192,1,66.6666666666667
235,303,74788,6,0,B|324:331|324:331|405:293|405:290|394:213|394:213|291:177,1,333.333333333333
140,150,75436,2,0,P|64:141|94:106,1,133.333333333333
123,60,75714,1,0,0:0:0:0:
236,104,75806,2,0,L|295:164,1,66.6666666666667
187,192,76084,5,0,0:0:0:0:
345,294,76269,1,0,0:0:0:0:
383,224,76362,1,0,0:0:0:0:
283,88,76547,1,0,0:0:0:0:
211,53,76640,1,0,0:0:0:0:
148,216,76825,1,0,0:0:0:0:
209,268,76917,1,0,0:0:0:0:
355,298,77103,6,0,P|391:268|388:230,1,66.6666666666667
338,123,77380,1,0,0:0:0:0:
270,87,77473,1,0,0:0:0:0:
124,147,77658,2,0,P|68:219|96:259,1,133.333333333333
219,315,77936,1,0,0:0:0:0:
291,280,78029,1,0,0:0:0:0:
399,145,78306,5,0,0:0:0:0:
284,92,78491,1,0,0:0:0:0:
212,119,78584,1,0,0:0:0:0:
149,217,78769,1,0,0:0:0:0:
144,297,78862,2,0,P|206:353|274:335,1,133.333333333333
398,328,79139,2,0,L|382:258,1,66.6666666666667
368,105,79417,5,0,0:0:0:0:
212,79,79602,1,0,0:0:0:0:
153,132,79695,1,0,0:0:0:0:
133,299,79880,2,0,P|201:326|340:296,1,200
433,261,80251,2,0,L|396:187,1,66.6666666666667
378,66,80529,5,0,0:0:0:0:
236,43,80714,1,0,0:0:0:0:
170,101,80806,1,0,0:0:0:0:
77,271,80991,1,0,0:0:0:0:
150,318,81084,1,0,0:0:0:0:
317,326,81269,1,0,0:0:0:0:
387,266,81362,1,0,0:0:0:0:
426,156,81547,2,0,P|446:96|386:64,1,133.333333333333
188,98,81825,1,0,0:0:0:0:
106,128,81917,2,0,P|114:180|125:198,1,66.6666666666667
217,289,82103,2,0,P|281:322|317:278,1,133.333333333333
362,209,82380,1,0,0:0:0:0:
393,124,82473,6,0,B|342:40|305:28|240:24|186:57,1,200
84,149,82936,1,0,0:0:0:0:
128,231,83029,1,0,0:0:0:0:
291,344,83214,1,0,0:0:0:0:
371,303,83306,2,0,L|331:241,1,66.6666666666667
274,101,83491,1,0,0:0:0:0:
182,146,83584,2,0,P|157:224|166:286,1,133.333333333333
327,333,83862,6,0,L|404:283,1,66.6666666666667
405,144,84047,1,0,0:0:0:0:
305,123,84140,2,0,L|211:156,1,66.6666666666667
128,275,84325,2,0,B|213:313|302:293|314:276|318:252,1,200
381,92,84695,2,0,P|298:105|237:137,1,133.333333333333
131,88,84973,6,0,B|104:169|94:253|143:303|206:283|239:227|437:130|201:57|115:316|89:301|185:309,1,400
273,78,85436,1,0,0:0:0:0:
228,91,85529,2,0,B|123:191|123:191|231:263,1,266.666666666667
347,263,85806,2,0,B|441:150|441:150|321:92,1,266.666666666667
153,113,86084,2,0,L|66:268,1,133.333333333333
194,120,86269,2,0,P|225:278|275:222,1,266.666666666667
322,280,86547,2,0,P|409:222|285:134,1,266.666666666667
166,162,86825,1,0,0:0:0:0:
164,202,86917,2,0,P|241:324|307:233,1,266.666666666667
256,89,87195,6,0,B|98:64|98:64|209:169,1,266.666666666667
307,237,87473,2,0,B|442:281|442:281|365:150,1,266.666666666667
223,196,88029,2,0,B|119:282|120:282|121:282|121:282|292:298,1,266.666666666667
391,288,88306,2,0,B|510:229|510:229|511:228|511:228|379:187,1,269.999991760254
