osu file format v14

[General]
AudioFilename: audio.mp3
AudioLeadIn: 0
PreviewTime: 47868
Countdown: 0
SampleSet: Soft
StackLeniency: 0.8
Mode: 0
LetterboxInBreaks: 0
WidescreenStoryboard: 1

[Editor]
Bookmarks: 17148,32508,47864,63224,78584,93944,109304,124664,140024,155384,170744,186104
DistanceSpacing: 1.3
BeatDivisor: 4
GridSize: 4
TimelineZoom: 1.5

[Metadata]
Title:Xiao Ping Guo
TitleUnicode:Xiao Ping Guo
Artist:Chopsticks Bro.
ArtistUnicode:Chopsticks Bro.
Creator:Easy
Version:Normal
Source:Old Boys: The Way of the Dragon
Tags:little apple single kuai zi xiong di 老男孩之猛龙过江
BeatmapID:2160872
BeatmapSetID:1032873

[Difficulty]
HPDrainRate:3
CircleSize:3
OverallDifficulty:4
ApproachRate:5
SliderMultiplier:1.3
SliderTickRate:1

[Events]
//Background and Video events
0,0,"BG.jpg",0,0
Video,-76,"vid.mp4"
//Break Periods
2,78784,92744
//Storyboard Layer 0 (Background)
//Storyboard Layer 1 (Fail)
//Storyboard Layer 2 (Pass)
//Storyboard Layer 3 (Foreground)
//Storyboard Layer 4 (Overlay)
//Storyboard Sound Samples

[TimingPoints]
1784,480,4,2,0,60,1,0
45944,-100,4,2,0,80,0,0
47864,-100,4,2,0,80,0,1
61064,-100,4,2,0,80,0,1
61784,-100,4,2,0,80,0,1
63224,-100,4,2,0,100,0,1
73784,-100,4,2,0,100,0,1
74264,-100,4,2,0,100,0,1
78584,-100,4,2,0,60,0,0
122744,-100,4,2,0,80,0,0
124664,-100,4,2,0,80,0,1
137864,-100,4,2,0,80,0,1
138584,-100,4,2,0,80,0,1
140024,-100,4,2,0,100,0,1
150584,-100,4,2,0,100,0,1
151064,-100,4,2,0,100,0,1
155384,-100,4,2,0,60,0,0
170744,-100,4,2,0,80,0,1
183944,-100,4,2,0,80,0,1
184664,-100,4,2,0,80,0,1
186104,-100,4,2,0,100,0,1
199544,-100,4,2,0,100,0,1
201464,-100,4,2,0,80,0,0

[Colours]
Combo1 : 255,17,100
Combo2 : 255,159,17
Combo3 : 0,231,242
Combo4 : 247,253,15

[HitObjects]
190,232,1784,6,0,L|339:226,1,130
404,224,2504,1,0,0:0:0:0:
371,145,2744,2,0,L|222:151,1,130
157,153,3464,1,0,0:0:0:0:
76,128,3704,6,0,P|71:170|86:211,1,65
145,239,4184,1,0,0:0:0:0:
310,261,4664,2,0,P|315:219|300:178,1,65
241,150,5144,1,0,0:0:0:0:
180,307,5624,6,0,L|329:301,1,130
394,299,6344,1,0,0:0:0:0:
450,236,6584,2,0,P|470:176|441:107,1,130
394,50,7304,1,0,0:0:0:0:
329,104,7544,6,0,L|249:102,1,65
179,101,8024,1,0,0:0:0:0:
157,268,8504,2,0,L|237:270,1,65
307,271,8984,1,0,0:0:0:0:
197,142,9464,6,0,P|174:83|206:13,1,130
257,81,10184,1,0,0:0:0:0:
320,24,10424,2,0,P|343:83|321:143,1,130
257,199,11144,1,0,0:0:0:0:
194,255,11384,2,0,L|61:253,2,130
321,143,12824,1,0,0:0:0:0:
439,263,13304,6,0,P|460:203|437:143,1,130
381,80,14024,1,0,0:0:0:0:
321,143,14264,2,0,P|262:167|201:146,1,130
148,80,14984,1,0,0:0:0:0:
95,146,15224,6,0,L|93:226,1,65
157,265,15704,2,0,L|237:267,1,65
287,213,16184,2,0,L|289:133,1,65
291,63,16664,1,0,0:0:0:0:
146,173,17144,6,0,L|81:171,1,65
83,255,17624,2,0,L|147:256,1,65
222,217,18104,2,0,P|232:265|227:291,2,65
311,73,19064,6,0,L|375:71,1,65
374,155,19544,2,0,L|309:156,1,65
235,117,20024,2,0,P|225:165|230:191,2,65
289,276,20984,6,0,P|240:280|214:273,1,65
147,311,21464,2,0,P|142:262|149:236,1,65
209,192,21944,1,0,0:0:0:0:
43,225,22424,1,0,0:0:0:0:
154,97,22904,2,0,L|283:98,1,130
353,253,23864,2,0,L|223:251,1,130
367,164,24824,6,0,P|371:131|366:99,1,65
283,98,25304,2,0,P|278:130|283:162,1,65
242,236,25784,2,0,L|178:238,1,65
92,241,26264,1,0,0:0:0:0:
240,319,26744,6,0,P|272:323|304:318,1,65
306,235,27224,2,0,P|273:230|241:235,1,65
169,192,27704,2,0,L|171:128,1,65
174,42,28184,1,0,0:0:0:0:
79,182,28664,5,0,0:0:0:0:
79,182,28904,1,0,0:0:0:0:
169,192,29144,2,0,B|203:199|203:199|233:190,1,65
285,255,29624,2,0,B|314:246|314:246|348:253,1,65
397,185,30104,1,0,0:0:0:0:
311,33,30584,6,0,L|231:35,1,65
218,114,31064,2,0,L|138:116,1,65
131,197,31544,2,0,L|210:193,1,65
229,272,32024,2,0,L|308:268,1,65
338,197,32504,5,0,0:0:0:0:
472,299,32984,1,0,0:0:0:0:
425,136,33464,1,0,0:0:0:0:
368,295,33944,1,0,0:0:0:0:
258,166,34424,2,0,P|242:96|263:32,2,130
413,100,35864,1,0,0:0:0:0:
392,268,36344,5,0,0:0:0:0:
258,166,36824,1,0,0:0:0:0:
305,329,37304,1,0,0:0:0:0:
362,170,37784,1,0,0:0:0:0:
216,255,38264,2,0,L|83:253,2,130
362,170,39704,1,0,0:0:0:0:
233,59,40184,5,0,0:0:0:0:
400,82,40664,1,0,0:0:0:0:
252,164,41144,1,0,0:0:0:0:
324,11,41624,1,0,0:0:0:0:
182,103,42104,2,0,P|162:170|182:227,2,130
342,157,43544,1,0,0:0:0:0:
288,317,44024,6,0,L|155:315,1,130
251,174,44984,2,0,L|118:172,1,130
58,115,45704,1,0,0:0:0:0:
120,58,45944,5,0,0:0:0:0:
289,58,46424,1,0,0:0:0:0:
458,58,46904,1,0,0:0:0:0:
458,227,47384,1,0,0:0:0:0:
294,271,47864,6,0,P|260:275|215:260,1,65
176,333,48344,2,0,P|155:305|146:259,1,65
64,258,48824,2,0,P|77:226|113:195,1,65
182,193,49304,1,0,0:0:0:0:
348,167,49784,6,0,L|283:163,1,65
228,99,50264,2,0,L|163:102,1,65
99,157,50744,2,0,P|100:235|146:278,1,130
297,306,51704,6,0,P|301:274|296:242,1,65
214,218,52184,2,0,P|208:185|212:153,1,65
285,109,52664,2,0,L|349:112,1,65
431,90,53144,1,0,0:0:0:0:
276,22,53624,5,0,0:0:0:0:
276,22,53864,1,0,0:0:0:0:
204,67,54104,2,0,P|171:72|139:68,1,65
87,134,54584,2,0,P|92:166|88:198,1,65
41,269,55064,1,0,0:0:0:0:
189,188,55544,6,0,L|318:189,1,130
218,54,56504,2,0,L|347:55,1,130
461,180,57464,1,0,0:0:0:0:
340,298,57944,1,0,0:0:0:0:
256,151,58424,2,0,P|188:149|160:222,1,130
177,278,59144,1,0,0:0:0:0:
94,258,59384,6,0,P|76:227|74:176,1,65
69,113,59864,2,0,P|74:81|91:53,1,65
170,84,60344,2,0,L|234:81,1,65
319,74,60824,5,0,0:0:0:0:
395,38,61064,2,0,P|402:103|351:159,1,130
410,223,61784,2,0,P|378:236|334:234,1,65
278,285,62264,2,0,P|265:253|267:209,1,65
281,140,62744,1,0,0:0:0:0:
171,268,63224,6,0,L|91:265,1,65
49,203,63704,2,0,L|52:123,1,65
115,83,64184,2,0,L|179:85,1,65
254,125,64664,1,0,0:0:0:0:
256,293,65144,6,0,P|323:310|379:288,2,130
122,202,66584,1,0,0:0:0:0:
258,102,67064,2,0,B|311:89|334:124|387:103,1,130
249,200,68024,2,0,B|196:187|173:222|120:201,1,130
74,131,68744,1,0,0:0:0:0:
36,206,68984,6,0,P|31:238|36:270,1,65
90,335,69464,2,0,P|122:339|154:334,1,65
198,261,69944,1,0,0:0:0:0:
355,323,70424,1,0,0:0:0:0:
459,190,70904,6,0,L|330:191,1,130
430,56,71864,2,0,L|301:57,1,130
200,193,72824,1,0,0:0:0:0:
82,72,73304,1,0,0:0:0:0:
101,238,73784,2,0,P|169:240|197:167,1,130
167,114,74504,1,0,0:0:0:0:
250,124,74744,6,0,P|279:110|301:86,1,65
386,87,75224,2,0,P|408:110|437:124,1,65
444,208,75704,2,0,P|414:221|392:245,1,65
308,245,76184,2,0,P|285:221|256:207,1,65
180,244,76664,1,0,0:0:0:0:
280,108,77144,1,0,0:0:0:0:
125,175,77624,2,0,P|95:225|124:313,1,130
256,207,78584,5,0,0:0:0:0:
181,125,93944,6,0,P|188:173|182:199,1,65
100,194,94424,2,0,P|92:145|98:119,1,65
129,52,94904,2,0,L|50:45,2,65
298,52,95864,6,0,P|346:47|372:54,1,65
362,136,96344,2,0,P|313:140|287:133,1,65
222,100,96824,2,0,L|210:178,2,65
110,227,97784,6,0,L|108:291,1,65
192,297,98264,2,0,L|256:299,1,65
341,305,98744,1,0,0:0:0:0:
206,202,99224,1,0,0:0:0:0:
375,202,99704,2,0,B|393:139|393:139|363:54,1,130
202,78,100664,2,0,B|183:140|183:140|213:225,1,130
323,80,101624,6,0,L|388:78,1,65
386,162,102104,2,0,L|322:163,1,65
247,124,102584,2,0,P|237:172|242:198,1,65
266,267,103064,1,0,0:0:0:0:
105,214,103544,6,0,L|40:212,1,65
42,296,104024,2,0,L|106:297,1,65
183,261,104504,2,0,P|193:213|188:187,1,65
164,118,104984,1,0,0:0:0:0:
287,233,105464,5,0,0:0:0:0:
287,233,105704,1,0,0:0:0:0:
362,194,105944,2,0,B|355:160|355:160|364:130,1,65
284,101,106424,2,0,B|293:72|293:72|286:38,1,65
201,39,106904,1,0,0:0:0:0:
47,108,107384,6,0,L|127:110,1,65
140,189,107864,2,0,L|220:191,1,65
287,173,108344,2,0,P|288:205|279:236,1,65
338,296,108824,2,0,P|310:313|279:320,1,65
199,292,109304,5,0,0:0:0:0:
65,190,109784,1,0,0:0:0:0:
112,353,110264,1,0,0:0:0:0:
169,194,110744,1,0,0:0:0:0:
309,288,111224,2,0,P|379:272|443:293,2,130
388,138,112664,1,0,0:0:0:0:
230,198,113144,5,0,0:0:0:0:
128,64,113624,1,0,0:0:0:0:
291,111,114104,1,0,0:0:0:0:
132,168,114584,1,0,0:0:0:0:
268,267,115064,2,0,L|401:265,2,130
132,168,116504,1,0,0:0:0:0:
301,168,116984,5,0,0:0:0:0:
435,66,117464,1,0,0:0:0:0:
388,229,117944,1,0,0:0:0:0:
331,70,118424,1,0,0:0:0:0:
209,187,118904,2,0,P|139:171|75:192,2,130
130,37,120344,1,0,0:0:0:0:
279,115,120824,6,0,L|408:110,1,130
305,243,121784,2,0,L|175:247,1,130
117,186,122504,1,0,0:0:0:0:
162,112,122744,5,0,0:0:0:0:
17,24,123224,1,0,0:0:0:0:
17,192,123704,1,0,0:0:0:0:
162,112,124184,1,0,0:0:0:0:
218,271,124664,6,0,P|252:275|297:260,1,65
336,333,125144,2,0,P|357:305|366:259,1,65
448,258,125624,2,0,P|435:226|399:195,1,65
330,193,126104,1,0,0:0:0:0:
164,167,126584,6,0,L|229:163,1,65
284,99,127064,2,0,L|349:102,1,65
413,157,127544,2,0,P|412:235|366:278,1,130
215,306,128504,6,0,P|211:274|216:242,1,65
298,218,128984,2,0,P|304:185|300:153,1,65
227,109,129464,2,0,L|163:112,1,65
81,90,129944,1,0,0:0:0:0:
236,22,130424,5,0,0:0:0:0:
236,22,130664,1,0,0:0:0:0:
308,67,130904,2,0,P|341:72|373:68,1,65
425,134,131384,2,0,P|420:166|424:198,1,65
471,269,131864,1,0,0:0:0:0:
323,188,132344,6,0,L|194:189,1,130
294,54,133304,2,0,L|165:55,1,130
51,180,134264,1,0,0:0:0:0:
172,298,134744,1,0,0:0:0:0:
256,151,135224,2,0,P|324:149|352:222,1,130
335,278,135944,1,0,0:0:0:0:
418,258,136184,6,0,P|436:227|438:176,1,65
443,113,136664,2,0,P|438:81|421:53,1,65
342,84,137144,2,0,L|278:81,1,65
193,74,137624,5,0,0:0:0:0:
117,38,137864,2,0,P|110:103|161:159,1,130
102,223,138584,2,0,P|134:236|178:234,1,65
234,285,139064,2,0,P|247:253|245:209,1,65
231,140,139544,1,0,0:0:0:0:
341,268,140024,6,0,L|421:265,1,65
463,203,140504,2,0,L|460:123,1,65
397,83,140984,2,0,L|333:85,1,65
258,125,141464,1,0,0:0:0:0:
256,293,141944,6,0,P|189:310|133:288,2,130
390,202,143384,1,0,0:0:0:0:
254,102,143864,2,0,B|201:89|178:124|125:103,1,130
263,200,144824,2,0,B|316:187|339:222|392:201,1,130
438,131,145544,1,0,0:0:0:0:
476,206,145784,6,0,P|481:238|476:270,1,65
422,335,146264,2,0,P|390:339|358:334,1,65
314,261,146744,1,0,0:0:0:0:
157,323,147224,1,0,0:0:0:0:
53,190,147704,6,0,L|182:191,1,130
82,56,148664,2,0,L|211:57,1,130
312,193,149624,1,0,0:0:0:0:
430,72,150104,1,0,0:0:0:0:
411,238,150584,2,0,P|343:240|315:167,1,130
345,114,151304,1,0,0:0:0:0:
262,124,151544,6,0,P|233:110|211:86,1,65
126,87,152024,2,0,P|104:110|75:124,1,65
68,208,152504,2,0,P|98:221|120:245,1,65
204,245,152984,2,0,P|227:221|256:207,1,65
332,244,153464,1,0,0:0:0:0:
232,108,153944,1,0,0:0:0:0:
387,175,154424,2,0,P|417:225|388:313,1,130
256,207,155384,5,0,0:0:0:0:
108,289,155864,1,0,0:0:0:0:
29,139,156344,2,0,L|158:140,1,130
297,43,157304,1,0,0:0:0:0:
343,205,157784,1,0,0:0:0:0:
183,149,158264,2,0,P|158:201|196:286,1,130
327,347,159224,5,0,0:0:0:0:
409,199,159704,1,0,0:0:0:0:
240,212,160184,2,0,L|111:211,1,130
109,41,161144,1,0,0:0:0:0:
257,123,161624,1,0,0:0:0:0:
415,64,162104,2,0,P|439:116|401:201,1,130
286,287,163064,5,0,0:0:0:0:
257,123,163544,1,0,0:0:0:0:
103,193,164024,2,0,L|102:64,1,130
257,123,164984,1,0,0:0:0:0:
405,41,165464,1,0,0:0:0:0:
451,203,165944,2,0,P|390:222|331:197,1,130
219,70,166904,5,0,0:0:0:0:
190,234,167384,1,0,0:0:0:0:
331,326,167864,2,0,L|460:325,1,130
356,192,168824,5,0,0:0:0:0:
190,234,169304,1,0,0:0:0:0:
212,66,169784,1,0,0:0:0:0:
130,86,170024,1,0,0:0:0:0:
48,108,170264,1,0,0:0:0:0:
120,259,170744,6,0,P|154:263|199:248,1,65
238,321,171224,2,0,P|259:293|268:247,1,65
350,246,171704,2,0,P|337:214|301:183,1,65
232,181,172184,1,0,0:0:0:0:
333,45,172664,6,0,L|268:49,1,65
199,98,173144,2,0,L|134:94,1,65
69,39,173624,2,0,P|49:114|83:168,1,130
231,211,174584,6,0,P|263:205|295:209,1,65
347,276,175064,2,0,P|379:279|411:274,1,65
457,203,175544,2,0,L|454:139,1,65
448,53,176024,1,0,0:0:0:0:
293,122,176504,5,0,0:0:0:0:
293,122,176744,1,0,0:0:0:0:
227,175,176984,2,0,P|194:180|162:176,1,65
96,228,177464,2,0,P|92:260|97:292,1,65
170,334,177944,1,0,0:0:0:0:
254,325,178184,1,0,0:0:0:0:
303,256,178424,6,0,P|368:239|432:257,1,130
319,124,179384,2,0,P|254:107|190:125,1,130
59,224,180344,1,0,0:0:0:0:
223,263,180824,1,0,0:0:0:0:
319,124,181304,2,0,P|387:122|415:195,1,130
384,247,182024,1,0,0:0:0:0:
303,220,182264,6,0,P|272:202|221:200,1,65
240,112,182744,2,0,P|208:117|180:134,1,65
159,217,183224,2,0,L|95:214,1,65
31,157,183704,5,0,0:0:0:0:
49,74,183944,2,0,P|101:38|164:49,1,130
180,133,184664,2,0,P|212:146|256:144,1,65
312,195,185144,2,0,P|325:163|323:119,1,65
309,50,185624,1,0,0:0:0:0:
408,186,186104,6,0,L|405:266,1,65
343,308,186584,2,0,L|263:305,1,65
223,242,187064,2,0,L|225:178,1,65
280,113,187544,1,0,0:0:0:0:
120,168,188024,6,0,P|103:101|125:45,2,130
250,275,189464,1,0,0:0:0:0:
329,125,189944,2,0,B|382:112|405:147|458:126,1,130
377,273,190904,2,0,B|324:260|301:295|248:274,1,130
197,207,191624,1,0,0:0:0:0:
161,283,191864,6,0,P|129:287|97:282,1,65
41,219,192344,2,0,P|36:187|41:155,1,65
103,97,192824,1,0,0:0:0:0:
257,165,193304,1,0,0:0:0:0:
411,232,193784,6,0,P|430:166|410:103,1,130
257,165,194744,2,0,P|238:231|258:294,1,130
415,341,195704,1,0,0:0:0:0:
430,172,196184,1,0,0:0:0:0:
257,165,196664,2,0,L|123:169,1,130
63,113,197384,1,0,0:0:0:0:
100,37,197624,6,0,P|131:32|163:37,1,65
238,77,198104,2,0,P|269:82|301:77,1,65
381,47,198584,2,0,P|385:78|380:110,1,65
341,185,199064,2,0,P|335:216|340:248,1,65
398,311,199544,1,0,0:0:0:0:
257,217,200024,1,0,0:0:0:0:
114,307,200504,2,0,P|172:329|246:296,1,130
360,195,201464,5,0,0:0:0:0:
360,195,201944,1,0,0:0:0:0:
256,61,202424,1,0,0:0:0:0:
424,76,202904,1,0,0:0:0:0:
276,157,203384,5,0,0:0:0:0:
276,157,203864,1,0,0:0:0:0:
118,93,204344,1,0,0:0:0:0:
271,22,204824,1,0,0:0:0:0:
186,168,205304,5,0,0:0:0:0:
186,168,205784,1,0,0:0:0:0:
343,229,206264,1,0,0:0:0:0:
191,303,206744,1,0,0:0:0:0:
276,157,207224,5,0,0:0:0:0:
276,157,207704,1,0,0:0:0:0:
297,324,208184,1,0,0:0:0:0:
406,195,208664,1,0,0:0:0:0:
244,245,209144,6,0,B|187:261|187:261|97:252,2,130
244,75,210584,1,0,0:0:0:0:
