osu file format v14

[General]
AudioFilename: audio.mp3
AudioLeadIn: 0
PreviewTime: 16870
Countdown: 0
SampleSet: Soft
StackLeniency: 0.7
Mode: 2
LetterboxInBreaks: 0
WidescreenStoryboard: 1

[Editor]
Bookmarks: 34470,42470,69670,87270,141670
DistanceSpacing: 1.2
BeatDivisor: 6
GridSize: 8
TimelineZoom: 2.799999

[Metadata]
Title:Etude Op. 25, No. 12 (meganeko Remix)
TitleUnicode:Étude Op. 25, No. 12 (meganeko Remix)
Artist:Chopin
ArtistUnicode:Chopin
Creator:WildOne94
Version:Salad
Source:
Tags:Electronic Instrumental JBHyperion JBH Happy Halloween 2017 dubstep classical classic
BeatmapID:2330400
BeatmapSetID:1115500

[Difficulty]
HPDrainRate:4
CircleSize:2.5
OverallDifficulty:6.5
ApproachRate:6.5
SliderMultiplier:1.5
SliderTickRate:0.5

[Events]
//Background and Video events
0,0,"meganeko bg.jpg",0,0
//Break Periods
2,77870,83095
//Storyboard Layer 0 (Background)
//Storyboard Layer 1 (Fail)
//Storyboard Layer 2 (Pass)
//Storyboard Layer 3 (Foreground)
//Storyboard Layer 4 (Overlay)
//Storyboard Sound Samples

[TimingPoints]
870,400,4,2,1,20,1,0
10470,-100,4,2,1,15,0,0
12636,-100,4,2,1,10,0,0
13670,-100,4,2,1,15,0,0
14070,-100,4,2,1,20,0,0
14470,-100,4,2,1,25,0,0
14870,-100,4,2,1,30,0,0
15270,-100,4,2,1,35,0,0
15670,-100,4,2,1,15,0,0
16070,-100,4,2,2,60,0,0
16670,-100,4,2,2,30,0,0
16870,-100,4,2,2,80,0,0
17270,-100,4,2,3,60,0,0
18470,-100,4,2,2,80,0,0
18870,-100,4,2,3,60,0,0
20070,-100,4,2,2,80,0,0
20470,-100,4,2,3,70,0,0
21670,-100,4,2,2,80,0,0
22070,-100,4,2,3,60,0,0
23270,-100,4,2,2,80,0,0
23670,-100,4,2,3,70,0,0
24870,-100,4,2,2,80,0,0
25270,-100,4,2,3,60,0,0
25970,-100,4,2,1,60,0,0
26470,-100,4,2,4,60,0,0
30070,-100,4,2,3,60,0,0
31270,-100,4,2,2,80,0,0
31670,-100,4,2,3,60,0,0
32870,-100,4,2,2,80,0,0
33270,-100,4,2,3,70,0,0
34470,-100,4,2,2,80,0,0
34870,-100,4,2,3,60,0,0
36070,-100,4,2,2,80,0,0
36470,-100,4,2,3,70,0,0
37670,-100,4,2,2,80,0,0
38070,-100,4,2,3,60,0,0
39270,-100,4,2,7,60,0,0
39470,-100,4,2,1,30,0,0
40070,-100,4,2,2,30,0,0
40470,-100,4,2,1,30,0,0
40870,-100,4,2,4,30,0,0
41070,-100,4,2,1,30,0,0
41470,-100,4,2,4,30,0,0
41670,-100,4,2,7,60,0,0
42070,-100,4,2,1,40,0,0
42270,-100,4,2,1,20,0,0
42470,-100,4,2,4,80,0,1
42870,-100,4,2,4,70,0,1
43670,-100,4,2,1,70,0,1
44070,-100,4,2,4,70,0,1
44870,-100,4,2,2,70,0,1
45270,-100,4,2,4,70,0,1
46870,-100,4,2,1,70,0,1
47270,-100,4,2,4,70,0,1
48470,-100,4,2,4,50,0,1
48670,-100,4,2,4,30,0,1
48870,-100,4,2,4,70,0,1
51670,-100,4,2,4,60,0,1
51870,-100,4,2,4,65,0,1
52070,-100,4,2,4,70,0,1
52270,-100,4,2,4,75,0,1
52470,-100,4,2,4,80,0,1
54470,-100,4,2,2,70,0,1
54870,-100,4,2,4,80,0,1
56470,-100,4,2,1,70,0,1
56870,-100,4,2,4,70,0,1
57670,-100,4,2,2,70,0,1
58070,-100,4,2,1,50,0,1
58270,-100,4,2,4,30,0,1
58470,-100,4,2,4,70,0,1
59670,-100,4,2,1,70,0,1
60070,-100,4,2,4,70,0,1
61270,-100,4,2,4,50,0,1
61470,-100,4,2,4,30,0,1
61670,-100,4,2,4,50,0,0
62070,-100,4,2,1,40,0,0
63270,-100,4,2,4,50,0,0
63870,-100,4,2,1,40,0,0
64070,-100,4,2,4,50,0,0
64470,-100,4,2,1,40,0,0
64870,-100,4,2,4,60,0,0
71270,-100,4,2,4,50,0,0
71670,-100,4,2,4,20,0,0
72870,-100,4,2,4,30,0,0
74470,-100,4,2,4,40,0,0
76070,-100,4,2,4,20,0,0
77670,-100,4,2,1,20,0,0
84470,-100,4,2,1,23,0,0
84870,-100,4,2,1,26,0,0
85270,-100,4,2,1,29,0,0
85670,-100,4,2,1,32,0,0
86070,-100,4,2,1,36,0,0
86470,-100,4,2,1,40,0,0
86870,-100,4,2,1,20,0,0
87270,-100,4,2,1,40,0,0
87670,-100,4,2,1,60,0,0
88070,-100,4,2,1,50,0,0
88470,-100,4,2,1,70,0,0
88870,-100,4,2,4,60,0,0
89070,-100,4,3,0,50,0,0
89270,-100,4,3,0,40,0,0
89470,-100,4,2,4,60,0,0
89670,-100,4,3,0,50,0,0
89870,-100,4,3,0,40,0,0
90070,-100,4,2,4,60,0,0
90470,-100,4,2,2,80,0,0
90870,-100,4,2,1,50,0,0
92070,-100,4,2,2,80,0,0
92470,-100,4,2,3,60,0,0
93670,-100,4,2,2,80,0,0
94070,-100,4,2,3,70,0,0
95270,-100,4,2,2,80,0,0
95670,-100,4,2,3,60,0,0
96870,-100,4,2,2,80,0,0
97270,-100,4,2,3,60,0,0
98470,-100,4,2,2,80,0,0
98870,-100,4,2,3,60,0,0
100070,-100,4,2,2,80,0,0
100470,-100,4,2,3,60,0,0
101270,-100,4,2,3,50,0,0
101670,-100,4,2,3,60,0,0
102470,-100,4,2,3,50,0,0
102870,-100,4,2,1,40,0,0
103270,-100,4,2,2,60,0,1
103670,-100,4,2,3,60,0,1
104870,-100,4,2,2,60,0,1
105270,-100,4,2,3,60,0,1
106470,-100,4,2,2,60,0,1
106870,-100,4,2,3,70,0,1
108070,-100,4,2,2,60,0,1
108470,-100,4,2,3,60,0,1
109670,-100,4,2,1,40,0,0
110470,-100,4,2,3,60,0,1
111270,-100,4,2,2,60,0,1
112070,-100,4,2,3,60,0,1
112870,-100,4,2,2,60,0,1
113670,-100,4,2,3,60,0,1
114470,-100,4,2,4,60,0,0
114670,-100,4,2,1,40,0,0
115270,-100,4,2,3,60,0,0
115470,-100,4,2,1,50,0,0
116070,-100,4,2,4,70,0,1
122070,-100,4,2,1,70,0,1
122470,-83.3333333333333,4,2,4,70,0,1
125670,-100,4,2,4,60,0,0
126270,-100,4,2,1,30,0,0
126470,-100,4,2,1,60,0,0
127270,-100,4,2,4,60,0,0
127870,-100,4,2,1,30,0,0
128070,-100,4,2,1,40,0,0
128470,-100,4,2,1,50,0,0
128870,-100,4,2,2,70,0,0
129270,-100,4,2,1,50,0,0
130470,-100,4,2,2,70,0,0
130870,-100,4,2,1,50,0,0
132070,-100,4,2,2,70,0,0
132470,-100,4,2,1,60,0,0
133670,-100,4,2,2,70,0,0
134070,-100,4,2,1,50,0,0
135270,-100,4,2,2,70,0,0
135670,-100,4,2,1,50,0,0
136870,-100,4,2,2,70,0,0
137270,-100,4,2,1,50,0,0
138470,-100,4,2,2,70,0,0
139070,-100,4,2,4,70,0,0
139270,-100,4,2,2,70,0,0
140070,-100,4,2,4,70,0,0
140870,-100,4,2,1,70,0,0
141270,-100,4,2,1,60,0,0
141670,-100,4,2,2,60,0,0
142470,-100,4,2,9,45,0,0
143536,-100,4,2,3,60,0,0
144070,-100,4,2,9,45,0,0
144270,-100,4,2,1,60,0,0
144870,-100,4,2,3,60,0,0
145670,-100,4,2,9,45,0,0
146736,-100,4,2,3,60,0,0
147270,-100,4,3,1,70,0,0
147570,-100,4,3,1,60,0,0
147870,-100,4,3,1,50,0,0
148070,-100,4,2,2,60,0,0
148470,-100,4,2,3,60,0,0
148870,-100,4,2,9,45,0,0
149070,-100,4,2,1,60,0,0
149936,-100,4,2,3,60,0,0
150470,-100,4,2,9,45,0,0
150603,-100,4,2,1,60,0,0
151270,-100,4,3,1,80,0,0
151470,-100,4,3,1,30,0,0
152070,-100,4,2,2,70,0,0
152203,-100,4,2,1,70,0,0
153136,-100,4,2,3,70,0,0
153670,-100,4,2,7,50,0,0
154470,-100,4,2,2,60,0,0
155270,-100,4,2,9,45,0,0
156336,-100,4,2,3,60,0,0
156870,-100,4,2,2,60,0,0
158370,-100,4,2,3,60,0,0
158470,-100,4,2,9,45,0,0
159070,-100,4,2,1,60,0,0
159570,-100,4,2,3,60,0,0
160070,-100,4,3,1,70,0,0
160370,-100,4,3,1,60,0,0
160670,-100,4,3,1,50,0,0
160870,-100,4,2,2,60,0,0
161270,-100,4,2,3,60,0,0
161670,-100,4,2,9,45,0,0
162070,-100,4,2,1,60,0,0
162736,-100,4,2,3,60,0,0
163270,-100,4,2,9,45,0,0
163470,-100,4,2,1,60,0,0
164070,-100,4,3,1,80,0,0
164270,-100,4,3,1,30,0,0
164870,-100,4,2,2,70,0,0
165070,-100,4,2,1,70,0,0
165936,-100,4,2,3,70,0,0
166203,-100,4,2,1,70,0,0
166470,-100,4,2,3,80,0,0
166670,-100,4,2,0,20,0,0
167670,-100,4,2,0,15,0,0
168670,-100,4,2,0,10,0,0
169670,-100,4,2,0,5,0,0

[Colours]
Combo1 : 44,187,36
Combo2 : 17,47,123
Combo3 : 68,149,139
Combo4 : 33,133,90

[HitObjects]
256,192,870,6,0,P|320:192|296:64,1,225,4|2,0:0|0:0,0:0:0:0:
224,72,1670,1,8,0:0:0:0:
56,72,2070,1,0,0:0:0:0:
232,200,2470,6,0,P|168:200|192:72,1,225,4|2,0:0|0:0,0:0:0:0:
264,72,3270,1,8,0:0:0:0:
432,72,3670,1,0,0:0:0:0:
264,72,4070,6,0,L|520:72,1,225,4|2,0:0|0:0,0:0:0:0:
408,72,4870,1,8,0:0:0:0:
240,72,5270,1,0,0:0:0:0:
72,80,5670,6,0,L|312:80,1,225,4|2,0:0|0:0,0:0:0:0:
216,80,6470,1,8,0:0:0:0:
48,80,6870,1,0,0:0:0:0:
216,80,7270,6,0,P|152:80|336:80,1,225,4|2,0:0|0:0,0:0:0:0:
392,80,8070,1,8,0:0:0:0:
224,80,8470,1,0,0:0:0:0:
392,80,8870,6,0,P|392:136|256:232,1,225,4|2,0:0|0:0,0:0:0:0:
184,232,9670,1,8,0:0:0:0:
352,232,10070,1,0,0:0:0:0:
256,192,10470,5,4,0:0:0:0:
152,208,11003,1,2,0:0:0:0:
256,216,11403,1,2,0:0:0:0:
328,216,11803,1,2,0:0:0:0:
280,160,12203,5,2,0:0:0:0:
200,160,12603,1,2,0:0:0:0:
312,160,13003,1,2,0:0:0:0:
256,160,13403,5,2,0:0:0:0:
256,192,13670,12,2,15670,0:0:0:0:
80,192,16070,6,0,B|16:192|16:192|192:192,1,225,12|0,0:0|0:0,0:0:0:0:
360,192,16870,6,0,P|416:192|304:192,1,150,6|2,0:0|0:0,0:0:0:0:
168,192,17570,1,2,0:0:0:0:
168,144,17670,1,8,0:0:0:0:
256,128,17870,2,0,L|120:128,1,112.5,2|2,0:0|0:0,0:0:0:0:
416,80,18470,6,0,B|495:80|495:80|400:80,1,150,6|2,0:0|0:0,0:0:0:0:
272,96,19170,1,2,0:0:0:0:
272,144,19270,1,8,0:0:0:0:
360,144,19470,2,0,L|496:144,1,112.5,2|2,0:0|0:0,0:0:0:0:
184,112,20070,6,0,P|128:168|184:224,1,150,6|2,0:0|0:0,0:0:0:0:
296,208,20770,1,2,0:0:0:0:
344,208,20870,1,8,0:0:0:0:
256,208,21070,1,2,0:0:0:0:
120,200,21370,1,2,0:0:0:0:
408,144,21670,6,0,P|424:224|360:256,1,150,6|2,0:0|0:0,0:0:0:0:
240,264,22370,1,2,0:0:0:0:
192,264,22470,1,8,0:0:0:0:
280,264,22670,1,2,0:0:0:0:
416,264,22970,1,2,0:0:0:0:
128,216,23270,6,0,P|112:272|200:304,1,150,6|2,0:0|0:0,0:0:0:0:
320,312,23970,1,2,0:0:0:0:
320,264,24070,1,8,0:0:0:0:
232,256,24270,2,0,L|88:256,1,112.5,2|2,0:0|0:0,0:0:0:0:
392,280,24870,6,0,P|464:280|376:280,1,150,6|2,0:0|0:0,0:0:0:0:
248,264,25570,1,2,0:0:0:0:
200,264,25670,1,8,0:0:0:0:
288,264,25870,1,2,0:0:0:0:
288,264,25970,1,2,0:0:0:0:
288,264,26070,1,2,0:0:0:0:
200,264,26270,1,2,0:0:0:0:
392,144,26470,5,2,0:0:0:0:
208,144,26870,1,2,0:0:0:0:
120,144,27070,1,0,0:0:0:0:
208,144,27270,2,0,P|200:208|104:240,1,150,8|2,0:0|0:0,0:0:0:0:
496,232,28070,6,0,L|496:128,1,75,2|2,0:0|0:0,0:0:0:0:
408,152,28470,2,0,L|328:152,1,75,2|2,0:0|0:0,0:0:0:0:
152,232,28870,2,0,P|8:232|104:232,1,225,8|0,0:0|0:0,0:0:0:0:
280,232,29670,6,0,P|280:192|256:160,1,75
168,160,30070,1,2,0:0:0:0:
184,88,30270,1,0,0:0:0:0:
256,88,30470,1,8,0:0:0:0:
328,88,30670,1,2,0:0:0:0:
480,88,30970,1,2,0:0:0:0:
216,104,31270,6,0,L|64:104,1,150,6|2,0:0|0:0,0:0:0:0:
152,104,31870,1,0,0:0:0:0:
224,104,32070,1,8,0:0:0:0:
296,104,32270,1,2,0:0:0:0:
184,104,32570,1,2,0:0:0:0:
456,104,32870,6,0,P|448:176|368:184,1,150,6|2,0:0|0:0,0:0:0:0:
304,192,33470,1,0,0:0:0:0:
381,191,33670,1,8,0:0:0:0:
304,192,33870,1,2,0:0:0:0:
192,192,34170,1,2,0:0:0:0:
464,192,34470,6,0,B|464:128|464:128|376:128,1,150,6|2,0:0|0:0,0:0:0:0:
304,128,35070,1,0,0:0:0:0:
360,128,35270,1,8,0:0:0:0:
432,128,35470,1,2,0:0:0:0:
312,128,35770,1,2,0:0:0:0:
32,144,36070,6,0,P|32:216|128:232,1,150,6|2,0:0|0:0,0:0:0:0:
184,248,36670,1,0,0:0:0:0:
256,248,36870,1,8,0:0:0:0:
256,176,37070,1,2,0:0:0:0:
144,176,37370,1,2,0:0:0:0:
416,248,37670,6,0,P|496:248|400:248,1,150,6|2,0:0|0:0,0:0:0:0:
336,248,38270,1,0,0:0:0:0:
264,248,38470,1,8,0:0:0:0:
192,248,38670,1,2,0:0:0:0:
80,240,38970,1,2,0:0:0:0:
344,256,39270,5,2,0:0:0:0:
192,256,39670,1,2,0:0:0:0:
344,256,40070,1,8,0:0:0:0:
344,168,40270,1,0,0:0:0:0:
256,168,40470,1,2,0:0:0:0:
256,80,40670,1,0,0:0:0:0:
344,80,40870,5,2,0:0:0:0:
256,80,41070,1,0,0:0:0:0:
168,80,41270,1,2,0:0:0:0:
256,80,41470,1,2,0:0:0:0:
448,80,41670,2,0,B|496:80|496:80|320:80,1,225,12|0,0:0|0:0,0:0:0:0:
128,88,42470,6,0,P|72:96|160:232,1,300,6|8,0:0|0:0,0:0:0:0:
320,240,43670,1,2,0:0:0:0:
408,240,43870,1,2,0:0:0:0:
224,224,44070,6,0,L|120:224,1,75,2|0,0:0|0:0,0:0:0:0:
240,224,44470,2,0,L|336:224,1,75,2|0,0:0|0:0,0:0:0:0:
112,224,44870,2,0,B|64:224|64:224|176:224,1,150,4|2,0:0|0:0,0:0:0:0:
440,240,45670,6,0,B|496:240|496:240|504:32|384:56,1,300,6|8,0:0|0:0,0:0:0:0:
216,88,46870,1,2,0:0:0:0:
304,88,47070,1,2,0:0:0:0:
120,88,47270,6,0,L|24:88,2,75,2|0|2,0:0|0:0|0:0,0:0:0:0:
208,88,47870,1,2,0:0:0:0:
384,104,48070,2,0,L|384:184,3,75,8|0|0|0,0:0|0:0|0:0|0:0,0:0:0:0:
192,184,48870,6,0,P|112:184|352:184,1,300,6|8,0:0|0:0,0:0:0:0:
416,184,49870,1,0,0:0:0:0:
496,184,50070,1,0,0:0:0:0:
416,184,50270,1,0,0:0:0:0:
224,184,50470,5,2,0:0:0:0:
400,184,50870,1,0,0:0:0:0:
88,184,51270,1,8,0:0:0:0:
264,192,51670,2,0,L|264:104,1,75,2|2,0:0|0:0,0:0:0:0:
176,120,52070,6,0,L|80:120,1,75,2|2,0:0|0:0,0:0:0:0:
8,120,52470,1,8,0:0:0:0:
328,128,52870,2,0,L|488:128,1,150,8|0,0:0|0:0,0:0:0:0:
176,128,53670,6,0,L|8:128,1,150,6|0,0:0|0:0,0:0:0:0:
344,120,54470,2,0,P|384:120|336:120,1,75,4|0,0:0|0:0,0:0:0:0:
256,120,54870,2,0,L|160:120,1,75,2|0,0:0|0:0,0:0:0:0:
376,120,55270,6,0,P|440:120|344:208,1,300,6|8,0:0|0:0,0:0:0:0:
272,240,56270,1,0,0:0:0:0:
208,240,56470,1,2,0:0:0:0:
296,240,56670,1,2,0:0:0:0:
488,240,56870,5,2,0:0:0:0:
312,240,57270,1,0,0:0:0:0:
16,256,57670,2,0,L|16:168,1,75,4|0,0:0|0:0,0:0:0:0:
104,184,58070,2,0,L|24:184,1,75,2|0,0:0|0:0,0:0:0:0:
208,184,58470,6,0,P|360:184|184:184,1,300,6|8,0:0|0:0,0:0:0:0:
120,192,59470,1,0,0:0:0:0:
120,104,59670,1,2,0:0:0:0:
208,104,59870,1,2,0:0:0:0:
296,104,60070,5,2,0:0:0:0:
120,104,60470,1,0,0:0:0:0:
472,104,60870,2,0,P|472:168|336:216,1,225,8|0,0:0|0:0,0:0:0:0:
168,208,61670,5,12,0:0:0:0:
352,208,62070,1,0,0:0:0:0:
352,120,62270,1,0,0:0:0:0:
264,120,62470,2,0,L|160:120,1,75,2|0,0:0|0:0,0:0:0:0:
96,120,62870,2,0,L|96:216,1,75,2|0,0:0|0:0,0:0:0:0:
288,192,63270,6,0,B|440:192|440:192|368:192,1,225,6|2,0:0|0:0,0:0:0:0:
176,192,64070,2,0,L|24:192,1,150,8|2,0:0|0:0,0:0:0:0:
112,192,64670,1,0,0:0:0:0:
304,224,64870,6,0,P|440:240|288:96,1,525,6|0,0:0|0:0,0:0:0:0:
104,128,66470,6,0,B|0:176|56:272|56:272|224:392|384:328,1,525,12|0,0:0|0:0,0:0:0:0:
200,240,68070,6,0,B|-48:240|424:240|424:240|272:240,1,525,6|0,0:0|0:0,0:0:0:0:
104,320,69670,6,0,B|24:288|24:288|24:200|24:200|24:112|136:128,1,300,12|2,0:0|0:0,0:0:0:0:
256,192,71270,5,6,0:0:0:0:
256,192,71670,12,4,77670,0:0:0:0:
256,192,84070,12,2,86870,0:0:0:0:
256,192,87270,5,2,0:0:0:0:
80,200,87670,2,0,L|80:96,1,75,2|0,0:0|0:0,0:0:0:0:
168,120,88070,1,2,0:0:0:0:
355,117,88470,2,0,L|355:213,1,75,2|0,0:0|0:0,0:0:0:0:
176,192,88870,6,0,L|80:192,2,75,8|8|8,0:0|0:0|0:0,0:0:0:0:
264,192,89470,2,0,L|352:192,2,75,8|8|8,0:0|0:0|0:0,0:0:0:0:
176,192,90070,1,8,0:0:0:0:
480,192,90470,5,6,0:0:0:0:
304,192,90870,1,2,0:0:0:0:
136,192,91270,1,8,0:0:0:0:
48,192,91470,1,0,0:0:0:0:
48,104,91670,1,2,0:0:0:0:
136,104,91870,1,0,0:0:0:0:
320,104,92070,6,0,L|480:104,1,150,6|2,0:0|0:0,0:0:0:0:
312,152,92870,2,0,L|312:104,1,37.5,8|2,0:0|0:0,0:0:0:0:
224,88,93170,1,2,0:0:0:0:
312,88,93370,1,2,0:0:0:0:
60,88,93670,6,0,P|52:120|132:184,1,150,6|2,0:0|0:0,0:0:0:0:
296,176,94470,2,0,L|296:136,1,37.5,8|2,0:0|0:0,0:0:0:0:
376,136,94770,1,2,0:0:0:0:
240,136,95070,1,2,0:0:0:0:
424,144,95270,6,0,P|456:208|392:240,1,150,6|2,0:0|0:0,0:0:0:0:
240,232,96070,2,0,L|160:232,1,75,8|2,0:0|0:0,0:0:0:0:
72,232,96470,1,2,0:0:0:0:
120,232,96570,1,2,0:0:0:0:
376,180,96870,6,0,P|424:156|400:52,1,150,6|2,0:0|0:0,0:0:0:0:
256,140,97670,2,0,L|256:204,1,37.5,8|2,0:0|0:0,0:0:0:0:
344,180,97970,1,2,0:0:0:0:
432,180,98170,1,2,0:0:0:0:
176,208,98470,6,0,B|112:176|112:176|184:136,1,150,6|2,0:0|0:0,0:0:0:0:
336,136,99270,1,8,0:0:0:0:
336,224,99470,1,2,0:0:0:0:
192,224,99770,1,2,0:0:0:0:
432,208,100070,6,0,P|488:184|424:120,1,150,6|2,0:0|0:0,0:0:0:0:
360,112,100670,1,0,0:0:0:0:
264,112,100870,2,0,P|216:128|216:232,1,150,8|2,0:0|0:0,0:0:0:0:
296,224,101470,1,2,0:0:0:0:
480,208,101670,6,0,L|480:296,1,75,2|2,0:0|0:0,0:0:0:0:
392,288,102070,2,0,L|296:288,1,75,2|2,0:0|0:0,0:0:0:0:
224,288,102470,1,8,0:0:0:0:
400,288,102870,1,2,0:0:0:0:
88,296,103270,6,0,P|40:256|88:184,1,150,6|2,0:0|0:0,0:0:0:0:
392,184,104070,2,0,P|392:248|296:288,1,150,8|2,0:0|0:0,0:0:0:0:
232,288,104670,1,0,0:0:0:0:
416,264,104870,6,0,L|256:192,1,150,6|2,0:0|0:0,0:0:0:0:
192,192,105470,1,0,0:0:0:0:
368,184,105670,2,0,P|440:184|344:184,1,150,8|2,0:0|0:0,0:0:0:0:
256,184,106270,1,0,0:0:0:0:
64,192,106470,6,0,P|64:256|160:264,1,150,6|2,0:0|0:0,0:0:0:0:
456,280,107270,2,0,P|472:208|424:136,1,150,8|2,0:0|0:0,0:0:0:0:
344,136,107870,1,0,0:0:0:0:
160,136,108070,6,0,L|0:136,1,150,6|2,0:0|0:0,0:0:0:0:
96,136,108670,1,0,0:0:0:0:
272,112,108870,2,0,P|272:184|184:208,1,150,8|2,0:0|0:0,0:0:0:0:
120,216,109470,1,0,0:0:0:0:
296,224,109670,5,2,0:0:0:0:
472,232,110070,1,8,0:0:0:0:
384,232,110270,1,2,0:0:0:0:
184,240,110470,2,0,L|32:240,1,150,8|2,0:0|0:0,0:0:0:0:
336,232,111270,6,0,L|496:232,2,150,6|4|8,0:0|0:0|0:0,0:0:0:0:
152,240,112470,2,0,L|64:240,1,75,2|0,0:0|0:0,0:0:0:0:
256,240,112870,6,0,L|432:240,3,150,6|4|8|2,0:0|0:0|0:0|0:0,0:0:0:0:
320,240,114270,1,0,0:0:0:0:
128,240,114470,5,2,0:0:0:0:
296,248,114870,2,0,L|296:144,1,75,2|0,0:0|0:0,0:0:0:0:
208,168,115270,1,8,0:0:0:0:
48,168,115670,2,0,L|48:256,1,75,2|0,0:0|0:0,0:0:0:0:
256,168,116070,6,0,P|336:256|192:320,1,300,6|8,0:0|0:0,0:0:0:0:
40,328,117270,1,0,0:0:0:0:
352,320,117670,6,0,P|448:280|472:96,1,300,6|8,0:0|0:0,0:0:0:0:
320,80,118870,1,0,0:0:0:0:
24,160,119270,6,0,P|32:248|232:312,1,300,6|8,0:0|0:0,0:0:0:0:
24,320,120470,1,0,0:0:0:0:
320,312,120870,6,0,P|392:312|176:312,1,262.5,14|0,0:0|0:0,0:0:0:0:
144,312,121670,2,0,P|64:272|104:160,1,225,8|0,0:0|0:0,0:0:0:0:
320,160,122470,6,0,B|496:160|496:160|296:160,1,359.999989013672,6|8,0:0|0:0,0:0:0:0:
496,160,123670,1,0,0:0:0:0:
144,168,124070,6,0,P|40:168|288:168,1,314.999990386963,6|0,0:0|0:0,0:0:0:0:
304,160,124870,2,0,B|424:160|424:160|368:264|272:224,1,269.999991760254,8|0,0:0|0:0,0:0:0:0:
120,272,125670,6,0,P|48:240|136:160,1,225,6|0,0:0|0:0,0:0:0:0:
208,152,126470,1,2,0:0:0:0:
32,152,126870,1,0,0:0:0:0:
368,160,127270,6,0,B|432:160|432:160|248:160,1,225,6|0,0:0|0:0,0:0:0:0:
184,160,128070,1,2,0:0:0:0:
360,160,128470,1,2,0:0:0:0:
40,160,128870,6,0,P|40:224|104:280,1,150,6|2,0:0|0:0,0:0:0:0:
264,280,129670,1,8,0:0:0:0:
264,200,129870,1,0,0:0:0:0:
184,192,130070,1,2,0:0:0:0:
184,112,130270,1,2,0:0:0:0:
384,144,130470,6,0,P|424:120|352:64,1,150,6|2,0:0|0:0,0:0:0:0:
216,88,131270,1,8,0:0:0:0:
216,168,131470,1,0,0:0:0:0:
296,168,131670,1,2,0:0:0:0:
296,248,131870,1,2,0:0:0:0:
104,256,132070,6,0,P|48:224|88:152,1,150,6|2,0:0|0:0,0:0:0:0:
264,192,132870,1,8,0:0:0:0:
336,200,133070,1,0,0:0:0:0:
400,160,133270,1,2,0:0:0:0:
360,96,133470,1,2,0:0:0:0:
176,176,133670,6,0,P|168:112|248:88,1,150,6|2,0:0|0:0,0:0:0:0:
64,80,134470,1,8,0:0:0:0:
32,160,134670,1,0,0:0:0:0:
88,216,134870,1,2,0:0:0:0:
168,208,135070,1,2,0:0:0:0:
352,192,135270,6,0,L|504:192,1,150,6|2,0:0|0:0,0:0:0:0:
328,208,136070,1,8,0:0:0:0:
240,208,136270,1,0,0:0:0:0:
328,208,136470,1,2,0:0:0:0:
328,120,136670,1,2,0:0:0:0:
136,120,136870,6,0,P|80:144|136:200,1,150,6|2,0:0|0:0,0:0:0:0:
304,192,137670,1,8,0:0:0:0:
216,192,137870,1,0,0:0:0:0:
128,192,138070,1,2,0:0:0:0:
216,192,138270,1,2,0:0:0:0:
400,192,138470,6,0,B|474:192|474:192|400:192,1,150,6|6,0:0|0:0,0:0:0:0:
312,192,139070,1,2,0:0:0:0:
120,192,139270,2,0,L|32:192,1,75,6|0,0:0|0:0,0:0:0:0:
152,192,139670,2,0,L|240:192,1,75,6|0,0:0|0:0,0:0:0:0:
408,192,140070,5,8,0:0:0:0:
496,192,140270,1,2,0:0:0:0:
448,120,140470,1,8,0:0:0:0:
360,120,140670,1,2,0:0:0:0:
168,128,140870,1,2,0:0:0:0:
344,136,141270,2,0,L|344:216,1,75,2|0,0:0|0:0,0:0:0:0:
144,200,141670,6,0,B|40:200|40:200|256:200,1,312.5,4|4,0:0|0:0,0:0:0:0:
376,184,143270,5,2,0:0:0:0:
256,192,143536,2,0,B|176:192|176:192|200:136,1,125,2|0,0:0|0:0,0:0:0:0:
392,176,144103,2,0,P|464:160|416:56,1,212.5,4|0,0:0|0:0,0:0:0:0:
216,64,144870,6,0,L|24:64,1,187.5,2|2,0:0|0:0,0:0:0:0:
320,88,145703,1,4,0:0:0:0:
144,128,146470,5,2,0:0:0:0:
264,136,146736,2,0,P|320:160|368:56,1,200,2|8,0:0|0:0,0:0:0:0:
232,72,147570,1,2,0:0:0:0:
104,120,147870,1,8,0:0:0:0:
296,192,148070,6,0,P|304:264|216:304,1,150,6|2,0:0|0:0,0:0:0:0:
152,312,148670,1,0,0:0:0:0:
336,304,148903,2,0,L|408:304,1,62.5,4|2,0:0|0:0,0:0:0:0:
336,232,149270,1,0,0:0:0:0:
176,304,149670,5,0,0:0:0:0:
128,216,149936,1,2,0:0:0:0:
224,200,150203,1,2,0:0:0:0:
488,208,150503,1,4,0:0:0:0:
400,208,150670,2,0,L|312:208,2,75
200,280,151270,6,0,P|136:264|224:200,1,225,2|0,0:0|0:0,0:0:0:0:
408,216,152070,2,0,L|408:312,3,75,8|2|2|2,0:0|0:0|0:0|0:0,0:0:0:0:
320,288,152870,5,2,0:0:0:0:
192,240,153136,1,2,0:0:0:0:
64,176,153403,1,2,0:0:0:0:
320,192,153670,2,0,P|344:160|224:64,1,225,2|0,0:0|0:0,0:0:0:0:
48,88,154470,6,0,P|48:176|176:248,1,225,4|0,0:0|0:0,0:0:0:0:
368,240,155303,2,0,P|352:144|248:112,1,212.5,4|0,0:0|0:0,0:0:0:0:
328,104,156070,5,2,0:0:0:0:
192,112,156370,2,0,L|72:112,1,112.5
280,192,156870,6,0,L|472:192,2,187.5,4|4|4,0:0|0:0|0:0,0:0:0:0:
80,208,158370,2,0,L|80:152,1,50,2|4,0:0|0:0,0:0:0:0:
384,224,159270,6,2,L|464:224,1,75,8|2,0:0|0:0,0:0:0:0:
408,224,159570,1,2,0:0:0:0:
360,224,159670,1,0,0:0:0:0:
56,144,160070,1,8,0:0:0:0:
200,144,160370,1,2,0:0:0:0:
344,144,160670,1,8,0:0:0:0:
160,208,160870,6,0,B|96:208|96:208|216:208,1,150,6|2,0:0|0:0,0:0:0:0:
272,208,161470,1,0,0:0:0:0:
88,208,161703,2,0,L|16:208,1,62.5,4|0,0:0|0:0,0:0:0:0:
96,152,162070,1,0,0:0:0:0:
180,198,162270,1,2,0:0:0:0:
264,216,162470,5,2,0:0:0:0:
128,216,162770,1,0,0:0:0:0:
96,128,162970,1,0,0:0:0:0:
368,120,163303,2,0,L|448:120,1,75,4|0,0:0|0:0,0:0:0:0:
488,120,163603,1,0,0:0:0:0:
440,128,163703,2,0,L|360:120,1,75
216,112,164070,6,0,P|216:192|336:240,1,225,2|0,0:0|0:0,0:0:0:0:
160,232,164870,1,8,0:0:0:0:
64,240,165070,2,0,L|64:160,2,75,2|0|2,0:0|0:0|0:0,0:0:0:0:
160,248,165670,5,2,0:0:0:0:
216,248,165803,1,2,0:0:0:0:
272,248,165936,1,2,0:0:0:0:
336,248,166070,2,0,L|336:160,1,75
128,168,166470,5,8,0:0:0:0:
256,192,166870,12,0,169670,0:0:0:0:
