osu file format v14

[General]
AudioFilename: audio.mp3
AudioLeadIn: 0
PreviewTime: 16870
Countdown: 0
SampleSet: Soft
StackLeniency: 0.7
Mode: 2
LetterboxInBreaks: 0
WidescreenStoryboard: 1

[Editor]
Bookmarks: 26470,34470,42470,64870,87270,141670,151270,154870
DistanceSpacing: 1.2
BeatDivisor: 6
GridSize: 8
TimelineZoom: 1.8

[Metadata]
Title:Etude Op. 25, No. 12 (meganeko Remix)
TitleUnicode:Étude Op. 25, No. 12 (meganeko Remix)
Artist:Chopin
ArtistUnicode:Chopin
Creator:WildOne94
Version:Rain
Source:
Tags:Electronic Instrumental JBHyperion JBH Happy Halloween 2017 dubstep classical classic
BeatmapID:2330399
BeatmapSetID:1115500

[Difficulty]
HPDrainRate:6
CircleSize:3.5
OverallDifficulty:9
ApproachRate:9
SliderMultiplier:1.8
SliderTickRate:1

[Events]
//Background and Video events
0,0,"meganeko bg.jpg",0,0
//Break Periods
2,77870,83470
//Storyboard Layer 0 (Background)
//Storyboard Layer 1 (Fail)
//Storyboard Layer 2 (Pass)
//Storyboard Layer 3 (Foreground)
//Storyboard Layer 4 (Overlay)
//Storyboard Sound Samples

[TimingPoints]
870,400,4,2,1,20,1,0
10470,-100,4,2,1,15,0,0
13670,-100,4,2,1,15,0,0
14070,-100,4,2,1,20,0,0
14470,-100,4,2,1,25,0,0
14870,-100,4,2,1,30,0,0
15270,-100,4,2,1,35,0,0
15670,-100,4,2,1,15,0,0
16070,-83.3333333333333,4,2,2,60,0,0
16670,-100,4,2,2,30,0,0
16870,-100,4,2,2,80,0,0
17270,-100,4,2,3,60,0,0
17370,-100,4,2,1,60,0,0
17670,-100,4,2,3,60,0,0
18470,-100,4,2,2,80,0,0
18870,-100,4,2,3,60,0,0
18970,-100,4,2,1,60,0,0
19270,-100,4,2,3,60,0,0
20070,-76.9230769230769,4,2,2,80,0,0
20470,-100,4,2,3,70,0,0
20570,-100,4,2,1,60,0,0
20870,-100,4,2,3,60,0,0
21670,-100,4,2,2,80,0,0
22070,-100,4,2,3,60,0,0
22170,-100,4,2,1,60,0,0
22470,-100,4,2,3,60,0,0
23270,-100,4,2,2,80,0,0
23670,-100,4,2,3,70,0,0
23770,-100,4,2,1,60,0,0
24070,-100,4,2,3,60,0,0
24870,-100,4,2,2,80,0,0
25270,-100,4,2,3,60,0,0
25370,-100,4,2,1,60,0,0
25670,-100,4,2,3,60,0,0
26470,-100,4,2,4,60,0,0
29070,-100,4,2,1,45,0,0
29370,-100,4,2,1,60,0,0
29670,-83.3333333333333,4,2,3,60,0,0
29970,-100,4,2,3,60,0,0
30070,-100,4,2,3,60,0,0
30170,-100,4,2,1,60,0,0
30470,-100,4,2,3,60,0,0
31270,-100,4,2,2,80,0,0
31670,-100,4,2,3,60,0,0
31770,-100,4,2,1,60,0,0
32070,-100,4,2,3,60,0,0
32870,-76.9230769230769,4,2,2,80,0,0
33070,-100,4,2,2,80,0,0
33270,-100,4,2,3,70,0,0
33370,-100,4,2,1,60,0,0
33670,-100,4,2,3,60,0,0
34470,-100,4,2,2,80,0,0
34870,-100,4,2,3,60,0,0
34970,-100,4,2,1,60,0,0
35270,-100,4,2,3,60,0,0
36070,-76.9230769230769,4,2,2,80,0,0
36270,-100,4,2,2,80,0,0
36470,-100,4,2,3,70,0,0
36570,-100,4,2,1,60,0,0
36870,-100,4,2,3,60,0,0
37670,-76.9230769230769,4,2,2,80,0,0
37870,-100,4,2,0,20,0,0
38070,-100,4,2,3,60,0,0
38170,-100,4,2,1,60,0,0
38470,-100,4,2,3,60,0,0
38770,-100,4,2,1,60,0,0
38970,-100,4,2,3,60,0,0
39070,-100,4,2,1,60,0,0
39270,-100,4,2,7,60,0,0
39470,-100,4,2,1,30,0,0
40070,-100,4,2,2,30,0,0
40470,-100,4,2,1,30,0,0
40870,-100,4,2,4,30,0,0
40970,-100,4,2,1,30,0,0
41470,-100,4,2,4,30,0,0
41670,-83.3333333333333,4,2,7,60,0,0
42070,-100,4,2,1,40,0,0
42270,-100,4,2,1,20,0,0
42470,-100,4,2,4,80,0,1
42870,-100,4,2,1,70,0,1
43270,-100,4,2,4,70,0,1
43670,-100,4,2,1,70,0,1
44070,-100,4,2,4,70,0,1
44470,-83.3333333333333,4,2,4,70,0,1
44870,-76.9230769230769,4,2,2,70,0,1
45270,-100,4,2,4,70,0,1
46070,-100,4,2,1,70,0,1
46470,-100,4,2,4,70,0,1
46870,-100,4,2,1,70,0,1
47270,-100,4,2,4,70,0,1
48070,-76.9230769230769,4,2,4,70,0,1
48170,-100,4,2,1,60,0,1
48470,-100,4,2,1,45,0,1
48670,-100,4,2,1,30,0,1
48770,-100,4,2,1,30,0,1
48870,-100,4,2,4,70,0,1
49270,-100,4,2,1,70,0,1
49670,-100,4,2,4,70,0,1
50070,-100,4,2,1,70,0,1
50470,-100,4,2,4,70,0,1
50870,-100,4,2,1,70,0,1
51270,-100,4,2,4,70,0,1
51670,-90.9090909090909,4,2,4,60,0,1
51870,-90.9090909090909,4,2,4,65,0,1
52070,-83.3333333333333,4,2,4,70,0,1
52270,-83.3333333333333,4,2,4,75,0,1
52470,-76.9230769230769,4,2,4,80,0,1
52870,-100,4,2,4,70,0,1
53070,-100,4,2,1,70,0,1
53670,-100,4,2,4,70,0,1
54070,-100,4,2,1,70,0,1
54470,-100,4,2,2,70,0,1
54870,-100,4,2,4,80,0,1
54970,-100,4,2,1,70,0,1
55270,-100,4,2,4,80,0,1
55670,-100,4,2,1,70,0,1
56070,-100,4,2,4,70,0,1
56270,-100,4,2,1,70,0,1
56470,-100,4,2,1,70,0,1
56870,-100,4,2,4,70,0,1
57270,-100,4,2,1,70,0,1
57670,-76.9230769230769,4,2,2,70,0,1
58070,-100,4,2,1,50,0,1
58270,-100,4,2,4,30,0,1
58370,-100,4,2,0,100,0,1
58470,-100,4,2,4,70,0,1
58870,-100,4,2,1,70,0,1
59270,-100,4,2,4,70,0,1
59470,-100,4,2,1,70,0,1
59670,-100,4,2,1,70,0,1
60070,-100,4,2,4,70,0,1
60870,-76.9230769230769,4,2,4,70,0,1
61270,-100,4,2,4,50,0,1
61470,-100,4,2,4,30,0,1
61670,-100,4,2,4,50,0,0
62070,-100,4,2,1,40,0,0
63270,-100,4,2,4,50,0,0
63670,-100,4,2,1,50,0,0
63970,-100,4,2,4,50,0,0
64470,-100,4,2,1,40,0,0
64870,-76.9230769230769,4,2,4,60,0,0
65470,-100,4,2,4,60,0,0
65670,-100,4,2,1,60,0,0
66470,-76.9230769230769,4,2,4,60,0,0
67070,-100,4,2,4,60,0,0
67270,-100,4,2,1,60,0,0
68070,-76.9230769230769,4,2,4,60,0,0
68470,-100,4,2,4,60,0,0
68870,-100,4,2,1,60,0,0
69670,-76.9230769230769,4,2,4,60,0,0
70070,-100,4,2,4,60,0,0
71270,-100,4,2,4,50,0,0
71670,-100,4,2,4,20,0,0
72870,-100,4,2,4,30,0,0
74470,-100,4,2,4,40,0,0
76070,-100,4,2,4,20,0,0
77670,-100,4,2,1,20,0,0
84470,-100,4,2,1,23,0,0
84870,-100,4,2,1,26,0,0
85270,-100,4,2,1,29,0,0
85670,-100,4,2,1,32,0,0
86070,-100,4,2,1,36,0,0
86470,-100,4,2,1,40,0,0
86870,-100,4,2,1,20,0,0
87270,-100,4,2,1,40,0,0
87670,-100,4,2,1,60,0,0
88070,-100,4,2,1,50,0,0
88470,-100,4,2,1,70,0,0
88870,-100,4,2,4,60,0,0
89070,-100,4,3,0,50,0,0
89270,-100,4,3,0,40,0,0
89470,-100,4,2,4,60,0,0
89670,-100,4,3,0,50,0,0
89870,-100,4,3,0,40,0,0
90070,-100,4,2,4,60,0,0
90270,-100,4,3,0,50,0,0
90470,-100,4,2,2,80,0,0
90870,-100,4,2,1,50,0,0
92070,-100,4,2,2,80,0,0
92470,-100,4,2,3,60,0,0
93670,-100,4,2,2,80,0,0
94070,-100,4,2,3,70,0,0
95270,-100,4,2,2,80,0,0
95670,-100,4,2,3,60,0,0
96870,-100,4,2,2,80,0,0
97270,-100,4,2,3,60,0,0
98470,-100,4,2,2,80,0,0
98870,-100,4,2,3,60,0,0
100070,-100,4,2,2,80,0,0
100470,-100,4,2,3,60,0,0
101270,-100,4,2,3,50,0,0
101670,-100,4,2,3,60,0,0
102470,-100,4,2,3,50,0,0
102870,-100,4,2,1,40,0,0
103270,-100,4,2,2,60,0,1
103670,-100,4,2,3,60,0,1
104870,-100,4,2,2,60,0,1
105270,-100,4,2,3,60,0,1
106170,-100,4,2,1,60,0,1
106470,-100,4,2,2,60,0,1
106870,-100,4,2,3,70,0,1
108070,-100,4,2,2,60,0,1
108470,-100,4,2,3,60,0,1
109370,-100,4,2,1,60,0,1
109670,-100,4,2,1,40,0,0
110470,-100,4,2,3,60,0,1
111270,-100,4,2,2,60,0,1
112070,-100,4,2,3,60,0,1
112870,-100,4,2,2,60,0,1
113670,-100,4,2,3,60,0,1
114470,-100,4,2,4,60,0,0
114670,-100,4,2,1,40,0,0
115270,-100,4,2,3,60,0,0
115470,-100,4,2,1,50,0,0
116070,-76.9230769230769,4,2,4,70,0,1
116470,-100,4,2,4,70,0,1
116870,-76.9230769230769,4,2,4,70,0,1
117270,-100,4,2,1,70,0,1
117670,-76.9230769230769,4,2,4,70,0,1
118070,-100,4,2,4,70,0,1
118470,-76.9230769230769,4,2,4,70,0,1
118870,-100,4,2,1,70,0,1
119270,-76.9230769230769,4,2,4,70,0,1
119670,-100,4,2,4,70,0,1
120070,-76.9230769230769,4,2,4,70,0,1
120470,-100,4,2,1,70,0,1
120870,-76.9230769230769,4,2,4,70,0,1
121270,-100,4,2,4,70,0,1
121670,-76.9230769230769,4,2,4,70,0,1
122070,-100,4,2,1,70,0,1
122470,-76.9230769230769,4,2,4,70,0,1
122870,-100,4,2,4,70,0,1
123270,-76.9230769230769,4,2,4,70,0,1
123670,-100,4,2,1,70,0,1
124070,-76.9230769230769,4,2,4,70,0,1
124470,-100,4,2,4,70,0,1
124870,-76.9230769230769,4,2,4,70,0,1
125270,-100,4,2,4,70,0,1
125670,-100,4,2,4,60,0,0
126270,-100,4,2,1,30,0,0
126470,-100,4,2,1,60,0,0
127270,-100,4,2,4,60,0,0
127870,-100,4,2,1,30,0,0
128070,-100,4,2,1,40,0,0
128470,-100,4,2,1,50,0,0
128870,-100,4,2,2,70,0,0
129270,-100,4,2,1,50,0,0
130470,-100,4,2,2,70,0,0
130870,-100,4,2,1,50,0,0
132070,-100,4,2,2,70,0,0
132470,-100,4,2,1,60,0,0
133670,-100,4,2,2,70,0,0
134070,-100,4,2,1,50,0,0
135270,-100,4,2,2,70,0,0
135670,-100,4,2,1,50,0,0
136870,-100,4,2,2,70,0,0
137270,-100,4,2,1,50,0,0
138470,-100,4,2,2,70,0,0
139070,-100,4,2,4,70,0,0
139270,-100,4,2,2,70,0,0
140070,-100,4,2,4,70,0,0
140870,-100,4,2,1,70,0,0
141270,-100,4,2,1,60,0,0
141670,-66.6666666666667,4,2,2,60,0,0
142470,-100,4,2,9,45,0,0
143270,-100,4,2,1,25,0,0
143536,-100,4,2,3,60,0,0
144070,-100,4,2,9,45,0,0
144270,-100,4,2,1,60,0,0
144870,-83.3333333333333,4,2,3,60,0,0
145670,-100,4,2,9,45,0,0
146470,-100,4,2,1,25,0,0
146736,-100,4,2,3,60,0,0
147070,-100,4,2,3,20,0,0
147270,-100,4,3,1,70,0,0
147570,-100,4,3,1,60,0,0
147870,-100,4,3,1,50,0,0
148070,-100,4,2,2,60,0,0
148470,-100,4,2,3,60,0,0
148570,-100,4,2,1,60,0,0
148870,-100,4,2,9,45,0,0
149070,-100,4,2,1,60,0,0
149936,-100,4,2,3,60,0,0
150203,-100,4,2,1,60,0,0
150470,-100,4,2,9,45,0,0
150603,-100,4,2,1,60,0,0
150703,-100,4,2,1,60,0,0
151270,-76.9230769230769,4,3,1,80,0,0
151470,-100,4,3,1,30,0,0
151936,-100,4,2,1,25,0,0
152070,-100,4,2,2,70,0,0
152203,-100,4,2,1,70,0,0
153136,-100,4,2,3,70,0,0
153670,-83.3333333333333,4,2,7,50,0,0
154470,-100,4,2,2,60,0,0
155270,-83.3333333333333,4,2,9,45,0,0
156070,-100,4,2,1,25,0,0
156336,-100,4,2,3,60,0,0
156870,-83.3333333333333,4,2,2,60,0,0
158270,-100,4,2,2,60,0,0
158370,-100,4,2,3,60,0,0
158470,-100,4,2,9,45,0,0
159070,-100,4,2,1,60,0,0
159336,-100,4,2,1,30,0,0
159536,-71.4285714285714,4,2,2,60,0,0
159570,-100,4,2,3,60,0,0
159936,-100,4,2,0,100,0,0
160070,-100,4,3,1,70,0,0
160370,-100,4,3,1,60,0,0
160670,-100,4,3,1,50,0,0
160870,-100,4,2,2,60,0,0
161270,-100,4,2,3,60,0,0
161370,-100,4,2,1,60,0,0
161670,-100,4,2,9,45,0,0
162070,-100,4,2,1,60,0,0
162736,-100,4,2,3,60,0,0
162903,-100,4,2,1,60,0,0
163270,-100,4,2,9,45,0,0
163470,-100,4,2,1,60,0,0
164070,-76.9230769230769,4,3,1,80,0,0
164270,-100,4,3,1,30,0,0
164736,-100,4,2,0,100,0,0
164870,-100,4,2,2,70,0,0
165070,-100,4,2,1,70,0,0
165936,-100,4,2,3,70,0,0
166070,-100,4,2,1,60,0,0
166203,-100,4,2,1,70,0,0
166470,-100,4,2,3,80,0,0
166670,-100,4,2,0,20,0,0
167670,-100,4,2,0,15,0,0
168670,-100,4,2,0,10,0,0
169670,-100,4,2,0,5,0,0

[Colours]
Combo1 : 44,187,36
Combo2 : 17,47,123
Combo3 : 68,149,139
Combo4 : 33,133,90

[HitObjects]
256,192,870,5,4,0:0:0:0:
424,192,1270,1,2,0:0:0:0:
456,152,1370,1,0,0:0:0:0:
400,144,1470,1,0,0:0:0:0:
272,192,1570,1,2,0:0:0:0:
184,168,1670,1,8,0:0:0:0:
176,120,1770,1,0,0:0:0:0:
200,80,1870,1,0,0:0:0:0:
248,72,1970,1,0,0:0:0:0:
296,72,2070,1,0,0:0:0:0:
176,72,2336,1,0,0:0:0:0:
24,72,2470,5,4,0:0:0:0:
192,72,2870,1,2,0:0:0:0:
136,72,2970,1,0,0:0:0:0:
128,128,3070,1,0,0:0:0:0:
256,176,3170,1,2,0:0:0:0:
352,176,3270,1,8,0:0:0:0:
376,136,3370,1,0,0:0:0:0:
360,96,3470,1,0,0:0:0:0:
320,80,3570,1,0,0:0:0:0:
272,80,3670,1,0,0:0:0:0:
152,80,3936,1,0,0:0:0:0:
304,80,4070,5,4,0:0:0:0:
480,80,4470,1,2,0:0:0:0:
480,128,4570,1,0,0:0:0:0:
432,128,4670,1,0,0:0:0:0:
327,131,4770,1,2,0:0:0:0:
222,129,4870,1,8,0:0:0:0:
166,129,4970,1,0,0:0:0:0:
166,81,5070,1,0,0:0:0:0:
256,80,5270,1,0,0:0:0:0:
376,80,5536,1,0,0:0:0:0:
216,80,5670,5,4,0:0:0:0:
80,144,6070,1,2,0:0:0:0:
104,184,6170,1,0,0:0:0:0:
152,192,6270,1,0,0:0:0:0:
252,164,6370,1,2,0:0:0:0:
352,160,6470,1,8,0:0:0:0:
408,160,6570,1,0,0:0:0:0:
408,112,6670,1,0,0:0:0:0:
352,112,6870,1,0,0:0:0:0:
232,112,7136,1,0,0:0:0:0:
384,112,7270,5,4,0:0:0:0:
192,112,7670,1,2,0:0:0:0:
192,160,7770,1,0,0:0:0:0:
240,160,7870,1,0,0:0:0:0:
344,160,7970,1,2,0:0:0:0:
232,160,8070,1,8,0:0:0:0:
176,160,8170,1,0,0:0:0:0:
120,160,8270,1,0,0:0:0:0:
208,160,8470,1,0,0:0:0:0:
328,160,8736,1,0,0:0:0:0:
480,160,8870,5,4,0:0:0:0:
280,136,9270,1,2,0:0:0:0:
240,96,9370,1,0,0:0:0:0:
280,64,9470,1,0,0:0:0:0:
376,64,9570,1,2,0:0:0:0:
256,136,9670,1,8,0:0:0:0:
216,104,9770,1,0,0:0:0:0:
264,80,9870,1,0,0:0:0:0:
368,80,10070,1,0,0:0:0:0:
224,80,10336,1,0,0:0:0:0:
56,80,10470,5,4,0:0:0:0:
336,256,11003,1,2,0:0:0:0:
168,256,11403,1,2,0:0:0:0:
352,256,11803,1,2,0:0:0:0:
136,256,12203,5,2,0:0:0:0:
280,256,12470,1,0,0:0:0:0:
352,256,12603,1,2,0:0:0:0:
136,256,13003,1,2,0:0:0:0:
352,256,13403,1,2,0:0:0:0:
56,256,13670,5,8,0:0:0:0:
272,256,14070,1,2,0:0:0:0:
328,256,14170,1,0,0:0:0:0:
88,256,14470,1,8,0:0:0:0:
272,192,14870,1,2,0:0:0:0:
216,192,14970,1,0,0:0:0:0:
472,192,15270,5,8,0:0:0:0:
128,208,15670,1,2,0:0:0:0:
80,184,15770,1,2,0:0:0:0:
80,136,15870,1,2,0:0:0:0:
368,208,16070,2,0,P|480:176|392:40,1,323.999990112305,12|0,0:0|0:0,0:0:0:0:
128,112,16870,6,0,L|0:112,1,90,6|0,0:0|0:0,0:0:0:0:
256,112,17270,1,2,0:0:0:0:
200,112,17370,1,2,0:0:0:0:
152,136,17470,1,2,0:0:0:0:
164,184,17570,1,2,0:0:0:0:
336,176,17670,1,8,0:0:0:0:
164,184,17870,2,0,L|68:184,1,90,2|0,0:0|0:0,0:0:0:0:
168,184,18170,2,0,L|296:184,1,90,2|0,0:0|0:0,0:0:0:0:
80,184,18470,6,0,B|32:184|32:184|88:184,1,90,6|0,0:0|0:0,0:0:0:0:
280,128,18870,1,2,0:0:0:0:
320,160,18970,1,2,0:0:0:0:
304,216,19070,1,2,0:0:0:0:
248,224,19170,1,2,0:0:0:0:
80,216,19270,1,8,0:0:0:0:
256,184,19470,2,0,L|376:184,1,90,2|0,0:0|0:0,0:0:0:0:
256,192,19770,2,0,L|256:296,1,90,2|0,0:0|0:0,0:0:0:0:
432,264,20070,6,0,B|491:264|491:264|432:264,1,116.999994644165,6|0,0:0|0:0,0:0:0:0:
264,272,20470,1,2,0:0:0:0:
208,272,20570,1,2,0:0:0:0:
168,232,20670,1,2,0:0:0:0:
208,192,20770,1,2,0:0:0:0:
376,192,20870,1,8,0:0:0:0:
184,192,21070,2,0,L|280:128,1,90,2|0,0:0|0:0,0:0:0:0:
136,136,21370,2,0,B|88:136|88:136|160:136,1,90,2|0,0:0|0:0,0:0:0:0:
320,184,21670,6,0,L|432:184,1,90,6|0,0:0|0:0,0:0:0:0:
224,184,22070,1,2,0:0:0:0:
280,184,22170,1,2,0:0:0:0:
320,152,22270,1,2,0:0:0:0:
280,112,22370,1,2,0:0:0:0:
104,120,22470,1,8,0:0:0:0:
320,128,22670,2,0,L|320:240,1,90,2|0,0:0|0:0,0:0:0:0:
192,216,22970,2,0,L|96:136,1,90,2|0,0:0|0:0,0:0:0:0:
320,128,23270,6,0,L|416:128,1,90,6|0,0:0|0:0,0:0:0:0:
224,192,23670,1,2,0:0:0:0:
168,192,23770,1,2,0:0:0:0:
128,160,23870,1,2,0:0:0:0:
168,120,23970,1,2,0:0:0:0:
360,128,24070,1,8,0:0:0:0:
192,128,24270,2,0,L|192:240,1,90,2|0,0:0|0:0,0:0:0:0:
320,216,24570,2,0,L|424:144,1,90,2|0,0:0|0:0,0:0:0:0:
176,192,24870,6,0,P|128:192|192:192,1,90,6|0,0:0|0:0,0:0:0:0:
352,192,25270,1,2,0:0:0:0:
352,136,25370,1,2,0:0:0:0:
296,136,25470,1,2,0:0:0:0:
296,192,25570,1,2,0:0:0:0:
472,192,25670,1,8,0:0:0:0:
296,192,25870,2,0,L|192:192,1,90,2|0,0:0|0:0,0:0:0:0:
328,192,26170,2,0,L|424:192,1,90,2|0,0:0|0:0,0:0:0:0:
224,176,26470,5,2,0:0:0:0:
120,176,26670,1,0,0:0:0:0:
288,168,26870,1,2,0:0:0:0:
392,168,27070,1,0,0:0:0:0:
64,88,27270,1,8,0:0:0:0:
64,192,27470,1,0,0:0:0:0:
248,192,27670,1,2,0:0:0:0:
352,192,27870,1,0,0:0:0:0:
88,200,28070,5,2,0:0:0:0:
72,144,28170,1,0,0:0:0:0:
112,104,28270,1,2,0:0:0:0:
168,96,28370,1,0,0:0:0:0:
336,144,28470,1,2,0:0:0:0:
392,144,28570,1,2,0:0:0:0:
392,88,28670,1,2,0:0:0:0:
336,88,28770,1,2,0:0:0:0:
144,80,28870,1,8,0:0:0:0:
248,88,29070,5,2,0:0:0:0:
208,64,29136,1,2,0:0:0:0:
160,56,29203,1,2,0:0:0:0:
112,64,29270,1,2,0:0:0:0:
88,104,29336,1,2,0:0:0:0:
96,152,29403,1,2,0:0:0:0:
128,176,29470,1,2,0:0:0:0:
168,184,29536,1,2,0:0:0:0:
216,184,29603,1,2,0:0:0:0:
376,200,29670,6,0,P|456:200|368:200,1,161.999995056153,2|0,0:0|0:0,0:0:0:0:
272,200,30070,1,2,0:0:0:0:
216,200,30170,1,2,0:0:0:0:
160,200,30270,1,2,0:0:0:0:
456,200,30470,1,8,0:0:0:0:
272,200,30670,2,0,L|168:200,1,90,2|0,0:0|0:0,0:0:0:0:
304,200,30970,1,2,0:0:0:0:
360,200,31070,1,0,0:0:0:0:
304,200,31170,1,0,0:0:0:0:
120,200,31270,6,0,L|24:200,1,90,6|0,0:0|0:0,0:0:0:0:
216,192,31670,1,2,0:0:0:0:
160,192,31770,1,2,0:0:0:0:
104,192,31870,1,2,0:0:0:0:
384,192,32070,1,8,0:0:0:0:
216,192,32270,2,0,L|336:192,1,90,2|0,0:0|0:0,0:0:0:0:
194,192,32570,2,0,L|90:192,1,90,2|0,0:0|0:0,0:0:0:0:
328,192,32870,6,0,B|384:192|384:192|304:192,1,116.999994644165,6|0,0:0|0:0,0:0:0:0:
146,192,33270,1,2,0:0:0:0:
90,192,33370,1,2,0:0:0:0:
146,192,33470,1,2,0:0:0:0:
464,192,33670,1,8,0:0:0:0:
296,192,33870,2,0,L|184:192,1,90,2|0,0:0|0:0,0:0:0:0:
336,200,34170,2,0,P|384:224|368:288,1,90,2|0,0:0|0:0,0:0:0:0:
200,272,34470,6,0,B|152:272|152:272|232:272,1,90,6|0,0:0|0:0,0:0:0:0:
392,272,34870,1,2,0:0:0:0:
336,272,34970,1,2,0:0:0:0:
392,272,35070,1,2,0:0:0:0:
130,224,35270,1,8,0:0:0:0:
24,224,35470,2,0,L|144:224,1,90,2|0,0:0|0:0,0:0:0:0:
238,224,35770,2,0,L|342:224,1,90,2|0,0:0|0:0,0:0:0:0:
112,120,36070,6,0,B|56:120|56:120|152:120,1,116.999994644165,6|0,0:0|0:0,0:0:0:0:
304,120,36470,1,2,0:0:0:0:
248,120,36570,1,2,0:0:0:0:
192,120,36670,1,2,0:0:0:0:
472,136,36870,1,8,0:0:0:0:
304,136,37070,2,0,L|184:136,1,90,2|0,0:0|0:0,0:0:0:0:
104,136,37370,2,0,L|0:136,1,90,2|0,0:0|0:0,0:0:0:0:
232,128,37670,6,0,B|296:128|296:128|216:128,1,116.999994644165,6|0,0:0|0:0,0:0:0:0:
72,136,38070,1,2,0:0:0:0:
72,192,38170,1,2,0:0:0:0:
128,192,38270,1,2,0:0:0:0:
408,192,38470,1,8,0:0:0:0:
464,192,38570,1,0,0:0:0:0:
464,136,38670,1,2,0:0:0:0:
408,136,38770,1,2,0:0:0:0:
312,136,38870,1,2,0:0:0:0:
256,136,38970,1,2,0:0:0:0:
256,80,39070,1,2,0:0:0:0:
312,80,39170,1,2,0:0:0:0:
144,80,39270,5,2,0:0:0:0:
40,80,39470,1,0,0:0:0:0:
216,88,39670,1,2,0:0:0:0:
320,88,39870,1,0,0:0:0:0:
144,88,40070,1,8,0:0:0:0:
144,192,40270,1,0,0:0:0:0:
336,192,40470,1,2,0:0:0:0:
440,192,40670,1,0,0:0:0:0:
168,192,40870,5,2,0:0:0:0:
112,192,40970,1,2,0:0:0:0:
112,136,41070,1,2,0:0:0:0:
168,136,41170,1,2,0:0:0:0:
280,136,41270,1,2,0:0:0:0:
336,136,41370,1,2,0:0:0:0:
392,136,41470,1,2,0:0:0:0:
336,136,41570,1,0,0:0:0:0:
136,128,41670,2,0,B|8:128|8:128|8:192|8:192|184:192,1,323.999990112305,12|0,0:0|0:0,0:0:0:0:
416,192,42470,5,6,0:0:0:0:
472,192,42570,1,0,0:0:0:0:
472,136,42670,1,0,0:0:0:0:
296,160,42870,1,2,0:0:0:0:
400,160,43070,1,0,0:0:0:0:
136,160,43270,2,0,L|16:160,1,90,8|0,0:0|0:0,0:0:0:0:
90,160,43570,1,0,0:0:0:0:
280,168,43670,1,2,0:0:0:0:
336,168,43770,1,2,0:0:0:0:
336,112,43870,1,2,0:0:0:0:
280,112,43970,1,2,0:0:0:0:
112,88,44070,6,0,L|16:88,1,90,2|0,0:0|0:0,0:0:0:0:
320,96,44470,2,0,P|400:96|312:96,1,161.999995056153,2|0,0:0|0:0,0:0:0:0:
136,96,44870,2,0,B|24:96|24:96|176:96,1,233.999989288331,4|2,0:0|0:0,0:0:0:0:
80,96,45370,1,0,0:0:0:0:
40,96,45470,1,0,0:0:0:0:
352,192,45670,5,6,0:0:0:0:
408,192,45770,1,0,0:0:0:0:
352,192,45870,1,0,0:0:0:0:
192,192,46070,1,2,0:0:0:0:
84,193,46270,1,0,0:0:0:0:
400,192,46470,2,0,L|520:192,1,90,8|0,0:0|0:0,0:0:0:0:
440,192,46770,1,0,0:0:0:0:
304,192,46870,1,2,0:0:0:0:
248,192,46970,1,2,0:0:0:0:
192,192,47070,1,2,0:0:0:0:
248,192,47170,1,2,0:0:0:0:
48,192,47270,6,0,L|48:288,1,90,2|0,0:0|0:0,0:0:0:0:
200,280,47670,1,2,0:0:0:0:
144,280,47770,1,0,0:0:0:0:
88,280,47870,1,2,0:0:0:0:
200,280,47970,1,0,0:0:0:0:
400,280,48070,2,0,B|480:280|480:280|272:280|272:280|400:280,1,409.499981254578,8|0,0:0|0:0,0:0:0:0:
192,288,48870,5,6,0:0:0:0:
120,288,48970,1,0,0:0:0:0:
64,288,49070,1,0,0:0:0:0:
256,288,49270,1,2,0:0:0:0:
360,288,49470,1,0,0:0:0:0:
56,288,49670,2,0,L|56:192,1,90,8|0,0:0|0:0,0:0:0:0:
112,200,49970,1,0,0:0:0:0:
248,200,50070,1,2,0:0:0:0:
248,144,50170,1,2,0:0:0:0:
168,144,50270,1,2,0:0:0:0:
168,88,50370,1,2,0:0:0:0:
352,96,50470,6,0,L|264:144,1,90,2|0,0:0|0:0,0:0:0:0:
96,168,50870,1,2,0:0:0:0:
56,200,50970,1,2,0:0:0:0:
80,248,51070,1,2,0:0:0:0:
136,248,51170,1,0,0:0:0:0:
320,248,51270,2,0,L|432:248,1,90,8|0,0:0|0:0,0:0:0:0:
16,272,51670,2,0,L|16:176,1,49.5000015106202,2|2,0:0|0:0,0:0:0:0:
112,216,51870,2,0,L|184:192,1,49.5000015106202,2|2,0:0|0:0,0:0:0:0:
328,192,52070,2,0,L|416:192,1,53.9999983520508,2|2,0:0|0:0,0:0:0:0:
504,192,52270,2,0,L|432:192,1,53.9999983520508,2|2,0:0|0:0,0:0:0:0:
192,184,52470,6,0,P|128:184|200:184,1,116.999994644165,8|0,0:0|0:0,0:0:0:0:
464,160,52870,1,8,0:0:0:0:
296,160,53070,1,2,0:0:0:0:
240,160,53170,1,0,0:0:0:0:
208,200,53270,1,2,0:0:0:0:
240,248,53370,1,2,0:0:0:0:
344,248,53570,1,2,0:0:0:0:
144,256,53670,5,6,0:0:0:0:
88,256,53770,1,0,0:0:0:0:
88,200,53870,1,0,0:0:0:0:
144,200,53970,1,0,0:0:0:0:
312,200,54070,1,2,0:0:0:0:
368,200,54170,1,2,0:0:0:0:
424,200,54270,1,2,0:0:0:0:
368,200,54370,1,0,0:0:0:0:
168,192,54470,2,0,L|48:192,1,90,4|0,0:0|0:0,0:0:0:0:
352,192,54870,2,0,L|352:256,3,45,2|2|2|2,0:0|0:0|0:0|0:0,0:0:0:0:
152,192,55270,5,6,0:0:0:0:
48,192,55470,1,0,0:0:0:0:
208,192,55670,1,2,0:0:0:0:
264,192,55770,1,2,0:0:0:0:
232,144,55870,1,2,0:0:0:0:
176,144,55970,1,2,0:0:0:0:
360,152,56070,1,8,0:0:0:0:
416,152,56170,1,0,0:0:0:0:
472,152,56270,1,2,0:0:0:0:
472,96,56370,1,2,0:0:0:0:
336,96,56470,1,2,0:0:0:0:
280,96,56570,1,0,0:0:0:0:
240,136,56670,1,2,0:0:0:0:
280,176,56770,1,0,0:0:0:0:
104,184,56870,5,2,0:0:0:0:
48,184,56970,1,0,0:0:0:0:
104,184,57070,1,2,0:0:0:0:
160,184,57170,1,0,0:0:0:0:
336,184,57270,1,2,0:0:0:0:
416,176,57370,1,2,0:0:0:0:
464,112,57470,1,2,0:0:0:0:
400,72,57570,1,2,0:0:0:0:
176,80,57670,2,0,B|120:96|296:296|304:104|303:100|113:122|113:122|208:120,1,409.499981254578,4|0,0:0|0:0,0:0:0:0:
376,128,58470,5,6,0:0:0:0:
376,232,58670,1,0,0:0:0:0:
312,232,58770,1,0,0:0:0:0:
136,232,58870,1,2,0:0:0:0:
80,232,58970,1,2,0:0:0:0:
80,176,59070,1,2,0:0:0:0:
136,176,59170,1,2,0:0:0:0:
304,184,59270,1,8,0:0:0:0:
360,184,59370,1,0,0:0:0:0:
304,184,59470,1,2,0:0:0:0:
304,128,59570,1,2,0:0:0:0:
432,112,59670,1,2,0:0:0:0:
400,160,59770,1,0,0:0:0:0:
352,184,59870,1,2,0:0:0:0:
296,184,59970,1,0,0:0:0:0:
96,192,60070,6,0,L|-24:192,1,90,2|0,0:0|0:0,0:0:0:0:
186,192,60470,2,0,L|82:192,1,90,2|0,0:0|0:0,0:0:0:0:
376,192,60870,2,0,P|496:192|176:192,1,409.499981254578,8|0,0:0|0:0,0:0:0:0:
32,192,61670,5,12,0:0:0:0:
32,248,61770,1,0,0:0:0:0:
32,296,61870,1,0,0:0:0:0:
232,296,62070,1,2,0:0:0:0:
232,240,62170,1,0,0:0:0:0:
128,240,62370,1,0,0:0:0:0:
256,240,62470,1,2,0:0:0:0:
312,240,62570,1,0,0:0:0:0:
256,248,62670,1,0,0:0:0:0:
152,248,62870,1,2,0:0:0:0:
184,200,62970,1,0,0:0:0:0:
288,192,63170,1,0,0:0:0:0:
472,192,63270,5,6,0:0:0:0:
472,248,63370,1,0,0:0:0:0:
472,296,63470,1,0,0:0:0:0:
296,296,63670,1,2,0:0:0:0:
296,240,63770,1,0,0:0:0:0:
400,240,63970,1,2,0:0:0:0:
216,240,64070,1,8,0:0:0:0:
160,240,64170,1,0,0:0:0:0:
104,240,64270,1,0,0:0:0:0:
288,240,64470,1,2,0:0:0:0:
344,240,64570,1,0,0:0:0:0:
448,240,64770,1,0,0:0:0:0:
168,240,64870,6,0,P|32:240|256:240,1,350.999983932496,6|0,0:0|0:0,0:0:0:0:
304,240,65570,1,0,0:0:0:0:
424,240,65670,1,2,0:0:0:0:
480,240,65770,1,2,0:0:0:0:
480,184,65870,1,2,0:0:0:0:
424,184,65970,1,2,0:0:0:0:
296,192,66070,1,2,0:0:0:0:
136,200,66370,1,0,0:0:0:0:
352,192,66470,6,0,P|488:168|384:48,1,350.999983932496,12|0,0:0|0:0,0:0:0:0:
344,48,67170,1,0,0:0:0:0:
208,56,67270,1,2,0:0:0:0:
224,112,67370,1,2,0:0:0:0:
272,136,67470,1,2,0:0:0:0:
328,136,67570,1,2,0:0:0:0:
200,168,67670,1,2,0:0:0:0:
304,168,67870,1,2,0:0:0:0:
304,112,67970,1,2,0:0:0:0:
104,112,68070,6,0,P|64:224|192:296,1,233.999989288331,6|0,0:0|0:0,0:0:0:0:
192,312,68570,1,0,0:0:0:0:
248,312,68670,1,0,0:0:0:0:
248,256,68770,1,0,0:0:0:0:
192,256,68870,1,2,0:0:0:0:
136,256,68970,1,2,0:0:0:0:
80,256,69070,1,2,0:0:0:0:
80,200,69170,1,2,0:0:0:0:
136,200,69270,1,2,0:0:0:0:
328,208,69470,1,2,0:0:0:0:
384,208,69570,1,0,0:0:0:0:
136,192,69670,6,0,B|24:192|24:192|160:192,1,233.999989288331,12|0,0:0|0:0,0:0:0:0:
200,192,70170,1,0,0:0:0:0:
256,192,70270,1,0,0:0:0:0:
200,192,70370,1,0,0:0:0:0:
392,192,70470,1,2,0:0:0:0:
448,192,70570,1,0,0:0:0:0:
448,136,70670,1,0,0:0:0:0:
392,136,70770,1,0,0:0:0:0:
264,120,70870,1,2,0:0:0:0:
160,120,71070,1,0,0:0:0:0:
160,176,71170,1,0,0:0:0:0:
352,152,71270,5,6,0:0:0:0:
256,192,71670,12,4,77670,0:0:0:0:
256,192,84070,12,2,86870,0:0:0:0:
256,192,87270,5,2,0:0:0:0:
360,192,87470,1,0,0:0:0:0:
168,120,87670,1,2,0:0:0:0:
112,120,87770,1,2,0:0:0:0:
112,176,87870,1,2,0:0:0:0:
168,176,87970,1,0,0:0:0:0:
280,176,88070,1,2,0:0:0:0:
176,176,88270,1,0,0:0:0:0:
352,176,88470,1,2,0:0:0:0:
408,176,88570,1,2,0:0:0:0:
408,120,88670,1,2,0:0:0:0:
352,120,88770,1,2,0:0:0:0:
160,168,88870,5,8,0:0:0:0:
104,168,88970,1,0,0:0:0:0:
64,128,89070,1,8,0:0:0:0:
64,72,89170,1,4,0:0:0:0:
104,40,89270,1,8,0:0:0:0:
160,40,89370,1,0,0:0:0:0:
344,48,89470,1,8,0:0:0:0:
400,48,89570,1,0,0:0:0:0:
320,72,89670,1,8,0:0:0:0:
320,128,89770,1,4,0:0:0:0:
352,168,89870,1,8,0:0:0:0:
408,176,89970,1,0,0:0:0:0:
216,176,90070,2,0,L|96:176,1,90,8|8,0:0|0:0,0:0:0:0:
424,176,90470,6,0,L|424:72,1,90,6|0,0:0|0:0,0:0:0:0:
368,80,90770,1,0,0:0:0:0:
256,88,90870,1,2,0:0:0:0:
200,96,90970,1,0,0:0:0:0:
184,144,91070,1,0,0:0:0:0:
232,176,91170,1,0,0:0:0:0:
288,176,91270,1,8,0:0:0:0:
336,208,91370,1,0,0:0:0:0:
328,264,91470,1,0,0:0:0:0:
272,264,91570,1,0,0:0:0:0:
152,272,91670,1,2,0:0:0:0:
96,272,91770,1,0,0:0:0:0:
96,216,91870,1,2,0:0:0:0:
152,216,91970,1,0,0:0:0:0:
352,216,92070,6,0,L|464:216,1,90,6|0,0:0|0:0,0:0:0:0:
104,224,92470,1,2,0:0:0:0:
120,272,92570,1,0,0:0:0:0:
176,280,92670,1,0,0:0:0:0:
288,280,92770,1,2,0:0:0:0:
480,224,92870,1,8,0:0:0:0:
480,168,92970,1,2,0:0:0:0:
376,160,93170,1,2,0:0:0:0:
320,160,93270,1,0,0:0:0:0:
192,160,93370,1,2,0:0:0:0:
328,160,93570,1,0,0:0:0:0:
128,168,93670,6,0,L|16:168,1,90,6|0,0:0|0:0,0:0:0:0:
384,176,94070,1,2,0:0:0:0:
440,176,94170,1,0,0:0:0:0:
384,176,94270,1,0,0:0:0:0:
280,176,94370,1,2,0:0:0:0:
112,176,94470,1,8,0:0:0:0:
32,176,94570,1,2,0:0:0:0:
134,184,94770,1,2,0:0:0:0:
190,184,94870,1,0,0:0:0:0:
246,184,94970,1,0,0:0:0:0:
134,184,95070,1,2,0:0:0:0:
136,240,95170,1,0,0:0:0:0:
336,192,95270,6,0,P|392:192|320:192,1,90,6|0,0:0|0:0,0:0:0:0:
64,200,95670,1,2,0:0:0:0:
64,256,95770,1,0,0:0:0:0:
104,288,95870,1,0,0:0:0:0:
216,288,95970,1,2,0:0:0:0:
408,288,96070,1,8,0:0:0:0:
304,288,96270,1,2,0:0:0:0:
488,288,96470,1,2,0:0:0:0:
488,232,96570,1,2,0:0:0:0:
456,184,96670,1,0,0:0:0:0:
400,168,96770,1,0,0:0:0:0:
224,160,96870,6,0,L|112:160,1,90,6|0,0:0|0:0,0:0:0:0:
416,160,97270,1,2,0:0:0:0:
360,160,97370,1,0,0:0:0:0:
304,160,97470,1,0,0:0:0:0:
416,160,97570,1,2,0:0:0:0:
224,160,97670,1,8,0:0:0:0:
128,160,97770,1,2,0:0:0:0:
80,192,97870,1,0,0:0:0:0:
128,208,97970,1,2,0:0:0:0:
184,208,98070,1,0,0:0:0:0:
128,208,98170,1,2,0:0:0:0:
96,256,98270,1,0,0:0:0:0:
160,256,98370,1,0,0:0:0:0:
360,256,98470,6,0,B|408:256|408:256|352:256,1,90,6|0,0:0|0:0,0:0:0:0:
88,256,98870,1,2,0:0:0:0:
32,256,98970,1,0,0:0:0:0:
32,200,99070,1,0,0:0:0:0:
88,200,99170,1,2,0:0:0:0:
256,304,99270,1,8,0:0:0:0:
312,304,99370,1,0,0:0:0:0:
360,280,99470,1,2,0:0:0:0:
392,232,99570,1,0,0:0:0:0:
384,176,99670,1,0,0:0:0:0:
352,136,99770,1,2,0:0:0:0:
304,112,99870,1,0,0:0:0:0:
248,104,99970,1,0,0:0:0:0:
48,144,100070,6,0,P|72:208|120:216,1,90,6|0,0:0|0:0,0:0:0:0:
264,224,100470,1,2,0:0:0:0:
320,224,100570,1,0,0:0:0:0:
264,224,100670,1,2,0:0:0:0:
208,224,100770,1,0,0:0:0:0:
376,224,100870,1,8,0:0:0:0:
432,224,100970,1,0,0:0:0:0:
488,224,101070,1,0,0:0:0:0:
488,168,101170,1,0,0:0:0:0:
368,160,101270,1,2,0:0:0:0:
312,160,101370,1,0,0:0:0:0:
368,160,101470,1,2,0:0:0:0:
424,160,101570,1,0,0:0:0:0:
232,136,101670,6,0,L|152:136,1,45,2|0,0:0|0:0,0:0:0:0:
104,136,101870,2,0,L|104:216,1,45,2|0,0:0|0:0,0:0:0:0:
288,192,102070,2,0,L|376:192,1,45,2|0,0:0|0:0,0:0:0:0:
424,192,102270,2,0,L|424:128,1,45,2|0,0:0|0:0,0:0:0:0:
240,120,102470,1,8,0:0:0:0:
184,120,102570,1,0,0:0:0:0:
184,176,102670,1,0,0:0:0:0:
240,176,102770,1,0,0:0:0:0:
296,184,102870,1,2,0:0:0:0:
312,240,102970,1,0,0:0:0:0:
272,272,103070,1,0,0:0:0:0:
216,272,103170,1,0,0:0:0:0:
32,120,103270,6,0,L|120:176,1,90,6|0,0:0|0:0,0:0:0:0:
160,176,103570,1,0,0:0:0:0:
280,176,103670,1,2,0:0:0:0:
344,176,103770,1,0,0:0:0:0:
408,176,103870,1,0,0:0:0:0:
472,176,103970,1,0,0:0:0:0:
288,128,104070,1,8,0:0:0:0:
224,128,104170,1,0,0:0:0:0:
176,168,104270,1,0,0:0:0:0:
224,208,104370,1,0,0:0:0:0:
56,232,104470,1,2,0:0:0:0:
24,176,104570,1,0,0:0:0:0:
56,128,104670,1,0,0:0:0:0:
120,120,104770,1,0,0:0:0:0:
296,120,104870,6,0,L|296:240,1,90,6|0,0:0|0:0,0:0:0:0:
232,216,105170,1,0,0:0:0:0:
104,216,105270,1,2,0:0:0:0:
104,152,105370,1,0,0:0:0:0:
176,112,105470,1,0,0:0:0:0:
240,96,105570,1,0,0:0:0:0:
440,104,105670,1,8,0:0:0:0:
440,168,105770,1,0,0:0:0:0:
336,176,105870,1,0,0:0:0:0:
288,216,105970,1,0,0:0:0:0:
104,224,106070,1,2,0:0:0:0:
40,224,106170,1,2,0:0:0:0:
40,160,106270,1,2,0:0:0:0:
40,96,106370,1,2,0:0:0:0:
240,88,106470,6,0,L|136:144,1,90,6|0,0:0|0:0,0:0:0:0:
112,152,106770,1,0,0:0:0:0:
240,184,106870,1,2,0:0:0:0:
304,184,106970,1,0,0:0:0:0:
336,128,107070,1,0,0:0:0:0:
296,80,107170,1,0,0:0:0:0:
480,80,107270,1,8,0:0:0:0:
496,144,107370,1,0,0:0:0:0:
456,192,107470,1,0,0:0:0:0:
392,200,107570,1,0,0:0:0:0:
264,208,107670,1,2,0:0:0:0:
200,208,107770,1,0,0:0:0:0:
136,208,107870,1,0,0:0:0:0:
136,152,107970,1,0,0:0:0:0:
312,208,108070,6,0,L|416:208,1,90,6|0,0:0|0:0,0:0:0:0:
104,208,108470,2,0,L|104:96,1,90,2|0,0:0|0:0,0:0:0:0:
168,120,108770,1,0,0:0:0:0:
368,120,108870,1,8,0:0:0:0:
432,120,108970,1,0,0:0:0:0:
392,168,109070,1,0,0:0:0:0:
328,168,109170,1,0,0:0:0:0:
160,176,109270,1,2,0:0:0:0:
96,176,109370,1,2,0:0:0:0:
216,168,109470,1,2,0:0:0:0:
280,168,109570,1,2,0:0:0:0:
456,160,109670,5,2,0:0:0:0:
456,224,109770,1,0,0:0:0:0:
368,224,109870,1,0,0:0:0:0:
352,280,109970,1,0,0:0:0:0:
272,288,110070,1,8,0:0:0:0:
224,328,110170,1,0,0:0:0:0:
136,328,110270,1,2,0:0:0:0:
72,328,110370,1,0,0:0:0:0:
256,328,110470,1,8,0:0:0:0:
320,328,110570,1,0,0:0:0:0:
320,264,110670,1,0,0:0:0:0:
256,264,110770,1,0,0:0:0:0:
88,272,110870,1,2,0:0:0:0:
24,264,110970,1,0,0:0:0:0:
32,200,111070,1,0,0:0:0:0:
96,184,111170,1,0,0:0:0:0:
288,192,111270,6,0,L|416:192,1,90,6|0,0:0|0:0,0:0:0:0:
96,192,111670,2,0,L|200:192,1,90,4|0,0:0|0:0,0:0:0:0:
472,192,112070,2,0,L|472:72,1,90,8|0,0:0|0:0,0:0:0:0:
200,96,112470,2,0,L|304:96,1,90,2|0,0:0|0:0,0:0:0:0:
24,96,112870,6,0,L|24:216,1,90,6|0,0:0|0:0,0:0:0:0:
80,216,113170,1,0,0:0:0:0:
256,208,113270,2,0,L|384:208,1,90,4|0,0:0|0:0,0:0:0:0:
408,208,113570,1,0,0:0:0:0:
216,208,113670,1,8,0:0:0:0:
152,208,113770,1,0,0:0:0:0:
120,152,113870,1,0,0:0:0:0:
168,112,113970,1,0,0:0:0:0:
360,144,114070,1,2,0:0:0:0:
424,144,114170,1,0,0:0:0:0:
464,96,114270,1,0,0:0:0:0:
416,56,114370,1,0,0:0:0:0:
240,48,114470,5,2,0:0:0:0:
192,72,114570,1,0,0:0:0:0:
176,120,114670,1,0,0:0:0:0:
208,160,114770,1,0,0:0:0:0:
264,168,114870,1,2,0:0:0:0:
312,144,114970,1,0,0:0:0:0:
312,88,115070,1,0,0:0:0:0:
264,72,115170,1,0,0:0:0:0:
88,72,115270,1,8,0:0:0:0:
40,96,115370,1,0,0:0:0:0:
16,144,115470,1,2,0:0:0:0:
16,200,115570,1,0,0:0:0:0:
40,248,115670,1,2,0:0:0:0:
88,272,115770,1,0,0:0:0:0:
144,280,115870,1,0,0:0:0:0:
200,272,115970,1,0,0:0:0:0:
408,264,116070,6,0,P|496:264|336:264,1,233.999989288331,6|0,0:0|0:0,0:0:0:0:
400,264,116570,1,0,0:0:0:0:
456,264,116670,1,2,0:0:0:0:
400,264,116770,1,0,0:0:0:0:
184,264,116870,2,0,B|56:264|56:264|56:112,1,233.999989288331,8|2,0:0|0:0,0:0:0:0:
80,112,117370,1,2,0:0:0:0:
128,96,117470,1,2,0:0:0:0:
456,88,117670,6,0,L|240:200,1,233.999989288331,6|0,0:0|0:0,0:0:0:0:
192,200,118170,1,0,0:0:0:0:
136,200,118270,1,2,0:0:0:0:
80,200,118370,1,0,0:0:0:0:
248,195,118470,2,0,P|336:184|296:75,1,233.999989288331,8|2,0:0|0:0,0:0:0:0:
248,80,118970,1,2,0:0:0:0:
192,80,119070,1,2,0:0:0:0:
472,120,119270,6,0,P|472:216|352:248,1,233.999989288331,6|0,0:0|0:0,0:0:0:0:
408,264,119770,1,0,0:0:0:0:
408,320,119870,1,2,0:0:0:0:
352,320,119970,1,0,0:0:0:0:
160,320,120070,2,0,P|80:272|176:232,1,233.999989288331,8|2,0:0|0:0,0:0:0:0:
112,224,120570,1,2,0:0:0:0:
56,224,120670,1,2,0:0:0:0:
352,208,120870,6,0,P|440:208|488:80,1,233.999989288331,14|0,0:0|0:0,0:0:0:0:
464,40,121370,1,0,0:0:0:0:
416,24,121470,1,2,0:0:0:0:
360,32,121570,1,2,0:0:0:0:
136,88,121670,2,0,P|152:200|288:216,1,233.999989288331,8|2,0:0|0:0,0:0:0:0:
312,232,122170,1,2,0:0:0:0:
368,232,122270,1,2,0:0:0:0:
32,208,122470,6,0,P|96:304|232:304,1,233.999989288331,6|0,0:0|0:0,0:0:0:0:
264,312,122970,1,0,0:0:0:0:
320,312,123070,1,2,0:0:0:0:
376,312,123170,1,0,0:0:0:0:
120,296,123270,2,0,B|24:296|24:296|168:296,1,233.999989288331,8|2,0:0|0:0,0:0:0:0:
104,296,123770,1,2,0:0:0:0:
160,296,123870,1,2,0:0:0:0:
424,296,124070,6,0,B|496:296|496:296|328:296,1,233.999989288331,6|0,0:0|0:0,0:0:0:0:
280,304,124570,1,0,0:0:0:0:
232,272,124670,1,2,0:0:0:0:
248,216,124770,1,2,0:0:0:0:
416,200,124870,2,0,P|456:160|352:64,1,233.999989288331,8|0,0:0|0:0,0:0:0:0:
416,56,125370,1,0,0:0:0:0:
472,56,125470,1,0,0:0:0:0:
416,56,125570,1,0,0:0:0:0:
208,64,125670,6,0,P|176:184|304:248,1,270,6|2,0:0|0:0,0:0:0:0:
336,248,126370,1,2,0:0:0:0:
376,208,126470,1,2,0:0:0:0:
344,160,126570,1,0,0:0:0:0:
288,152,126670,1,0,0:0:0:0:
240,128,126770,1,0,0:0:0:0:
288,112,126870,1,0,0:0:0:0:
392,104,127070,1,0,0:0:0:0:
72,120,127270,6,0,P|112:192|224:216,1,180,6|0,0:0|0:0,0:0:0:0:
256,216,127770,1,0,0:0:0:0:
312,216,127870,1,2,0:0:0:0:
352,184,127970,1,2,0:0:0:0:
368,136,128070,1,2,0:0:0:0:
344,88,128170,1,0,0:0:0:0:
296,64,128270,1,0,0:0:0:0:
240,64,128370,1,0,0:0:0:0:
184,80,128470,1,2,0:0:0:0:
80,96,128670,1,0,0:0:0:0:
408,80,128870,6,0,P|416:128|376:176,1,90,6|0,0:0|0:0,0:0:0:0:
344,184,129170,1,0,0:0:0:0:
288,192,129270,1,2,0:0:0:0:
232,192,129370,1,0,0:0:0:0:
232,136,129470,1,0,0:0:0:0:
288,136,129570,1,0,0:0:0:0:
408,136,129670,1,8,0:0:0:0:
440,184,129770,1,0,0:0:0:0:
400,224,129870,1,0,0:0:0:0:
344,224,129970,1,0,0:0:0:0:
224,224,130070,1,2,0:0:0:0:
168,224,130170,1,0,0:0:0:0:
128,184,130270,1,2,0:0:0:0:
168,144,130370,1,0,0:0:0:0:
344,144,130470,6,0,L|448:144,1,90,6|0,0:0|0:0,0:0:0:0:
488,152,130770,1,0,0:0:0:0:
504,208,130870,1,2,0:0:0:0:
480,256,130970,1,0,0:0:0:0:
432,280,131070,1,0,0:0:0:0:
376,272,131170,1,0,0:0:0:0:
256,280,131270,1,8,0:0:0:0:
208,264,131370,1,0,0:0:0:0:
200,208,131470,1,0,0:0:0:0:
240,176,131570,1,0,0:0:0:0:
296,168,131670,1,2,0:0:0:0:
336,128,131770,1,0,0:0:0:0:
304,80,131870,1,2,0:0:0:0:
248,72,131970,1,0,0:0:0:0:
56,88,132070,6,0,L|144:184,1,90,6|0,0:0|0:0,0:0:0:0:
168,168,132370,1,0,0:0:0:0:
224,176,132470,1,2,0:0:0:0:
272,152,132570,1,0,0:0:0:0:
272,96,132670,1,0,0:0:0:0:
224,80,132770,1,0,0:0:0:0:
344,64,132870,1,8,0:0:0:0:
400,64,132970,1,0,0:0:0:0:
400,120,133070,1,0,0:0:0:0:
344,120,133170,1,0,0:0:0:0:
464,120,133270,1,2,0:0:0:0:
464,176,133370,1,0,0:0:0:0:
416,200,133470,1,2,0:0:0:0:
360,200,133570,1,0,0:0:0:0:
168,168,133670,6,0,L|72:168,1,90,6|0,0:0|0:0,0:0:0:0:
208,176,133970,1,0,0:0:0:0:
264,176,134070,1,2,0:0:0:0:
320,176,134170,1,0,0:0:0:0:
320,120,134270,1,0,0:0:0:0:
272,88,134370,1,0,0:0:0:0:
152,64,134470,1,8,0:0:0:0:
96,64,134570,1,0,0:0:0:0:
96,120,134670,1,0,0:0:0:0:
152,120,134770,1,0,0:0:0:0:
32,120,134870,1,2,0:0:0:0:
32,176,134970,1,0,0:0:0:0:
80,200,135070,1,2,0:0:0:0:
136,200,135170,1,0,0:0:0:0:
312,200,135270,6,0,L|440:200,1,90,6|0,0:0|0:0,0:0:0:0:
456,200,135570,1,0,0:0:0:0:
480,152,135670,1,2,0:0:0:0:
480,96,135770,1,0,0:0:0:0:
448,56,135870,1,0,0:0:0:0:
392,48,135970,1,0,0:0:0:0:
264,48,136070,1,8,0:0:0:0:
208,40,136170,1,0,0:0:0:0:
152,48,136270,1,0,0:0:0:0:
112,88,136370,1,0,0:0:0:0:
96,144,136470,1,2,0:0:0:0:
120,192,136570,1,0,0:0:0:0:
176,208,136670,1,2,0:0:0:0:
232,208,136770,1,0,0:0:0:0:
424,200,136870,6,0,P|472:200|416:200,1,90,6|0,0:0|0:0,0:0:0:0:
376,200,137170,1,0,0:0:0:0:
320,208,137270,1,2,0:0:0:0:
280,168,137370,1,0,0:0:0:0:
280,112,137470,1,0,0:0:0:0:
328,80,137570,1,0,0:0:0:0:
208,80,137670,1,8,0:0:0:0:
184,128,137770,1,0,0:0:0:0:
216,176,137870,1,0,0:0:0:0:
272,176,137970,1,0,0:0:0:0:
392,80,138070,1,2,0:0:0:0:
392,136,138170,1,0,0:0:0:0:
336,136,138270,1,2,0:0:0:0:
280,136,138370,1,0,0:0:0:0:
112,144,138470,6,0,L|16:144,1,90,6|0,0:0|0:0,0:0:0:0:
288,144,138870,1,6,0:0:0:0:
184,144,139070,1,2,0:0:0:0:
464,144,139270,2,0,L|464:240,1,90,6|0,0:0|0:0,0:0:0:0:
416,264,139570,1,0,0:0:0:0:
240,264,139670,1,6,0:0:0:0:
184,264,139770,1,0,0:0:0:0:
128,264,139870,1,0,0:0:0:0:
72,264,139970,1,0,0:0:0:0:
264,208,140070,5,8,0:0:0:0:
344,192,140170,1,2,0:0:0:0:
408,136,140270,1,2,0:0:0:0:
408,64,140370,1,2,0:0:0:0:
216,208,140470,5,8,0:0:0:0:
136,192,140570,1,2,0:0:0:0:
72,136,140670,1,2,0:0:0:0:
72,64,140770,1,2,0:0:0:0:
240,216,140870,1,2,0:0:0:0:
304,216,140970,1,0,0:0:0:0:
304,152,141070,1,0,0:0:0:0:
240,152,141170,1,0,0:0:0:0:
336,216,141270,1,2,0:0:0:0:
400,216,141370,1,0,0:0:0:0:
448,216,141470,1,0,0:0:0:0:
400,216,141570,1,0,0:0:0:0:
192,224,141670,6,0,B|24:224|24:224|24:96|24:96|216:96,1,472.500018024445,4|0,0:0|0:0,0:0:0:0:
448,64,142503,2,0,P|408:240|264:304,1,345,4|0,0:0|0:0,0:0:0:0:
32,344,143536,6,0,L|248:192,1,255,2|4,0:0|0:0,0:0:0:0:
72,200,144336,1,2,0:0:0:0:
256,200,144670,1,2,0:0:0:0:
184,200,144803,1,0,0:0:0:0:
320,208,144870,6,0,L|536:208,1,215.999993408203,2|0,0:0|0:0,0:0:0:0:
320,208,145370,2,0,L|168:208,1,143.999995605469,2|0,0:0|0:0,0:0:0:0:
24,208,145703,1,4,0:0:0:0:
376,192,146470,5,0,0:0:0:0:
24,200,146736,2,0,P|96:272|200:304,1,210,2|0,0:0|0:0,0:0:0:0:
336,304,147270,1,8,0:0:0:0:
197,303,147570,1,2,0:0:0:0:
456,304,147870,1,8,0:0:0:0:
56,272,148070,6,0,L|176:240,1,90,6|0,0:0|0:0,0:0:0:0:
216,248,148370,1,0,0:0:0:0:
280,256,148470,1,2,0:0:0:0:
216,256,148570,1,2,0:0:0:0:
272,208,148670,1,2,0:0:0:0:
272,152,148770,1,2,0:0:0:0:
48,144,148903,1,4,0:0:0:0:
112,144,149003,1,0,0:0:0:0:
176,144,149103,1,2,0:0:0:0:
112,208,149203,1,0,0:0:0:0:
176,208,149303,1,2,0:0:0:0:
304,256,149403,1,2,0:0:0:0:
304,200,149503,1,2,0:0:0:0:
304,144,149603,1,0,0:0:0:0:
200,144,149703,5,2,0:0:0:0:
200,88,149803,1,0,0:0:0:0:
440,88,149936,1,2,0:0:0:0:
344,80,150103,1,0,0:0:0:0:
288,80,150203,1,2,0:0:0:0:
232,88,150303,1,0,0:0:0:0:
176,104,150403,1,0,0:0:0:0:
368,176,150503,1,4,0:0:0:0:
312,192,150603,1,0,0:0:0:0:
256,208,150703,1,2,0:0:0:0:
200,216,150803,1,2,0:0:0:0:
144,216,150903,1,2,0:0:0:0:
96,184,151003,1,2,0:0:0:0:
72,128,151103,1,0,0:0:0:0:
160,104,151203,1,0,0:0:0:0:
312,104,151270,6,0,B|496:104|496:104|280:104,1,389.999982147218,2|0,0:0|0:0,0:0:0:0:
88,104,152070,1,8,0:0:0:0:
88,168,152170,1,0,0:0:0:0:
272,192,152270,1,2,0:0:0:0:
336,192,152370,1,0,0:0:0:0:
304,136,152470,1,2,0:0:0:0:
240,136,152570,1,2,0:0:0:0:
184,112,152670,1,2,0:0:0:0:
160,56,152770,1,0,0:0:0:0:
224,40,152870,5,2,0:0:0:0:
288,96,153003,1,2,0:0:0:0:
16,48,153136,1,2,0:0:0:0:
112,80,153270,2,0,L|144:120,1,30,0|0,0:0|0:0,0:0:0:0:
208,120,153403,2,0,L|264:136,1,30,2|0,0:0|0:0,0:0:0:0:
312,136,153536,2,0,L|368:136,1,30
144,160,153703,2,0,B|15:159|15:159|208:160,1,305.999990661621,2|0,0:0|0:0,0:0:0:0:
464,112,154470,6,0,B|494:124|494:124|512:296|368:288,1,270,4|0,0:0|0:0,0:0:0:0:
312,280,155170,1,0,0:0:0:0:
104,296,155303,2,0,B|8:296|8:296|184:296|184:296|32:296,1,413.999987365723,4|2,0:0|0:0,0:0:0:0:
408,304,156336,6,0,P|456:256|400:152,1,195,2|0,0:0|0:0,0:0:0:0:
216,152,156870,2,0,L|0:152,1,215.999993408203,4|0,0:0|0:0,0:0:0:0:
240,152,157370,6,0,L|448:152,1,197.99999395752,4|0,0:0|0:0,0:0:0:0:
168,160,157870,2,0,P|152:248|256:264,1,215.999993408203,4|0,0:0|0:0,0:0:0:0:
328,264,158370,1,2,0:0:0:0:
128,272,158503,1,4,0:0:0:0:
136,264,159070,2,0,L|136:200,1,45,0|0,0:0|0:0,0:0:0:0:
352,232,159270,6,0,L|352:176,3,30,8|0|0|2,0:0|0:0|0:0|0:0,0:0:0:0:
176,176,159536,2,0,B|24:176|24:176|128:176,1,251.999992309571,4|0,0:0|0:0,0:0:0:0:
376,176,160070,1,8,0:0:0:0:
136,144,160370,1,0,0:0:0:0:
360,144,160670,1,8,0:0:0:0:
56,144,160870,6,0,P|56:224|152:272,1,180,6|2,0:0|0:0,0:0:0:0:
352,288,161370,2,0,L|424:288,2,45,2|2|2,0:0|0:0|0:0,0:0:0:0:
144,280,161703,1,4,0:0:0:0:
80,272,161803,1,0,0:0:0:0:
56,208,161903,1,0,0:0:0:0:
72,144,162003,1,0,0:0:0:0:
112,128,162070,1,2,0:0:0:0:
176,120,162170,1,0,0:0:0:0:
368,120,162270,1,2,0:0:0:0:
400,120,162320,1,2,0:0:0:0:
432,120,162370,1,2,0:0:0:0:
464,120,162420,1,2,0:0:0:0:
464,88,162470,5,2,0:0:0:0:
400,88,162570,1,0,0:0:0:0:
336,96,162670,1,2,0:0:0:0:
208,80,162736,1,2,0:0:0:0:
168,80,162803,1,0,0:0:0:0:
96,80,162903,1,2,0:0:0:0:
96,128,162970,1,2,0:0:0:0:
160,128,163070,1,2,0:0:0:0:
224,128,163170,1,2,0:0:0:0:
256,128,163220,1,2,0:0:0:0:
432,144,163303,5,4,0:0:0:0:
432,208,163403,1,0,0:0:0:0:
408,272,163503,1,2,0:0:0:0:
344,288,163603,1,2,0:0:0:0:
280,288,163703,1,2,0:0:0:0:
224,248,163803,1,2,0:0:0:0:
240,184,163903,1,0,0:0:0:0:
304,168,164003,1,0,0:0:0:0:
128,88,164070,6,0,B|8:88|8:88|288:88,1,389.999982147218,2|0,0:0|0:0,0:0:0:0:
48,112,164870,1,8,0:0:0:0:
120,112,164995,1,0,0:0:0:0:
344,272,165095,1,0,0:0:0:0:
288,224,165195,1,0,0:0:0:0:
216,208,165295,1,2,0:0:0:0:
144,192,165395,1,2,0:0:0:0:
72,168,165495,1,2,0:0:0:0:
128,112,165595,1,2,0:0:0:0:
272,88,165670,5,2,0:0:0:0:
360,88,165803,1,2,0:0:0:0:
128,88,165936,1,2,0:0:0:0:
24,88,166070,1,2,0:0:0:0:
128,88,166203,1,2,0:0:0:0:
24,88,166336,1,2,0:0:0:0:
256,88,166470,5,8,0:0:0:0:
256,192,166670,12,0,169670,0:0:0:0:
