osu file format v14

[General]
AudioFilename: audio.mp3
AudioLeadIn: 0
PreviewTime: 16870
Countdown: 0
SampleSet: Soft
StackLeniency: 0.7
Mode: 2
LetterboxInBreaks: 0
WidescreenStoryboard: 1

[Editor]
Bookmarks: 42470,87270,141670
DistanceSpacing: 1
BeatDivisor: 4
GridSize: 8
TimelineZoom: 1.7

[Metadata]
Title:Etude Op. 25, No. 12 (meganeko Remix)
TitleUnicode:Étude Op. 25, No. 12 (meganeko Remix)
Artist:Chopin
ArtistUnicode:Chopin
Creator:WildOne94
Version:Cup
Source:
Tags:Electronic Instrumental JBHyperion JBH Happy Halloween 2017 dubstep classical classic
BeatmapID:2330396
BeatmapSetID:1115500

[Difficulty]
HPDrainRate:3
CircleSize:2
OverallDifficulty:5.5
ApproachRate:5.5
SliderMultiplier:1.5
SliderTickRate:0.5

[Events]
//Background and Video events
0,0,"meganeko bg.jpg",0,0
//Break Periods
2,77870,82945
//Storyboard Layer 0 (Background)
//Storyboard Layer 1 (Fail)
//Storyboard Layer 2 (Pass)
//Storyboard Layer 3 (Foreground)
//Storyboard Layer 4 (Overlay)
//Storyboard Sound Samples

[TimingPoints]
870,400,4,2,1,20,1,0
10470,-100,4,2,1,15,0,0
12636,-100,4,2,1,10,0,0
13670,-100,4,2,1,15,0,0
14070,-100,4,2,1,20,0,0
14470,-100,4,2,1,25,0,0
14870,-100,4,2,1,30,0,0
15270,-100,4,2,1,35,0,0
15670,-100,4,2,1,15,0,0
16070,-100,4,2,2,60,0,0
16670,-100,4,2,2,30,0,0
16870,-100,4,2,2,80,0,0
17270,-100,4,2,3,60,0,0
18470,-100,4,2,2,80,0,0
18870,-100,4,2,3,60,0,0
20070,-100,4,2,2,80,0,0
20470,-100,4,2,3,70,0,0
21670,-100,4,2,2,80,0,0
22070,-100,4,2,3,60,0,0
23270,-100,4,2,2,80,0,0
23670,-100,4,2,3,70,0,0
24870,-100,4,2,2,80,0,0
25270,-100,4,2,3,60,0,0
26470,-100,4,2,4,60,0,0
30070,-100,4,2,3,60,0,0
31270,-100,4,2,2,80,0,0
31670,-100,4,2,3,60,0,0
32870,-100,4,2,2,80,0,0
33270,-100,4,2,3,70,0,0
34470,-100,4,2,2,80,0,0
34870,-100,4,2,3,60,0,0
36070,-100,4,2,2,80,0,0
36470,-100,4,2,3,70,0,0
37670,-100,4,2,2,80,0,0
38070,-100,4,2,3,60,0,0
39270,-100,4,2,7,60,0,0
39470,-100,4,2,1,30,0,0
40070,-100,4,2,2,30,0,0
40470,-100,4,2,1,30,0,0
40870,-100,4,2,4,30,0,0
41070,-100,4,2,1,30,0,0
41470,-100,4,2,4,30,0,0
41670,-100,4,2,7,60,0,0
42070,-100,4,2,1,40,0,0
42270,-100,4,2,1,20,0,0
42470,-100,4,2,4,80,0,1
42870,-100,4,2,4,70,0,1
44870,-100,4,2,2,70,0,1
45270,-100,4,2,4,70,0,1
48470,-100,4,2,4,50,0,1
48670,-100,4,2,4,30,0,1
48870,-100,4,2,4,70,0,1
51670,-100,4,2,4,60,0,1
51870,-100,4,2,4,65,0,1
52070,-100,4,2,4,70,0,1
52270,-100,4,2,4,75,0,1
52470,-100,4,2,4,80,0,1
54470,-100,4,2,2,70,0,1
54870,-100,4,2,4,80,0,1
57670,-100,4,2,2,70,0,1
58070,-100,4,2,4,50,0,1
58270,-100,4,2,4,30,0,1
58470,-100,4,2,4,70,0,1
61270,-100,4,2,4,50,0,1
61470,-100,4,2,4,30,0,1
61670,-100,4,2,4,50,0,0
62070,-100,4,2,1,40,0,0
63270,-100,4,2,4,50,0,0
63870,-100,4,2,1,40,0,0
64070,-100,4,2,4,50,0,0
64470,-100,4,2,1,40,0,0
64870,-100,4,2,4,60,0,0
71270,-100,4,2,4,50,0,0
71670,-100,4,2,4,20,0,0
72870,-100,4,2,4,30,0,0
74470,-100,4,2,4,40,0,0
76070,-100,4,2,4,20,0,0
77670,-100,4,2,1,20,0,0
84470,-100,4,2,1,23,0,0
84870,-100,4,2,1,26,0,0
85270,-100,4,2,1,29,0,0
85670,-100,4,2,1,32,0,0
86070,-100,4,2,1,36,0,0
86470,-100,4,2,1,40,0,0
86870,-100,4,2,1,20,0,0
87270,-100,4,2,1,40,0,0
87670,-100,4,2,1,60,0,0
88070,-100,4,2,1,50,0,0
88470,-100,4,2,1,70,0,0
88870,-100,4,2,4,60,0,0
89070,-100,4,3,0,50,0,0
89270,-100,4,3,0,40,0,0
89470,-100,4,2,4,60,0,0
89670,-100,4,3,0,50,0,0
90470,-100,4,2,2,80,0,0
90870,-100,4,2,1,50,0,0
92070,-100,4,2,2,80,0,0
92470,-100,4,2,3,60,0,0
93670,-100,4,2,2,80,0,0
94070,-100,4,2,3,70,0,0
95270,-100,4,2,2,80,0,0
95670,-100,4,2,3,60,0,0
96870,-100,4,2,2,80,0,0
97270,-100,4,2,3,60,0,0
98470,-100,4,2,2,80,0,0
98870,-100,4,2,3,60,0,0
100070,-100,4,2,2,80,0,0
100470,-100,4,2,3,60,0,0
101270,-100,4,2,3,50,0,0
101670,-100,4,2,3,60,0,0
102470,-100,4,2,3,50,0,0
102870,-100,4,2,1,40,0,0
103270,-100,4,2,2,60,0,1
103670,-100,4,2,3,60,0,1
104870,-100,4,2,2,60,0,1
105270,-100,4,2,3,60,0,1
106470,-100,4,2,2,60,0,1
106870,-100,4,2,3,70,0,1
108070,-100,4,2,2,60,0,1
108470,-100,4,2,3,60,0,1
109670,-100,4,2,1,40,0,0
110470,-100,4,2,3,60,0,1
111270,-100,4,2,2,60,0,1
112070,-100,4,2,3,60,0,1
112870,-100,4,2,2,60,0,1
113670,-100,4,2,3,60,0,1
114470,-100,4,2,4,60,0,0
114670,-100,4,2,1,40,0,0
115270,-100,4,2,3,60,0,0
115470,-100,4,2,1,50,0,0
116070,-100,4,2,4,70,0,1
122070,-100,4,2,1,70,0,1
122470,-100,4,2,4,70,0,1
125670,-100,4,2,4,60,0,0
126270,-100,4,2,1,30,0,0
126470,-100,4,2,1,60,0,0
127270,-100,4,2,4,60,0,0
127870,-100,4,2,1,30,0,0
128070,-100,4,2,1,40,0,0
128470,-100,4,2,1,50,0,0
128870,-100,4,2,2,70,0,0
129270,-100,4,2,1,50,0,0
130470,-100,4,2,2,70,0,0
130870,-100,4,2,1,50,0,0
132070,-100,4,2,2,70,0,0
132470,-100,4,2,1,60,0,0
133670,-100,4,2,2,70,0,0
134070,-100,4,2,1,50,0,0
135270,-100,4,2,2,70,0,0
135670,-100,4,2,1,50,0,0
136870,-100,4,2,2,70,0,0
137270,-100,4,2,1,50,0,0
138470,-100,4,2,2,70,0,0
139070,-100,4,2,4,70,0,0
139270,-100,4,2,2,70,0,0
140070,-100,4,2,4,70,0,0
140870,-100,4,2,1,70,0,0
141270,-100,4,2,1,60,0,0
141670,-100,4,2,2,60,0,0
142470,-100,4,2,9,45,0,0
143536,-100,4,2,3,60,0,0
144070,-100,4,2,9,45,0,0
144270,-100,4,2,1,60,0,0
144870,-100,4,2,3,60,0,0
145670,-100,4,2,9,45,0,0
146736,-100,4,2,3,60,0,0
147270,-100,4,3,1,70,0,0
147570,-100,4,3,1,60,0,0
147870,-100,4,3,1,50,0,0
148070,-100,4,2,2,60,0,0
148470,-100,4,2,3,60,0,0
148870,-100,4,2,9,45,0,0
149403,-100,4,2,1,60,0,0
149936,-100,4,2,3,60,0,0
150470,-100,4,2,9,45,0,0
150603,-100,4,2,1,60,0,0
151270,-100,4,3,1,80,0,0
151470,-100,4,3,1,30,0,0
152070,-100,4,2,2,70,0,0
152203,-100,4,2,1,70,0,0
153136,-100,4,2,3,70,0,0
153670,-100,4,2,7,50,0,0
154470,-100,4,2,2,60,0,0
155270,-100,4,2,9,45,0,0
156336,-100,4,2,3,60,0,0
156870,-100,4,2,2,60,0,0
158370,-100,4,2,3,60,0,0
158470,-100,4,2,9,45,0,0
159070,-100,4,2,1,60,0,0
159570,-100,4,2,3,60,0,0
160070,-100,4,3,1,70,0,0
160370,-100,4,3,1,60,0,0
160670,-100,4,3,1,50,0,0
160870,-100,4,2,2,60,0,0
161270,-100,4,2,3,60,0,0
161670,-100,4,2,9,45,0,0
162070,-100,4,2,1,60,0,0
162736,-100,4,2,3,60,0,0
163270,-100,4,2,9,45,0,0
163470,-100,4,2,1,60,0,0
164070,-100,4,3,1,80,0,0
164270,-100,4,3,1,30,0,0
164870,-100,4,2,2,70,0,0
165070,-100,4,2,1,70,0,0
165936,-100,4,2,3,70,0,0
166203,-100,4,2,1,70,0,0
166470,-100,4,2,3,80,0,0
166670,-100,4,2,0,20,0,0
167670,-100,4,2,0,15,0,0
168670,-100,4,2,0,10,0,0
169670,-100,4,2,0,5,0,0

[Colours]
Combo1 : 44,187,36
Combo2 : 17,47,123
Combo3 : 68,149,139
Combo4 : 33,133,90

[HitObjects]
256,192,870,5,4,0:0:0:0:
472,192,1570,2,0,L|472:120,1,37.5,0|8,0:0|0:0,0:0:0:0:
256,192,2470,5,4,0:0:0:0:
24,192,3170,2,0,L|24:120,1,37.5,0|8,0:0|0:0,0:0:0:0:
256,192,4070,5,4,0:0:0:0:
40,176,4770,2,0,L|80:176,1,37.5,0|8,0:0|0:0,0:0:0:0:
256,136,5670,5,4,0:0:0:0:
472,192,6370,2,0,L|408:192,1,37.5,0|8,0:0|0:0,0:0:0:0:
200,200,7270,5,4,0:0:0:0:
368,200,7970,2,0,L|432:200,1,37.5,0|8,0:0|0:0,0:0:0:0:
128,200,8870,5,4,0:0:0:0:
296,192,9570,2,0,L|224:192,1,37.5,0|8,0:0|0:0,0:0:0:0:
416,192,10470,5,4,0:0:0:0:
224,216,11003,1,2,0:0:0:0:
304,216,11403,1,2,0:0:0:0:
328,144,11803,1,2,0:0:0:0:
256,104,12203,5,2,0:0:0:0:
176,128,12603,1,2,0:0:0:0:
256,120,13003,1,2,0:0:0:0:
256,120,13403,5,2,0:0:0:0:
256,192,13670,12,2,15670,0:0:0:0:
152,192,16070,6,0,B|80:192|80:192|256:192,1,225,12|0,0:0|0:0,0:0:0:0:
328,192,16870,6,0,B|400:192|400:192|360:120,1,150,6|2,0:0|0:0,0:0:0:0:
216,104,17670,1,8,0:0:0:0:
144,104,17870,2,0,B|88:88|88:88|160:72,1,112.5,2|2,0:0|0:0,0:0:0:0:
288,192,18470,6,0,P|368:192|432:144,1,150,6|2,0:0|0:0,0:0:0:0:
256,184,19270,1,8,0:0:0:0:
184,192,19470,2,0,L|296:280,1,112.5,2|2,0:0|0:0,0:0:0:0:
425,243,20070,6,0,P|417:315|321:315,1,150,6|2,0:0|0:0,0:0:0:0:
200,328,20870,1,8,0:0:0:0:
272,328,21070,2,0,L|400:328,1,112.5,2|2,0:0|0:0,0:0:0:0:
233,322,21670,6,0,P|172:301|209:226,1,150,6|2,0:0|0:0,0:0:0:0:
352,216,22470,1,8,0:0:0:0:
280,216,22670,2,0,L|280:96,1,112.5,2|2,0:0|0:0,0:0:0:0:
432,145,23270,6,0,P|432:89|344:41,1,150,6|2,0:0|0:0,0:0:0:0:
197,42,24070,1,8,0:0:0:0:
115,51,24270,2,0,P|115:115|179:139,1,112.5,2|2,0:0|0:0,0:0:0:0:
303,142,24870,6,0,P|367:126|407:54,1,150,6|2,0:0|0:0,0:0:0:0:
214,50,25670,1,8,0:0:0:0:
303,50,25870,2,0,L|415:50,1,112.5,2|2,0:0|0:0,0:0:0:0:
256,48,26470,5,2,0:0:0:0:
104,48,26870,1,2,0:0:0:0:
256,48,27270,1,8,0:0:0:0:
408,48,27670,1,2,0:0:0:0:
256,48,28070,6,0,L|256:136,1,75,2|2,0:0|0:0,0:0:0:0:
328,120,28470,2,0,L|424:120,1,75,2|2,0:0|0:0,0:0:0:0:
480,120,28870,1,8,0:0:0:0:
328,120,29270,1,0,0:0:0:0:
128,120,29670,6,0,P|96:176|168:208,1,150,2|2,0:0|0:0,0:0:0:0:
304,216,30470,1,8,0:0:0:0:
304,144,30670,1,2,0:0:0:0:
192,144,30970,1,2,0:0:0:0:
48,152,31270,6,0,P|48:224|120:264,1,150,6|2,0:0|0:0,0:0:0:0:
256,264,32070,1,8,0:0:0:0:
256,192,32270,1,2,0:0:0:0:
144,192,32570,1,2,0:0:0:0:
296,192,32870,6,0,P|296:128|216:72,1,150,6|2,0:0|0:0,0:0:0:0:
384,88,33670,1,8,0:0:0:0:
312,88,33870,1,2,0:0:0:0:
200,80,34170,1,2,0:0:0:0:
344,192,34470,6,0,P|393:239|337:295,1,150,6|2,0:0|0:0,0:0:0:0:
192,296,35270,1,8,0:0:0:0:
264,296,35470,1,2,0:0:0:0:
376,288,35770,1,2,0:0:0:0:
224,232,36070,6,0,L|80:152,1,150,6|2,0:0|0:0,0:0:0:0:
240,152,36870,1,8,0:0:0:0:
240,80,37070,1,2,0:0:0:0:
128,80,37370,1,2,0:0:0:0:
280,88,37670,6,0,L|440:48,1,150,6|2,0:0|0:0,0:0:0:0:
256,64,38470,1,8,0:0:0:0:
256,133,38670,1,2,0:0:0:0:
360,136,38970,1,2,0:0:0:0:
256,208,39270,6,0,L|256:112,1,75,2|0,0:0|0:0,0:0:0:0:
154,112,39670,1,2,0:0:0:0:
320,112,40070,1,8,0:0:0:0:
176,112,40470,1,0,0:0:0:0:
328,136,40870,6,0,L|328:245,1,75,2|0,0:0|0:0,0:0:0:0:
256,208,41270,2,0,L|168:208,1,75,2|2,0:0|0:0,0:0:0:0:
104,208,41670,2,0,B|24:208|24:208|184:208,1,225,12|0,0:0|0:0,0:0:0:0:
256,208,42470,6,0,B|376:208|376:208|184:208,1,300,6|8,0:0|0:0,0:0:0:0:
48,192,43670,1,0,0:0:0:0:
232,192,44070,5,2,0:0:0:0:
384,192,44470,2,0,L|208:192,1,150,2|4,0:0|0:0,0:0:0:0:
80,96,45270,1,2,0:0:0:0:
232,96,45670,6,0,P|208:136|264:208,1,150,6|0,0:0|0:0,0:0:0:0:
416,216,46470,2,0,P|400:296|320:312,1,150,8|0,0:0|0:0,0:0:0:0:
184,328,47270,6,0,L|80:328,2,75,2|0|0,0:0|0:0|0:0,0:0:0:0:
256,328,47870,1,2,0:0:0:0:
328,272,48070,2,0,B|416:272|416:272|256:272,1,225,8|0,0:0|0:0,0:0:0:0:
208,137,48870,6,0,L|48:97,1,150,6|0,0:0|0:0,0:0:0:0:
232,136,49670,2,0,L|384:112,1,150,8|0,0:0|0:0,0:0:0:0:
232,136,50470,6,0,L|136:136,2,75,2|0|0,0:0|0:0|0:0,0:0:0:0:
304,128,51070,1,2,0:0:0:0:
232,128,51270,1,8,0:0:0:0:
80,136,51670,6,0,L|80:232,3,75,2|2|2|2,0:0|0:0|0:0|0:0,0:0:0:0:
152,208,52470,1,8,0:0:0:0:
344,206,52870,2,0,P|424:206|336:206,1,150,8|0,0:0|0:0,0:0:0:0:
199,203,53670,6,0,P|223:267|303:275,1,150,6|0,0:0|0:0,0:0:0:0:
160,192,54470,2,0,B|57:172|57:172|67:125,1,150,4|2,0:0|0:0,0:0:0:0:
264,96,55270,6,0,L|416:96,2,150,6|0|8,0:0|0:0|0:0,0:0:0:0:
406,93,56470,1,0,0:0:0:0:
240,88,56870,6,0,L|80:48,1,150,2|0,0:0|0:0,0:0:0:0:
216,128,57670,2,0,P|168:216|272:240,1,225,4|0,0:0|0:0,0:0:0:0:
336,232,58470,6,0,P|375:151|222:55,1,300,6|8,0:0|0:0,0:0:0:0:
384,48,59670,1,0,0:0:0:0:
192,48,60070,6,0,L|344:88,1,150,2|0,0:0|0:0,0:0:0:0:
168,88,60870,2,0,P|96:104|176:160,1,225,8|0,0:0|0:0,0:0:0:0:
256,160,61670,5,12,0:0:0:0:
408,192,62070,1,0,0:0:0:0:
256,176,62470,2,0,L|80:200,1,150,2|0,0:0|0:0,0:0:0:0:
104,120,63070,1,0,0:0:0:0:
176,120,63270,5,6,0:0:0:0:
328,128,63670,1,0,0:0:0:0:
400,128,63870,1,2,0:0:0:0:
472,128,64070,2,0,P|432:192|344:184,1,150,8|2,0:0|0:0,0:0:0:0:
152,192,64870,6,0,P|296:56|440:224,1,450,6|0,0:0|0:0,0:0:0:0:
320,288,66470,6,0,P|384:240|192:72,1,450,12|0,0:0|0:0,0:0:0:0:
48,104,68070,6,0,P|56:240|328:296,1,450,6|0,0:0|0:0,0:0:0:0:
176,200,69670,6,0,B|488:208|248:112,1,300,12|2,0:0|0:0,0:0:0:0:
256,192,71270,5,6,0:0:0:0:
256,192,71670,12,4,77670,0:0:0:0:
256,192,84070,12,2,86870,0:0:0:0:
256,192,87270,5,2,0:0:0:0:
328,192,87470,1,0,0:0:0:0:
256,192,87670,1,2,0:0:0:0:
424,200,88070,1,2,0:0:0:0:
424,200,88270,1,0,0:0:0:0:
424,200,88470,1,2,0:0:0:0:
256,192,88870,6,0,L|168:192,2,75,8|8|8,0:0|0:0|0:0,0:0:0:0:
328,192,89470,2,0,L|328:112,1,75,8|8,0:0|0:0,0:0:0:0:
176,120,90070,1,8,0:0:0:0:
372,121,90470,6,0,P|372:201|300:217,1,150,6|2,0:0|0:0,0:0:0:0:
150,232,91270,1,8,0:0:0:0:
78,232,91470,1,0,0:0:0:0:
118,168,91670,1,2,0:0:0:0:
315,160,92070,6,0,L|475:128,1,150,6|2,0:0|0:0,0:0:0:0:
282,129,92870,1,8,0:0:0:0:
394,124,93170,1,2,0:0:0:0:
468,124,93370,1,2,0:0:0:0:
311,184,93670,6,0,P|239:152|271:80,1,150,6|2,0:0|0:0,0:0:0:0:
400,96,94470,1,8,0:0:0:0:
287,98,94770,1,2,0:0:0:0:
174,104,95070,1,2,0:0:0:0:
99,104,95270,6,0,L|275:72,1,150,6|2,0:0|0:0,0:0:0:0:
400,88,96070,1,8,0:0:0:0:
328,88,96270,1,2,0:0:0:0:
400,88,96470,1,2,0:0:0:0:
400,128,96570,1,2,0:0:0:0:
256,112,96870,6,0,L|408:160,1,150,6|2,0:0|0:0,0:0:0:0:
256,192,97670,1,8,0:0:0:0:
144,184,97970,1,2,0:0:0:0:
72,184,98170,1,2,0:0:0:0:
224,192,98470,6,0,P|304:192|208:192,1,150,6|2,0:0|0:0,0:0:0:0:
376,222,99270,1,8,0:0:0:0:
304,222,99470,1,2,0:0:0:0:
416,222,99770,1,2,0:0:0:0:
262,216,100070,5,6,0:0:0:0:
120,216,100470,1,2,0:0:0:0:
272,216,100870,1,8,0:0:0:0:
120,216,101270,1,2,0:0:0:0:
200,216,101470,1,2,0:0:0:0:
280,208,101670,6,0,L|280:128,1,75,2|2,0:0|0:0,0:0:0:0:
208,128,102070,2,0,L|128:128,1,75,2|2,0:0|0:0,0:0:0:0:
56,128,102470,1,8,0:0:0:0:
224,128,102870,1,2,0:0:0:0:
423,125,103270,6,0,B|495:125|495:125|399:125,1,150,6|2,0:0|0:0,0:0:0:0:
236,122,104070,2,0,L|236:202,2,75,8|0|2,0:0|0:0|0:0,0:0:0:0:
49,119,104870,6,0,P|57:215|129:223,1,150,6|2,0:0|0:0,0:0:0:0:
256,232,105670,2,0,L|360:232,2,75,8|0|2,0:0|0:0|0:0,0:0:0:0:
436,233,106470,6,0,P|436:161|356:113,1,150,6|2,0:0|0:0,0:0:0:0:
204,111,107270,1,8,0:0:0:0:
204,183,107470,1,0,0:0:0:0:
276,183,107670,1,2,0:0:0:0:
472,166,108070,6,0,L|336:102,1,150,6|2,0:0|0:0,0:0:0:0:
164,98,108870,2,0,L|84:98,1,75,8|0,0:0|0:0,0:0:0:0:
163,103,109270,2,0,L|243:103,1,75,2|0,0:0|0:0,0:0:0:0:
148,105,109670,5,2,0:0:0:0:
264,168,110070,1,8,0:0:0:0:
264,168,110270,1,2,0:0:0:0:
166,165,110470,2,0,P|166:101|254:69,1,150,8|2,0:0|0:0,0:0:0:0:
429,98,111270,6,0,P|437:154|341:178,1,150,6|4,0:0|0:0,0:0:0:0:
192,192,112070,2,0,L|32:192,1,150,8|2,0:0|0:0,0:0:0:0:
246,191,112870,6,0,L|430:191,3,150,6|4|8|2,0:0|0:0|0:0|0:0,0:0:0:0:
201,194,114470,5,2,0:0:0:0:
336,200,114870,2,0,L|336:112,1,75,2|0,0:0|0:0,0:0:0:0:
256,128,115270,1,8,0:0:0:0:
104,112,115670,2,0,L|192:112,1,75,2|0,0:0|0:0,0:0:0:0:
278,111,116070,6,0,B|366:111|366:111|134:111,1,300,6|8,0:0|0:0,0:0:0:0:
331,109,117270,1,0,0:0:0:0:
122,201,117670,6,0,P|42:201|138:121,1,300,6|8,0:0|0:0,0:0:0:0:
272,112,118870,1,0,0:0:0:0:
96,104,119270,6,0,P|224:104|320:256,1,300,6|8,0:0|0:0,0:0:0:0:
184,240,120470,1,0,0:0:0:0:
383,241,120870,6,0,B|176:200|176:200|128:176|136:120,1,300,14|8,0:0|0:0,0:0:0:0:
288,128,122070,2,0,L|376:128,1,75,2|0,0:0|0:0,0:0:0:0:
256,128,122470,6,0,B|104:128|104:128|264:128,1,300,6|8,0:0|0:0,0:0:0:0:
400,128,123670,1,0,0:0:0:0:
195,126,124070,6,0,B|115:126|115:126|275:126|275:126|179:126,1,300,6|8,0:0|0:0,0:0:0:0:
73,135,125270,1,0,0:0:0:0:
272,168,125670,6,0,P|288:240|152:320,1,225,6|0,0:0|0:0,0:0:0:0:
104,328,126470,1,2,0:0:0:0:
256,336,126870,1,0,0:0:0:0:
449,336,127270,6,0,B|505:336|505:336|329:336,1,225,6|0,0:0|0:0,0:0:0:0:
240,336,128070,1,2,0:0:0:0:
392,336,128470,1,2,0:0:0:0:
192,336,128870,6,0,B|192:184,1,150,6|2,0:0|0:0,0:0:0:0:
368,336,129670,1,8,0:0:0:0:
368,336,130070,1,0,0:0:0:0:
173,336,130470,6,0,P|93:296|93:232,1,150,6|2,0:0|0:0,0:0:0:0:
256,200,131270,1,8,0:0:0:0:
408,200,131670,1,0,0:0:0:0:
209,202,132070,6,0,P|193:154|265:90,1,150,6|2,0:0|0:0,0:0:0:0:
135,95,132870,1,8,0:0:0:0:
159,167,133070,1,0,0:0:0:0:
231,167,133270,1,2,0:0:0:0:
440,128,133670,6,0,L|312:208,1,150,6|2,0:0|0:0,0:0:0:0:
168,184,134470,1,8,0:0:0:0:
96,184,134670,1,0,0:0:0:0:
168,184,134870,1,2,0:0:0:0:
365,186,135270,6,0,P|429:154|421:82,1,150,6|2,0:0|0:0,0:0:0:0:
256,88,136070,1,8,0:0:0:0:
184,88,136270,1,0,0:0:0:0:
112,88,136470,1,2,0:0:0:0:
311,89,136870,6,0,P|311:169|223:201,1,150,6|2,0:0|0:0,0:0:0:0:
88,216,137670,1,8,0:0:0:0:
24,176,137870,1,0,0:0:0:0:
96,144,138070,1,2,0:0:0:0:
298,152,138470,6,0,P|347:142|330:56,1,150,6|6,0:0|0:0,0:0:0:0:
264,64,139070,1,2,0:0:0:0:
192,64,139270,2,0,L|32:120,1,150,6|6,0:0|0:0,0:0:0:0:
256,80,140070,6,0,L|256:176,3,75,8|2|8|2,0:0|0:0|0:0|0:0,0:0:0:0:
184,160,140870,1,2,0:0:0:0:
336,160,141270,1,2,0:0:0:0:
128,168,141670,6,0,B|16:168|16:168|216:168,1,312.5,4|4,0:0|0:0,0:0:0:0:
408,248,143536,6,0,L|216:136,1,212.5,2|4,0:0|0:0,0:0:0:0:
152,144,144270,2,0,L|48:144,2,75
253,143,144870,6,0,P|325:143|189:143,1,187.5,2|2,0:0|0:0,0:0:0:0:
85,144,145703,1,4,0:0:0:0:
392,200,146736,5,2,0:0:0:0:
192,184,147270,1,8,0:0:0:0:
320,184,147570,1,2,0:0:0:0:
224,184,147870,1,8,0:0:0:0:
326,178,148070,6,0,P|374:178|422:90,1,150,6|2,0:0|0:0,0:0:0:0:
240,88,148903,6,0,L|48:88,1,187.5,4|2,0:0|0:0,0:0:0:0:
240,96,149936,1,2,0:0:0:0:
48,192,150503,2,0,L|240:192,1,187.5,4|0,0:0|0:0,0:0:0:0:
160,192,151270,6,0,P|128:120|288:40,1,300,2|8,0:0|0:0,0:0:0:0:
368,72,152270,2,0,L|368:152,2,75,2|0|2,0:0|0:0|0:0,0:0:0:0:
256,88,152870,5,2,0:0:0:0:
136,88,153136,1,2,0:0:0:0:
256,88,153403,1,2,0:0:0:0:
120,88,153670,1,2,0:0:0:0:
480,112,154470,6,0,P|464:198|272:270,1,312.5,4|4,0:0|0:0,0:0:0:0:
80,256,156336,6,0,L|80:184,1,50,2|0,0:0|0:0,0:0:0:0:
256,192,156870,6,0,L|56:176,2,187.5,4|4|4,0:0|0:0|0:0,0:0:0:0:
440,184,158370,1,2,0:0:0:0:
440,128,158503,1,4,0:0:0:0:
216,144,159070,1,2,0:0:0:0:
144,144,159270,6,2,P|88:144|176:144,1,112.5,8|2,0:0|0:0,0:0:0:0:
328,160,160070,1,8,0:0:0:0:
216,160,160370,1,2,0:0:0:0:
104,160,160670,1,8,0:0:0:0:
176,160,160870,6,0,L|176:80,1,75,6|0,0:0|0:0,0:0:0:0:
104,112,161270,2,0,P|100:200|165:225,1,162.5,2|4,0:0|0:0,0:0:0:0:
296,224,162070,2,0,L|384:224,1,75,2|0,0:0|0:0,0:0:0:0:
448,216,162470,6,0,L|448:112,1,100,2|2,0:0|0:0,0:0:0:0:
232,112,163303,2,0,L|232:200,1,75,4|0,0:0|0:0,0:0:0:0:
320,184,163703,2,0,L|320:96,1,75,2|0,0:0|0:0,0:0:0:0:
225,112,164070,6,0,P|137:112|353:112,1,300,2|8,0:0|0:0,0:0:0:0:
448,112,165070,2,0,L|448:208,2,75,2|0|2,0:0|0:0|0:0,0:0:0:0:
372,112,165670,1,2,0:0:0:0:
272,112,165936,1,2,0:0:0:0:
168,112,166203,1,2,0:0:0:0:
168,112,166336,1,2,0:0:0:0:
256,192,166470,5,8,0:0:0:0:
256,192,166870,12,0,169670,0:0:0:0:
