osu file format v14

[General]
AudioFilename: audio.mp3
AudioLeadIn: 0
PreviewTime: 72859
Countdown: 0
SampleSet: Drum
StackLeniency: 0.5
Mode: 0
LetterboxInBreaks: 0
WidescreenStoryboard: 0

[Editor]
DistanceSpacing: 1.7
BeatDivisor: 4
GridSize: 32
TimelineZoom: 3.299999

[Metadata]
Title:Sleepy Tea
TitleUnicode:Sleepy Tea
Artist:CHON
ArtistUnicode:CHON
Creator:piroshki
Version:Advanced
Source:
Tags:alternative indie math rock instrumental homey progressive inazuma myangelyamakaze owc osu world cup 2019
BeatmapID:2046158
BeatmapSetID:959788

[Difficulty]
HPDrainRate:3
CircleSize:3.2
OverallDifficulty:4.5
ApproachRate:6.6
SliderMultiplier:1.2
SliderTickRate:1

[Events]
//Background and Video events
0,0,"74187190_p0.jpg",0,0
Video,-140,"video.mp4"
//Break Periods
2,26425,28008
2,110630,123153
//Storyboard Layer 0 (Background)
//Storyboard Layer 1 (Fail)
//Storyboard Layer 2 (Pass)
//Storyboard Layer 3 (Foreground)
//Storyboard Layer 4 (Overlay)
//Storyboard Sound Samples

[TimingPoints]
11140,342.857142857143,4,3,1,50,1,0
25540,-100,4,3,1,35,0,0
28968,-111.111111111111,4,3,1,50,0,0
41331,338.983050847458,4,3,1,50,1,0
41331,-111.111111111111,4,3,1,50,0,0
41996,342.857142857143,4,3,1,50,1,0
41996,-111.111111111111,4,3,1,50,0,0
50910,-100,4,3,1,40,0,0
72854,342.857142857143,7,3,1,50,1,0
89654,342.857142857143,4,3,1,50,1,0
92396,-100,4,3,1,60,0,0
103368,685.714285714286,4,3,1,60,1,0
107195,526.315789473684,4,3,1,50,1,0
107721,550.45871559633,4,3,1,50,1,0
108271,539.568345323741,4,3,1,50,1,0
109350,530.973451327434,4,3,1,40,1,0
109880,550.45871559633,4,3,1,50,1,0
110430,684.150513112885,4,3,1,50,1,0
124113,300,4,3,1,60,1,0
124113,-125,4,3,1,60,0,0
143313,-111.111111111111,4,3,1,70,0,0
161463,306.122448979592,4,3,1,50,1,0
161463,-111.111111111111,4,3,1,50,0,0
169728,-111.111111111111,4,3,1,30,0,0

[Colours]
Combo1 : 150,150,233
Combo2 : 164,179,233
Combo3 : 166,222,255
SliderBorder : 170,230,201

[HitObjects]
469,136,11140,5,4,3:1:0:0:
420,204,11311,2,0,P|432:237|432:285,2,60,0|0|0,3:0|3:0|3:0,0:0:0:0:
341,172,11825,1,8,3:0:0:0:
264,207,11997,2,0,P|210:218|180:213,1,60,0|2,3:0|3:2,0:0:0:0:
126,190,12340,1,2,3:2:0:0:
52,231,12511,6,0,P|37:177|50:111,1,120,2|0,3:2|3:0,0:0:0:0:
108,55,13025,1,0,3:0:0:0:
108,55,13197,2,0,P|141:56|181:49,1,60,8|0,3:0|3:0,0:0:0:0:
247,27,13540,2,0,P|275:22|309:25,1,60,2|0,3:2|3:0,0:0:0:0:
374,74,13882,6,0,P|387:136|366:205,1,120,2|0,3:2|3:0,0:0:0:0:
314,250,14397,1,0,3:0:0:0:
344,328,14568,2,0,L|408:324,1,60,8|8,3:0|3:0,0:0:0:0:
483,351,14911,2,0,P|488:304|480:278,1,60,2|0,3:2|3:0,0:0:0:0:
469,212,15254,6,0,P|460:179|462:148,1,60,2|2,3:2|3:2,0:0:0:0:
505,81,15597,2,0,B|476:66|476:66|323:73,1,180,2|0,3:2|3:0,0:0:0:0:
261,122,16282,2,0,L|173:126,1,60,2|2,3:2|3:2,0:0:0:0:
131,70,16625,2,0,B|119:132|119:132|144:200,1,120,2|0,3:2|3:0,0:0:0:0:
185,259,17140,1,0,3:0:0:0:
164,340,17311,2,0,L|97:335,1,60,8|8,3:0|3:0,0:0:0:0:
37,283,17654,2,0,P|27:246|32:202,1,60,2|0,3:2|3:0,0:0:0:0:
57,145,17997,6,0,L|179:148,1,120,2|0,3:2|3:0,0:0:0:0:
252,186,18511,1,0,3:0:0:0:
252,186,18682,2,0,P|265:158|265:120,1,60,8|0,3:0|3:0,0:0:0:0:
235,50,19025,6,0,P|263:43|295:48,1,60,2|2,3:2|3:2,0:0:0:0:
369,84,19368,2,0,L|355:276,1,180,2|0,3:2|3:0,0:0:0:0:
393,341,20054,2,0,L|322:348,1,60,8|8,3:0|3:0,0:0:0:0:
256,371,20397,2,0,L|170:362,1,60,8|8,3:0|3:0,0:0:0:0:
118,384,20740,2,0,B|107:354|107:354|121:247,1,120,8|0,3:0|3:0,0:0:0:0:
42,230,21254,1,8,3:0:0:0:
34,146,21425,1,8,3:0:0:0:
117,109,21597,1,8,3:0:0:0:
117,109,21768,2,0,L|181:111,1,60,8|0,3:0|3:0,0:0:0:0:
250,151,22111,5,8,3:0:0:0:
411,103,22454,1,8,3:0:0:0:
502,243,22797,1,8,3:0:0:0:
398,110,23140,1,8,3:0:0:0:
346,269,23482,1,4,3:1:0:0:
346,269,24168,5,2,3:0:0:0:
192,336,24511,1,2,3:0:0:0:
35,274,24854,1,2,3:0:0:0:
35,274,25540,5,2,2:0:0:0:
192,336,25882,1,2,2:0:0:0:
346,269,26225,1,2,2:0:0:0:
242,125,28968,6,0,L|188:127,1,53.9999983520508,0|0,3:0|2:0,0:0:0:0:
107,96,29311,2,0,P|102:123|104:149,1,53.9999983520508,0|0,3:0|3:0,0:0:0:0:
167,208,29654,2,0,L|178:333,1,107.999996704102,8|0,3:0|3:0,0:0:0:0:
176,315,30340,6,0,B|231:299|231:299|289:328,1,107.999996704102,0|0,3:0|3:0,0:0:0:0:
442,370,31025,6,0,P|440:342|437:315,1,53.9999983520508,8|0,2:3|2:0,0:0:0:0:
369,262,31368,2,0,P|370:234|374:207,1,53.9999983520508,2|0,2:0|3:0,0:0:0:0:
430,142,31711,5,2,3:2:0:0:
299,28,32054,1,2,3:2:0:0:
155,124,32397,2,0,L|101:130,1,53.9999983520508,2|0,3:2|3:0,0:0:0:0:
32,78,32740,1,2,3:2:0:0:
139,212,33082,6,0,L|146:266,2,53.9999983520508,2|2|2,3:2|3:2|2:0,0:0:0:0:
30,347,33768,2,0,B|75:331|75:331|131:365,1,107.999996704102,8|0,3:0|3:0,0:0:0:0:
283,289,34454,6,0,P|308:280|337:274,1,53.9999983520508,2|0,3:2|3:0,0:0:0:0:
417,301,34797,1,2,3:2:0:0:
490,256,34968,2,0,L|486:202,1,53.9999983520508,2|8,2:2|3:0,0:0:0:0:
427,145,35311,1,2,3:2:0:0:
427,145,35482,1,2,3:2:0:0:
358,91,35654,2,0,L|304:85,1,53.9999983520508,2|0,2:2|2:0,0:0:0:0:
187,212,36168,6,0,L|294:225,2,107.999996704102,2|8|0,3:2|3:0|2:0,0:0:0:0:
81,30,37197,6,0,P|84:57|85:93,1,53.9999983520508,2|0,3:2|3:0,0:0:0:0:
41,158,37540,1,2,2:2:0:0:
86,231,37711,2,0,P|82:258|82:294,1,53.9999983520508,2|8,2:2|3:0,0:0:0:0:
152,343,38054,1,2,2:0:0:0:
152,343,38225,1,2,2:0:0:0:
231,307,38397,2,0,P|256:306|284:309,1,53.9999983520508,0|0,2:0|2:0,0:0:0:0:
448,360,38911,6,0,P|463:308|462:254,2,107.999996704102,2|8|0,3:2|3:0|2:0,0:0:0:0:
335,229,39940,2,0,L|280:222,1,53.9999983520508,2|0,2:0|2:0,0:0:0:0:
222,159,40282,1,2,2:0:0:0:
140,187,40454,2,0,P|134:160|136:133,1,53.9999983520508,0|8,3:0|3:0,0:0:0:0:
188,65,40797,1,0,2:0:0:0:
258,15,40968,2,0,L|334:29,1,53.9999983520508,2|0,2:0|3:0,0:0:0:0:
404,53,41331,6,0,B|457:35|457:35|505:62,1,107.999996704102,2|0,3:2|3:0,0:0:0:0:
469,222,41996,6,0,L|449:382,1,161.999995056153,10|0,2:0|3:0,0:0:0:0:
368,352,42681,2,0,P|314:353|261:341,1,107.999996704102,2|2,2:0|2:0,0:0:0:0:
222,263,43196,1,2,2:0:0:0:
160,323,43367,2,0,P|105:303|46:299,1,107.999996704102,8|0,3:0|3:0,0:0:0:0:
18,129,44053,2,0,B|-4:8,2,107.999996704102,2|0|8,3:2|3:0|3:0,0:0:0:0:
17,129,45424,6,0,P|43:121|70:117,1,53.9999983520508,2|0,3:2|2:0,0:0:0:0:
143,163,45767,1,2,3:2:0:0:
212,214,45938,2,0,P|237:221|264:225,1,53.9999983520508,2|8,2:2|3:0,0:0:0:0:
339,179,46281,1,2,2:0:0:0:
339,179,46453,1,2,2:0:0:0:
423,195,46624,2,0,L|494:208,1,53.9999983520508,0|0,2:0|2:0,0:0:0:0:
493,32,47138,6,0,L|385:40,2,107.999996704102,2|8|0,3:2|3:0|2:0,0:0:0:0:
340,113,48167,6,0,P|315:101|289:93,1,53.9999983520508,2|0,3:2|3:0,0:0:0:0:
226,35,48510,1,2,3:2:0:0:
163,94,48681,2,0,P|138:105|112:113,1,53.9999983520508,2|8,2:2|3:0,0:0:0:0:
31,99,49024,1,2,3:2:0:0:
31,99,49196,1,2,3:2:0:0:
3,180,49367,2,0,L|12:241,1,53.9999983520508,2|0,2:2|3:0,0:0:0:0:
148,338,49881,5,8,3:0:0:0:
310,278,50224,1,8,3:0:0:0:
471,215,50567,1,0,3:0:0:0:
326,129,50910,6,0,B|279:150|279:150|213:131,1,120,4|8,3:2|3:0,0:0:0:0:
39,314,51767,5,2,3:2:0:0:
39,314,51938,2,0,L|110:318,1,60,2|0,2:0|2:0,0:0:0:0:
176,284,52281,2,0,L|308:293,1,120,0|8,3:0|3:0,0:0:0:0:
495,137,53138,5,2,3:2:0:0:
495,137,53310,2,0,L|428:141,1,60,2|0,2:0|2:0,0:0:0:0:
381,205,53653,2,0,P|352:153|361:95,1,120,0|8,3:0|3:0,0:0:0:0:
124,25,54510,5,2,3:2:0:0:
124,25,54681,2,0,L|127:93,1,60,2|0,2:0|3:0,0:0:0:0:
197,130,55024,2,0,P|210:194|178:259,1,120,0|8,3:0|3:0,0:0:0:0:
59,348,55710,1,2,2:0:0:0:
226,336,56053,6,0,L|287:330,1,60,2|0,3:2|3:0,0:0:0:0:
361,367,56396,2,0,L|367:247,1,120,2|8,3:2|3:0,0:0:0:0:
424,185,56910,1,2,2:0:0:0:
428,101,57081,1,2,2:0:0:0:
277,26,57424,6,0,L|196:36,1,60,2|0,3:2|3:0,0:0:0:0:
133,17,57767,2,0,P|121:75|137:132,1,120,2|8,3:2|3:0,0:0:0:0:
217,174,58281,1,0,2:0:0:0:
217,174,58453,2,0,P|219:215|209:254,1,60,2|0,2:2|3:0,0:0:0:0:
155,291,58796,2,0,L|89:288,1,60,2|0,3:2|3:0,0:0:0:0:
63,365,59138,6,0,L|189:371,1,120,2|8,3:2|3:0,0:0:0:0:
342,316,59824,1,8,3:0:0:0:
502,365,60167,2,0,L|492:293,1,60,8|0,3:0|3:0,0:0:0:0:
504,221,60510,2,0,B|379:229|379:229|355:269|355:269|165:283,1,360,2|2,3:2|3:2,0:0:0:0:
108,125,61881,6,0,P|169:112|231:130,1,120,4|8,3:1|3:0,0:0:0:0:
459,29,62738,5,2,3:2:0:0:
459,29,62910,2,0,L|385:36,1,60,2|0,2:0|2:0,0:0:0:0:
314,43,63253,2,0,P|301:100|310:159,1,120,2|8,3:2|3:0,0:0:0:0:
486,348,64110,5,2,3:2:0:0:
486,348,64281,2,0,P|452:334|408:328,1,60,2|0,2:0|3:0,0:0:0:0:
353,367,64624,2,0,P|296:381|237:373,1,120,2|8,3:2|3:0,0:0:0:0:
173,319,65138,1,2,2:0:0:0:
234,165,65481,5,2,3:2:0:0:
234,165,65653,2,0,L|231:79,1,60,2|0,2:0|3:0,0:0:0:0:
284,39,65996,2,0,P|223:21|160:56,1,120,2|8,3:2|3:0,0:0:0:0:
24,343,67024,5,2,3:2:0:0:
172,263,67367,2,0,L|291:270,1,120,4|8,3:2|3:0,0:0:0:0:
359,320,67881,1,0,2:0:0:0:
443,313,68053,1,2,2:0:0:0:
375,159,68396,6,0,P|368:126|377:81,1,60,2|0,3:2|3:0,0:0:0:0:
433,44,68738,2,0,P|376:20|320:35,1,120,2|8,3:2|3:0,0:0:0:0:
266,99,69253,1,2,2:0:0:0:
266,99,69424,2,0,P|225:110|190:104,1,60,0|0,2:0|2:0,0:0:0:0:
142,56,69767,2,0,P|114:52|76:54,1,60,2|2,2:0|2:0,0:0:0:0:
26,115,70110,6,0,L|38:262,1,120,2|0,3:2|3:0,0:0:0:0:
12,318,70624,1,2,3:2:0:0:
12,318,70796,1,2,3:2:0:0:
82,363,70967,6,0,P|124:362|158:353,1,60,8|0,3:0|3:0,0:0:0:0:
216,307,71310,6,0,P|352:288|492:324,2,270.35,2|8|4,3:2|3:0|2:0,0:0:0:0:
142,351,73025,1,0,2:0:0:0:
110,273,73196,2,0,P|109:231|122:193,1,60,0|0,2:0|2:0,0:0:0:0:
176,157,73539,2,0,P|275:152|364:177,1,180,8|0,3:0|3:0,0:0:0:0:
431,202,74225,1,0,3:0:0:0:
250,46,74739,5,0,3:0:0:0:
168,66,74911,2,0,L|86:53,1,60,8|0,3:0|3:0,0:0:0:0:
37,11,75254,2,0,P|25:41|26:79,1,60,4|0,3:1|2:0,0:0:0:0:
58,144,75596,2,0,P|70:174|69:212,1,60,0|0,2:0|3:0,0:0:0:0:
38,279,75939,2,0,B|57:288|57:288|219:267,1,180,8|0,3:0|3:0,0:0:0:0:
290,304,76625,1,0,3:0:0:0:
495,158,77139,5,0,3:0:0:0:
436,218,77311,2,0,L|443:302,1,60,8|0,3:0|3:0,0:0:0:0:
399,351,77654,2,0,P|371:361|341:363,1,60,4|0,3:1|2:0,0:0:0:0:
271,317,77996,2,0,P|243:306|213:304,1,60,0|0,2:0|3:0,0:0:0:0:
138,342,78339,2,0,P|116:268|130:211,1,120,8|0,3:0|2:0,0:0:0:0:
204,79,79025,1,0,3:0:0:0:
439,169,79539,5,0,3:0:0:0:
394,97,79711,2,0,L|323:102,1,60,8|0,3:0|2:0,0:0:0:0:
282,167,80054,2,0,L|211:162,1,60,4|0,3:1|2:0,0:0:0:0:
145,197,80396,1,2,2:2:0:0:
145,197,80568,1,2,3:2:0:0:
72,155,80739,2,0,P|68:116|71:79,1,60,8|2,3:0|2:0,0:0:0:0:
220,21,81254,5,2,3:2:0:0:
296,55,81425,2,0,L|370:51,1,60,2|0,3:2|2:0,0:0:0:0:
429,10,81768,1,2,2:2:0:0:
487,69,81939,2,0,L|485:146,1,60,2|8,3:2|3:0,0:0:0:0:
442,291,82454,6,0,P|412:282|374:279,1,60,4|0,3:2|2:0,0:0:0:0:
317,330,82796,2,0,P|287:339|249:342,1,60,0|0,2:0|3:0,0:0:0:0:
175,327,83139,1,10,3:0:0:0:
321,121,83654,1,2,2:3:0:0:
116,268,84168,1,2,2:3:0:0:
275,215,84511,6,0,P|309:217|358:229,1,60,8|2,3:0|3:0,0:0:0:0:
409,260,84854,2,0,P|428:222|429:189,1,60,4|0,3:1|2:0,0:0:0:0:
370,146,85196,2,0,P|351:108|350:75,1,60,0|0,2:0|2:0,0:0:0:0:
397,22,85539,1,8,3:0:0:0:
397,22,85711,1,2,2:3:0:0:
151,76,86225,1,2,2:3:0:0:
401,99,86739,5,2,3:0:0:0:
318,80,86911,2,0,L|250:86,1,60,8|0,3:0|3:0,0:0:0:0:
202,148,87254,2,0,L|130:153,1,60,4|0,3:1|2:0,0:0:0:0:
64,119,87596,2,0,P|57:150|63:187,1,60,0|0,2:0|3:0,0:0:0:0:
98,253,87939,2,0,L|235:244,2,120,8|0|2,3:0|2:0|3:0,0:0:0:0:
329,352,89139,5,0,3:0:0:0:
329,352,89311,1,8,3:0:0:0:
352,271,89482,1,8,3:0:0:0:
376,190,89654,2,0,L|370:120,1,60,0|0,3:0|2:0,0:0:0:0:
392,49,89996,2,0,P|363:47|332:54,1,60,0|0,2:0|3:0,0:0:0:0:
271,111,90339,1,8,3:0:0:0:
194,145,90511,2,0,L|72:131,1,120,2|2,2:0|3:2,0:0:0:0:
34,57,91025,1,2,3:2:0:0:
81,225,91368,5,2,2:2:0:0:
133,287,91539,2,0,L|124:365,1,60,2|8,3:2|3:0,0:0:0:0:
204,377,91882,1,2,2:2:0:0:
286,359,92054,2,0,L|292:282,1,60,2|0,2:2|2:0,0:0:0:0:
345,236,92396,6,0,L|420:240,1,60,8|0,3:0|2:0,0:0:0:0:
473,287,92739,1,2,3:0:0:0:
487,119,93082,1,8,3:0:0:0:
324,163,93425,2,0,L|247:160,1,60,2|2,3:0|2:0,0:0:0:0:
195,112,93768,2,0,L|197:45,1,60,8|0,3:0|2:0,0:0:0:0:
267,6,94111,1,2,3:0:0:0:
111,69,94454,1,8,3:0:0:0:
226,190,94796,6,0,L|224:259,1,60,2|0,3:0|2:0,0:0:0:0:
184,324,95139,2,0,L|118:322,1,60,8|0,3:0|2:0,0:0:0:0:
51,364,95482,1,2,3:0:0:0:
124,212,95825,1,8,3:0:0:0:
202,63,96168,6,0,L|281:54,1,60,2|0,3:0|2:0,0:0:0:0:
338,90,96511,2,0,L|397:96,1,60,8|2,3:0|2:0,0:0:0:0:
464,45,96854,2,0,P|486:97|463:178,1,120,2|8,3:0|3:0,0:0:0:0:
415,329,97539,2,0,P|385:320|355:318,1,60,2|2,3:0|2:0,0:0:0:0:
282,357,97882,5,2,2:0:0:0:
114,350,98225,1,2,3:0:0:0:
244,243,98568,2,0,L|248:169,1,60,0|0,3:0|3:0,0:0:0:0:
299,116,98911,2,0,L|303:42,1,60,2|0,3:0|2:0,0:0:0:0:
231,10,99254,1,2,3:2:0:0:
381,83,99596,1,2,3:0:0:0:
214,103,99939,6,0,L|142:96,1,60,0|0,3:0|2:0,0:0:0:0:
80,55,100282,2,0,P|70:104|76:133,1,60,2|2,3:0|2:0,0:0:0:0:
124,178,100625,1,0,2:0:0:0:
47,329,100968,2,0,B|90:314|90:314|303:329,1,240,2|2,3:0|3:2,0:0:0:0:
358,367,101825,1,2,3:2:0:0:
435,335,101996,6,0,P|448:293|421:148,1,180,2|0,3:2|3:0,0:0:0:0:
379,92,102682,1,8,3:0:0:0:
294,95,102854,1,8,3:0:0:0:
210,97,103025,1,8,3:0:0:0:
50,203,103368,6,0,P|32:142|43:83,1,119.826,4|2,3:1|3:0,0:0:0:0:
231,213,104739,2,0,P|169:198|123:158,1,120,2|2,3:0|3:0,0:0:0:0:
345,141,106110,1,2,2:0:0:0:
345,141,107195,5,2,2:0:0:0:
209,239,107721,1,2,3:0:0:0:
43,211,108271,1,0,3:0:0:0:
43,211,109350,5,2,2:0:0:0:
209,239,109880,1,0,3:0:0:0:
345,141,110430,1,0,3:0:0:0:
493,291,124113,5,8,3:0:0:0:
407,164,124413,2,0,L|300:147,1,96,0|0,2:0|2:0,0:0:0:0:
177,233,125013,2,0,P|153:191|150:143,1,96,0|2,2:0|2:0,0:0:0:0:
218,5,125613,1,2,2:0:0:0:
233,163,125913,1,8,3:0:0:0:
108,72,126213,1,0,2:0:0:0:
46,212,126513,6,0,L|58:307,1,96,0|0,3:0|2:0,0:0:0:0:
130,347,126963,1,2,2:0:0:0:
200,305,127113,2,0,B|311:317,1,96,8|0,3:0|2:0,0:0:0:0:
449,369,127713,6,0,B|475:325|475:325|459:273,1,96,0|0,3:0|2:0,0:0:0:0:
478,202,128163,1,2,3:2:0:0:
495,122,128313,1,8,3:0:0:0:
367,19,128613,6,0,L|312:31,1,48,0|0,3:0|3:0,0:0:0:0:
264,89,128913,2,0,P|270:138|253:182,1,96,2|2,3:2|3:2,0:0:0:0:
93,207,129513,2,0,B|63:169|63:169|5:173,1,96,8|0,3:0|2:0,0:0:0:0:
3,335,130113,1,2,3:2:0:0:
165,317,130413,6,0,P|216:311|270:308,1,96,2|8,3:2|3:0,0:0:0:0:
411,372,131013,2,0,P|462:378|516:381,1,96,2|0,2:2|3:0,0:0:0:0:
504,216,131613,2,0,P|456:219|408:224,1,96,2|8,2:2|3:0,0:0:0:0:
248,228,132213,1,2,3:2:0:0:
248,228,132363,1,2,2:2:0:0:
189,171,132513,6,0,P|191:114|201:75,1,96,2|8,3:2|3:0,0:0:0:0:
351,12,133113,1,8,3:0:0:0:
484,106,133413,2,0,P|495:152|496:200,1,96,2|4,2:2|3:1,0:0:0:0:
357,286,134013,6,0,P|314:271|263:264,1,96,2|8,2:2|3:0,0:0:0:0:
190,118,134613,1,2,3:2:0:0:
54,208,134913,2,0,P|71:252|81:299,1,96,2|0,2:2|3:0,0:0:0:0:
236,355,135513,2,0,P|245:308|263:263,1,96,8|0,3:0|2:0,0:0:0:0:
373,142,136113,1,0,3:0:0:0:
266,18,136413,6,0,P|215:28|156:29,1,96,2|8,2:2|3:0,0:0:0:0:
114,88,136863,1,2,2:2:0:0:
177,143,137013,2,0,P|228:133|287:132,1,96,2|0,3:2|2:0,0:0:0:0:
401,32,137613,1,2,3:2:0:0:
414,194,137913,2,0,L|420:289,1,96,8|0,3:0|2:0,0:0:0:0:
275,363,138513,6,0,B|281:315|281:315|244:281,1,96,4|0,3:1|3:0,0:0:0:0:
83,264,139113,2,0,L|68:169,1,96,8|0,3:0|2:0,0:0:0:0:
176,47,139713,1,2,3:2:0:0:
309,140,140013,2,0,P|361:143|404:152,1,96,2|8,2:2|3:0,0:0:0:0:
486,11,140613,2,0,P|432:5|390:-1,1,96,2|0,3:2|2:0,0:0:0:0:
238,58,141213,6,0,L|188:52,1,48,2|0,2:2|2:0,0:0:0:0:
122,6,141513,1,8,3:0:0:0:
133,168,141813,1,0,3:0:0:0:
145,330,142113,2,0,B|186:302|186:302|232:308,1,96,2|0,3:2|3:0,0:0:0:0:
380,375,142713,1,8,3:0:0:0:
444,324,142863,2,0,L|439:228,1,96,2|0,2:2|2:0,0:0:0:0:
476,144,143313,5,4,3:1:0:0:
342,17,143613,2,0,B|291:4|291:4|229:29,1,107.999996704102,8|0,3:0|3:0,0:0:0:0:
193,104,144063,1,8,3:0:0:0:
193,104,144213,2,0,L|205:215,1,107.999996704102,0|0,2:0|3:0,0:0:0:0:
320,353,144813,6,0,P|366:326|419:330,1,107.999996704102,8|0,3:0|3:0,0:0:0:0:
512,349,145263,1,8,3:0:0:0:
512,349,145413,2,0,P|511:295|485:248,1,107.999996704102,0|0,2:0|3:0,0:0:0:0:
427,74,146013,6,0,L|306:91,1,107.999996704102,8|0,3:0|3:0,0:0:0:0:
138,118,146613,2,0,L|17:135,1,107.999996704102,2|0,2:2|3:0,0:0:0:0:
35,292,147363,6,0,P|68:299|94:310,1,53.9999983520508,8|8,3:0|3:0,0:0:0:0:
160,361,147663,2,0,P|193:354|219:343,1,53.9999983520508,8|8,3:0|3:0,0:0:0:0:
301,185,148113,5,2,3:2:0:0:
412,330,148413,1,8,3:0:0:0:
492,165,148713,2,0,B|505:115|505:115|472:51,1,107.999996704102,2|0,3:2|2:0,0:0:0:0:
392,82,149163,1,2,3:2:0:0:
392,82,149313,6,0,L|283:100,2,107.999996704102,2|8|0,3:2|3:0|3:0,0:0:0:0:
219,18,150213,2,0,P|184:59|175:112,1,107.999996704102,2|0,2:2|3:0,0:0:0:0:
326,216,150813,2,0,P|360:257|369:310,1,107.999996704102,2|0,2:2|2:0,0:0:0:0:
307,377,151263,1,8,3:0:0:0:
307,377,151413,2,0,L|197:368,1,107.999996704102,8|0,3:0|3:0,0:0:0:0:
61,240,152013,5,8,3:0:0:0:
61,240,152163,1,8,3:0:0:0:
146,206,152313,2,0,B|198:183|198:183|256:197,1,107.999996704102,0|8,3:0|3:0,0:0:0:0:
428,228,152913,5,4,3:1:0:0:
308,88,153213,2,0,L|200:99,1,107.999996704102,8|0,3:0|3:0,0:0:0:0:
151,28,153663,1,8,3:0:0:0:
151,28,153813,2,0,P|99:52|63:93,1,107.999996704102,0|0,2:0|3:0,0:0:0:0:
78,272,154413,2,0,P|130:296|166:337,1,107.999996704102,8|0,3:0|3:0,0:0:0:0:
328,250,155013,1,2,2:2:0:0:
504,300,155313,6,0,B|524:249|524:249|503:199,1,107.999996704102,0|8,3:0|3:0,0:0:0:0:
505,107,155763,1,2,2:2:0:0:
505,107,155913,2,0,L|397:96,1,107.999996704102,0|0,3:0|3:0,0:0:0:0:
234,12,156513,1,8,3:0:0:0:
292,186,156813,2,0,P|286:217|285:245,1,53.9999983520508,8|8,3:0|3:0,0:0:0:0:
351,303,157113,2,0,P|351:339|344:362,1,53.9999983520508,8|8,3:0|3:0,0:0:0:0:
258,382,157413,1,8,3:0:0:0:
76,355,157713,6,0,B|40:300|40:300|62:264,1,107.999996704102,2|0,3:2|3:0,0:0:0:0:
67,80,158313,2,0,P|119:62|171:53,1,107.999996704102,8|0,3:0|3:0,0:0:0:0:
250,100,158763,1,2,3:2:0:0:
250,100,158913,2,0,P|300:106|368:140,1,107.999996704102,2|0,3:2|3:0,0:0:0:0:
412,302,159513,2,0,P|362:323|309:331,1,107.999996704102,2|0,3:2|3:0,0:0:0:0:
174,206,160113,5,8,3:0:0:0:
9,286,160413,2,0,L|0:339,1,53.9999983520508,8|0,3:0|0:0,0:0:0:0:
84,377,160713,1,8,3:0:0:0:
406,210,161313,5,8,3:0:0:0:
353,137,161463,2,0,P|250:117|140:100,1,215.999993408203,8|0,3:0|3:0,0:0:0:0:
256,315,162483,5,4,3:2:0:0:
256,192,162687,12,0,171565,2:0:0:0:
